找回密码
 立即注册

QQ登录

只需一步,快速开始

查看: 58|回复: 0

[其他] 晚娘2012(下) Jan.Dara.The.Finale.2013.THAI.1080p.BluRay.x264.DD5.1-HANDJOB 10.27GB

[复制链接]

0

精华

0

好友

2

听众

新手上路

Rank: 2

蓝光币
5
发表于 2022-8-8 07:17:15 | 显示全部楼层 |阅读模式


◎译  名 晚娘2012(下) / 晚孃终篇:风月无边(港) / 晚娘下部:罪色(台) / 晚娘2012下部:最后一章 / Jan Dara: The Avengers / Jan Dara: The Finale / Jandara 2
◎片  名 ??? ???? ????????
◎年  代 2013
◎产  地 泰国
◎类  别 情色
◎语  言 泰语
◎上映日期 2013-02-07(泰国)
◎IMDb链接 https://www.imdb.com/title/tt2670454/
◎豆瓣评分 5.5/10 (6553人评价)
◎豆瓣链接 https://movie.douban.com/subject/20471829/
◎片  长 115分钟
◎导  演 M·L·蓬德菲尼普·杜瓦库 M.L. Pundhevanop Dhewakul (id:1314351)
◎编  剧 M·L·蓬德菲尼普·杜瓦库 M.L. Pundhevanop Dhewakul (id:1314351)
◎演  员 马里奥·毛瑞尔 Mario Maurer (id:1041011)
       查亚鹏·朱利·普帕特 Chaiyapol Julien Poupart (id:1326614)
       波昂科·德昂马莱 Bongkoj Khongmalai (id:1166880)
       芮塔·彭安 Rhatha Phongam (id:1328945)
       萨维卡·恰雅德 Savika Chaiyadej (id:1209371)
       那·特哈沙丁·那·阿育他亚 Nutt Devahastin Na Ayudhya (id:1348025)
       Ratklao Amaradit Ratklao Amaradit (id:1339024)
       朗萨克·洛伊楚萨 Ruangsak Loychusak (id:1338979)
       婉娜拉·宋提查 Wannarot Sonthichai (id:1314797)
       彭拍·瓦奇拉班桌 Pongpat Wachirabunjong (id:1302648)
       卡恩皮彻尔·凯特玛妮 Karnpitchar Ketmanee (id:1464430)
◎简  介

  几年后,真接到继母的召唤,父亲要求他回家与已经怀有身孕,同父异母的妹妹乔(西野翔)成亲!百般惊讶的真在父亲答应他成为家族的主人后,回到家中。在逐步揭开自已身世的过程中,真似乎同时回到一个难以逃离的情欲轮回!
◎获奖情况 (共6项)
  第23届泰国电影金天鹅奖 (2014)
  最佳男配角(提名)
   └──查亚鹏·朱利·普帕特 (id:1326614)
  最佳摄影(提名)
  最佳配乐
  最佳艺术指导(提名)
  最佳服装设计(提名)
  最佳化妆(提名)
  1. Video
  2. ID                                       : 1
  3. Format                                   : AVC
  4. Format/Info                              : Advanced Video Codec
  5. Format profile                           : [email protected]
  6. Format settings                          : CABAC / 5 Ref Frames
  7. Format settings, CABAC                   : Yes
  8. Format settings, Reference frames        : 5 frames
  9. Codec ID                                 : V_MPEG4/ISO/AVC
  10. Duration                                 : 2 h 23 min
  11. Bit rate                                 : 9 559 kb/s
  12. Width                                    : 1 916 pixels
  13. Height                                   : 816 pixels
  14. Display aspect ratio                     : 2.35:1
  15. Frame rate mode                          : Constant
  16. Frame rate                               : 24.000 FPS
  17. Color space                              : YUV
  18. Chroma subsampling                       : 4:2:0
  19. Bit depth                                : 8 bits
  20. Scan type                                : Progressive
  21. Bits/(Pixel*Frame)                       : 0.255
  22. Stream size                              : 9.61 GiB (94%)
  23. Writing library                          : x264 core 164 r3065 ae03d92
  24. Encoding settings                        : cabac=1 / ref=5 / deblock=1:-3:-3 / analyse=0x3:0x133 / me=umh / subme=10 / psy=1 / psy_rd=1.00:0.00 / mixed_ref=1 / me_range=32 / chroma_me=1 / trellis=2 / 8x8dct=1 / cqm=0 / deadzone=21,11 / fast_pskip=0 / chroma_qp_offset=-2 / threads=18 / lookahead_threads=4 / sliced_threads=0 / nr=0 / decimate=0 / interlaced=0 / bluray_compat=0 / constrained_intra=0 / bframes=16 / b_pyramid=2 / b_adapt=2 / b_bias=0 / direct=3 / weightb=1 / open_gop=0 / weightp=2 / keyint=240 / keyint_min=24 / scenecut=40 / intra_refresh=0 / rc_lookahead=60 / rc=crf / mbtree=0 / crf=17.0 / qcomp=0.60 / qpmin=0 / qpmax=69 / qpstep=4 / vbv_maxrate=62500 / vbv_bufsize=78125 / crf_max=0.0 / nal_hrd=none / filler=0 / ip_ratio=1.40 / pb_ratio=1.30 / aq=2:1.00
  25. Default                                  : Yes
  26. Forced                                   : No
  27. Color range                              : Limited
  28. Color primaries                          : BT.709
  29. Transfer characteristics                 : BT.709
  30. Matrix coefficients                      : BT.709
  31. Audio
  32. ID                                       : 2
  33. Format                                   : AC-3
  34. Format/Info                              : Audio Coding 3
  35. Commercial name                          : Dolby Digital
  36. Codec ID                                 : A_AC3
  37. Duration                                 : 2 h 23 min
  38. Bit rate mode                            : Constant
  39. Bit rate                                 : 640 kb/s
  40. Channel(s)                               : 6 channels
  41. Channel layout                           : L R C LFE Ls Rs
  42. Sampling rate                            : 48.0 kHz
  43. Frame rate                               : 31.250 FPS (1536 SPF)
  44. Compression mode                         : Lossy
  45. Stream size                              : 659 MiB (6%)
  46. Language                                 : Thai
  47. Service kind                             : Complete Main
  48. Default                                  : Yes
  49. Forced                                   : No
  50. Text #1
  51. ID                                       : 3
  52. Format                                   : UTF-8
  53. Codec ID                                 : S_TEXT/UTF8
  54. Codec ID/Info                            : UTF-8 Plain Text
  55. Duration                                 : 2 h 16 min
  56. Bit rate                                 : 33 b/s
  57. Frame rate                               : 0.144 FPS
  58. Count of elements                        : 1180
  59. Stream size                              : 33.4 KiB (0%)
  60. Language                                 : English
  61. Default                                  : Yes
  62. Forced                                   : No
  63. Text #2
  64. ID                                       : 4
  65. Format                                   : PGS
  66. Muxing mode                              : zlib
  67. Codec ID                                 : S_HDMV/PGS
  68. Codec ID/Info                            : Picture based subtitle format used on BDs/HD-DVDs
  69. Duration                                 : 2 h 17 min
  70. Bit rate                                 : 17.1 kb/s
  71. Frame rate                               : 0.249 FPS
  72. Count of elements                        : 2052
  73. Stream size                              : 16.7 MiB (0%)
  74. Language                                 : Chinese
  75. Default                                  : No
  76. Forced                                   : No
  77. Menu
  78. 00:00:00.000                             : :Chapter 1
  79. 00:11:29.791                             : :Chapter 2
  80. 00:27:19.750                             : :Chapter 3
  81. 00:37:44.916                             : :Chapter 4
  82. 00:53:11.250                             : :Chapter 5
  83. 01:09:57.000                             : :Chapter 6
  84. 01:21:59.333                             : :Chapter 7
  85. 01:29:48.708                             : :Chapter 8
  86. 01:39:43.166                             : :Chapter 9
  87. 01:53:51.916                             : :Chapter 10
  88. 02:02:18.416                             : :Chapter 11
  89. 02:10:47.500                             : :Chapter 12
复制代码







                                       
                                       

                                       
                                       
                                       




Jan.Dara.The.Finale.2013.THAI.1080p.BluRay.x264.DD5.1-HANDJOB.torrent (13.5 KB, 下载次数: 0)
回复

使用道具 举报

您需要登录后才可以回帖 登录 | 立即注册

本版积分规则

QQ|Archiver|手机版|小黑屋|蓝光电影网

GMT+8, 2022-10-8 04:02 , Processed in 0.056267 second(s), 28 queries .

Powered by Discuz! X3.4

Copyright © 2001-2020, Tencent Cloud.

快速回复 返回顶部 返回列表