找回密码
 立即注册

QQ登录

只需一步,快速开始

查看: 60|回复: 0

[喜剧片] 骠骑兵之歌 The.Hussar.Ballad.1962.RUSSIAN.1080p.BluRay.x264.DD5.1-HANDJOB 7.89GB

[复制链接]

0

精华

0

好友

2

听众

新手上路

Rank: 2

蓝光币
5
发表于 2022-8-8 07:07:52 | 显示全部楼层 |阅读模式


◎译  名 骠骑兵之歌 / 骠骑兵的故事
◎片  名 Гусарская баллада
◎年  代 1962
◎产  地 苏联
◎类  别 喜剧 / 歌舞
◎语  言 俄语
◎上映日期 1963-07-13(美国)
◎IMDb链接 https://www.imdb.com/title/tt0056045/
◎豆瓣评分 7.0/10 (131人评价)
◎豆瓣链接 https://movie.douban.com/subject/3259302/
◎片  长 96 分钟
◎导  演 埃利达尔·梁赞诺夫 Eldar Ryazanov (id:1041833)
◎编  剧 Aleksandr Gladkov Aleksandr Gladkov (id:1004429)
       埃利达尔·梁赞诺夫 Eldar Ryazanov (id:1041833)
◎演  员 拉里莎·戈卢布金娜 Larisa Golubkina (id:1096387)
       尤里·雅科夫列夫 Yuriy Yakovlev (id:1165313)
       伊戈尔·伊林斯基 Igor Ilyinsky (id:1102540)
       尼古拉·克留奇科夫 Nikolai Kryuchkov (id:1017127)
       Antoni Khodursky Antoni Khodursky (id:1107288)
       列夫·波利亚科夫 Lev Polyakov (id:1133419)
       根纳季·尤金 Gennadi Yudin (id:1163573)
       Lev Lyubetskiy Lev Lyubetskiy (id:1119534)
       Yuri Martynov Yuri Martynov (id:1122321)
       阿迪亚·潘乔里 Aditya Pancholi (id:1126192)
       Aleksey Polevoy Aleksey Polevoy (id:1126686)
       Feliks Yavorsky Feliks Yavorsky (id:1167225)
       Lalita Pawar Lalita Pawar (id:1134458)
       弗拉基米尔·谢里亚夫 Vladimir Shiryaev (id:1138462)
       帕维尔·施普林菲尔德 Pavel Shpringfeld (id:1145859)
       萨蒂什·沙阿 Satish Shah (id:1146527)
       普拉姆·达伦 Poonam Dhillon (id:1000712)
       尤里·基列耶夫 Yuri Kireyev (id:1112473)
       纳萨鲁丁·沙 Naseeruddin Shah (id:1010658)
       达里普·塔西尔 Dalip Tahil (id:1041795)
       尤里·别洛夫 Yuri Belov (id:1063071)
       瓦连京·布雷列耶夫 Valentin Bryleyev (id:1074857)
       Vladimir Grave Vladimir Grave (id:1094668)
       弗拉基米尔·米·古谢夫 Vladimir Gusev (id:1097262)
       Roman Khomyatov Roman Khomyatov (id:1102591)
       鲍里斯·伊万诺夫 Boris Ivanov (id:1103876)
       阿姆贾德·汗 Amjad Khan (id:1104632)
       Sunil Gavaskar Sunil Gavaskar (id:1171358)
       季洪·赫连尼科夫 Tikhon Khrennikov (id:1020979)
       Anu Malik Anu Malik (id:1054337)
       Leonid Kraynenkov Leonid Kraynenkov (id:1109551)
       根纳季·迈亚斯尼科夫 Gennadi Myasnikov (id:1133916)
       米哈伊尔·博格达诺夫 Mikhail Bogdanov (id:1065905)
       Olga Kruchinina Olga Kruchinina (id:1013638)
◎简  介

  故事发生在俄法战争爆发期间,骠骑兵上尉高城诺夫(尤里·雅科夫列夫 Yuriy Yakovlev 饰)被叔叔勒令迎娶未曾谋面的未婚妻舒络奇卡(拉里莎·戈卢布金娜 Larisa Golubkina 饰),高城诺夫对舒络奇卡完全没有感情,这段婚事他只要一想到就觉得头痛。                                    
                                在军营里,一位自称是舒络奇卡表弟的骠骑兵少尉阿加罗夫(拉里莎·戈卢布金娜 Larisa Golubkina 饰)吸引了高城诺夫的注意,这个小伙子不仅人聪明,办事还利索,很快就得到了高城诺夫的信赖和喜爱,两人之间结下了深厚的友谊。实际上,阿加罗夫的真实身份正是女扮男装的舒络奇卡,战争爆发之后,满腔的爱国热情驱使她做出了这样疯狂而又危险的举动。
  1. Video
  2. ID                                       : 1
  3. Format                                   : AVC
  4. Format/Info                              : Advanced Video Codec
  5. Format profile                           : [email protected]
  6. Format settings                          : CABAC / 5 Ref Frames
  7. Format settings, CABAC                   : Yes
  8. Format settings, Reference frames        : 5 frames
  9. Codec ID                                 : V_MPEG4/ISO/AVC
  10. Duration                                 : 1 h 34 min
  11. Bit rate                                 : 11.4 Mb/s
  12. Width                                    : 1 480 pixels
  13. Height                                   : 1 080 pixels
  14. Display aspect ratio                     : 1.370
  15. Frame rate mode                          : Constant
  16. Frame rate                               : 23.976 (24000/1001/189150) FPS
  17. Color space                              : YUV
  18. Chroma subsampling                       : 4:2:0
  19. Bit depth                                : 8 bits
  20. Scan type                                : Progressive
  21. Bits/(Pixel*Frame)                       : 0.296
  22. Stream size                              : 7.47 GiB (95%)
  23. Writing library                          : x264 core 164 r3065 ae03d92
  24. Encoding settings                        : cabac=1 / ref=5 / deblock=1:-3:-3 / analyse=0x3:0x133 / me=umh / subme=10 / psy=1 / psy_rd=1.00:0.00 / mixed_ref=1 / me_range=32 / chroma_me=1 / trellis=2 / 8x8dct=1 / cqm=0 / deadzone=21,11 / fast_pskip=0 / chroma_qp_offset=-2 / threads=34 / lookahead_threads=8 / sliced_threads=0 / nr=0 / decimate=0 / interlaced=0 / bluray_compat=0 / constrained_intra=0 / bframes=16 / b_pyramid=2 / b_adapt=2 / b_bias=0 / direct=3 / weightb=1 / open_gop=0 / weightp=2 / keyint=240 / keyint_min=24 / scenecut=40 / intra_refresh=0 / rc_lookahead=60 / rc=crf / mbtree=0 / crf=17.8 / qcomp=0.60 / qpmin=0 / qpmax=69 / qpstep=4 / vbv_maxrate=62500 / vbv_bufsize=78125 / crf_max=0.0 / nal_hrd=none / filler=0 / ip_ratio=1.40 / pb_ratio=1.30 / aq=2:1.00
  25. Default                                  : Yes
  26. Forced                                   : No
  27. Color range                              : Limited
  28. Color primaries                          : BT.709
  29. Transfer characteristics                 : BT.709
  30. Matrix coefficients                      : BT.709
  31. Audio
  32. ID                                       : 2
  33. Format                                   : AC-3
  34. Format/Info                              : Audio Coding 3
  35. Commercial name                          : Dolby Digital
  36. Codec ID                                 : A_AC3
  37. Duration                                 : 1 h 34 min
  38. Bit rate mode                            : Constant
  39. Bit rate                                 : 640 kb/s
  40. Channel(s)                               : 6 channels
  41. Channel layout                           : L R C LFE Ls Rs
  42. Sampling rate                            : 48.0 kHz
  43. Frame rate                               : 31.250 FPS (1536 SPF)
  44. Compression mode                         : Lossy
  45. Stream size                              : 431 MiB (5%)
  46. Language                                 : Russian
  47. Service kind                             : Complete Main
  48. Default                                  : Yes
  49. Forced                                   : No
  50. Text
  51. ID                                       : 3
  52. Format                                   : UTF-8
  53. Codec ID                                 : S_TEXT/UTF8
  54. Codec ID/Info                            : UTF-8 Plain Text
  55. Duration                                 : 1 h 33 min
  56. Bit rate                                 : 48 b/s
  57. Frame rate                               : 0.208 FPS
  58. Count of elements                        : 1171
  59. Stream size                              : 33.6 KiB (0%)
  60. Language                                 : English
  61. Default                                  : Yes
  62. Forced                                   : No
  63. Menu
  64. 00:00:00.000                             : en:Chapter 1
  65. 00:06:38.440                             : en:Chapter 2
  66. 00:10:34.634                             : en:Chapter 3
  67. 00:16:32.992                             : en:Chapter 4
  68. 00:22:36.397                             : en:Chapter 5
  69. 00:26:44.478                             : en:Chapter 6
  70. 00:29:50.789                             : en:Chapter 7
  71. 00:32:04.965                             : en:Chapter 8
  72. 00:36:11.211                             : en:Chapter 9
  73. 00:39:33.454                             : en:Chapter 10
  74. 00:40:46.444                             : en:Chapter 11
  75. 00:48:32.952                             : en:Chapter 12
  76. 00:50:55.094                             : en:Chapter 13
  77. 00:54:41.820                             : en:Chapter 14
  78. 01:01:21.720                             : en:Chapter 15
  79. 01:06:49.506                             : en:Chapter 16
  80. 01:10:33.271                             : en:Chapter 17
  81. 01:16:09.648                             : en:Chapter 18
  82. 01:27:02.300                             : en:Chapter 19
  83. 01:29:49.384                             : en:Chapter 20
复制代码






                                       
                                       

                                       
                                       
                                       




The.Hussar.Ballad.1962.RUSSIAN.1080p.BluRay.x264.DD5.1-HANDJOB.torrent (20.38 KB, 下载次数: 0)
回复

使用道具 举报

您需要登录后才可以回帖 登录 | 立即注册

本版积分规则

QQ|Archiver|手机版|小黑屋|蓝光电影网

GMT+8, 2022-10-8 02:52 , Processed in 0.055537 second(s), 28 queries .

Powered by Discuz! X3.4

Copyright © 2001-2020, Tencent Cloud.

快速回复 返回顶部 返回列表