找回密码
 立即注册

QQ登录

只需一步,快速开始

查看: 60|回复: 0

[剧情片] 同床惊魂 The.Burning.Bed.1984.OAR.1080p.BluRay.x264.FLAC.2.0-HANDJOB 6.59GB

[复制链接]

0

精华

0

好友

2

听众

新手上路

Rank: 2

蓝光币
5
发表于 2022-8-8 07:07:10 | 显示全部楼层 |阅读模式


◎译  名 同床惊魂
◎片  名 The Burning Bed
◎年  代 1984
◎产  地 美国
◎类  别 剧情 / 犯罪
◎语  言 英语
◎上映日期 1984-10-08
◎IMDb链接 https://www.imdb.com/title/tt0087010/
◎豆瓣链接 https://movie.douban.com/subject/3136418/
◎片  长 95分钟
◎导  演 罗伯特·格林沃德 Robert Greenwald (id:1050509)
◎编  剧 Rose Leiman Goldemberg Rose Leiman Goldemberg (id:1285046)
        Faith McNulty (id:1221594)
◎演  员 Patricia George Patricia George (id:1099484)
       费拉·福赛特 Farrah Fawcett (id:1009213)
       韦恩·奈特 Wayne Knight (id:1025209)
       理查德·马苏尔 Richard Masur (id:1041211)
       保罗·勒马特 Paul Le Mat (id:1049873)
       Jeffrey Lampert Jeffrey Lampert (id:1289332)
       詹姆斯·T.卡拉汉 James T. Callahan (id:1070686)
       胡莉汉德·伯克 Hoolihand Burke (id:1076443)
       Elizabeth Lyn Fraser Elizabeth Lyn Fraser (id:1081617)
       David Friedman David Friedman (id:1088480)
       Christa Denton Christa Denton (id:1282258)
       Justin Gocke Justin Gocke (id:1096101)
       格蕾丝·扎布里斯基 Grace Zabriskie (id:1167026)
       Fred D. Scott Fred D. Scott (id:1138475)
       Anna Pagan Anna Pagan (id:1129699)
       Gilmer McCormick Gilmer McCormick (id:1118681)
       加里·格鲁布斯 Gary Grubbs (id:1099260)
       詹姆斯·汉普顿 James Hampton (id:1099923)
       佩内洛普·米尔福 Penelope Milford (id:1000547)
       史蒂夫·蒂彻 Steve Tisch (id:1007243)
       Carol Schreder Carol Schreder (id:1296961)
       乔恩·阿维奈 Jon Avnet (id:1041299)
       Rose Leiman Goldemberg Rose Leiman Goldemberg (id:1285046)
       Charles Gross Charles Gross (id:1100775)
       Isidore Mankofsky Isidore Mankofsky (id:1290879)
       Michael A. Stevenson Michael A. Stevenson (id:1298426)
       Richard Fetterman Richard Fetterman (id:1283653)
       Mary Ann Good Mary Ann Good (id:1285133)
       Herman F. Zimmerman Herman F. Zimmerman (id:1001529)
       Stephen Robinette Stephen Robinette (id:1295798)
       迈克尔·汉考克 Michael Hancock (id:1285947)
◎简  介

  Farrah Fawcett earned Emmy and Golden Globe nominations for her portrayal of Francine Hughes in the television movie The Burning Bed. The film is structured as a series of flashbacks while Francine's character endures a murder trial after she poured gasoline on her sleeping spouse and burned him to death. Her husband Mickey (Paul Le Mat) drove her over the edge after years of p...
  1. Video
  2. ID                                       : 1
  3. Format                                   : AVC
  4. Format/Info                              : Advanced Video Codec
  5. Format profile                           : [email protected]
  6. Format settings                          : CABAC / 5 Ref Frames
  7. Format settings, CABAC                   : Yes
  8. Format settings, Reference frames        : 5 frames
  9. Codec ID                                 : V_MPEG4/ISO/AVC
  10. Duration                                 : 1 h 35 min
  11. Bit rate                                 : 9 681 kb/s
  12. Width                                    : 1 444 pixels
  13. Height                                   : 1 080 pixels
  14. Display aspect ratio                     : 4:3
  15. Frame rate mode                          : Constant
  16. Frame rate                               : 23.976 (24000/1001/189150) FPS
  17. Color space                              : YUV
  18. Chroma subsampling                       : 4:2:0
  19. Bit depth                                : 8 bits
  20. Scan type                                : Progressive
  21. Bits/(Pixel*Frame)                       : 0.259
  22. Stream size                              : 6.48 GiB (98%)
  23. Writing library                          : x264 core 148 r2708 86b7198
  24. Encoding settings                        : cabac=1 / ref=5 / deblock=1:-3:-3 / analyse=0x3:0x133 / me=umh / subme=10 / psy=1 / psy_rd=1.00:0.00 / mixed_ref=1 / me_range=32 / chroma_me=1 / trellis=2 / 8x8dct=1 / cqm=0 / deadzone=21,11 / fast_pskip=0 / chroma_qp_offset=-2 / threads=18 / lookahead_threads=4 / sliced_threads=0 / nr=0 / decimate=0 / interlaced=0 / bluray_compat=0 / constrained_intra=0 / bframes=16 / b_pyramid=2 / b_adapt=2 / b_bias=0 / direct=3 / weightb=1 / open_gop=0 / weightp=1 / keyint=240 / keyint_min=24 / scenecut=40 / intra_refresh=0 / rc_lookahead=60 / rc=crf / mbtree=0 / crf=23.0 / qcomp=0.60 / qpmin=0 / qpmax=69 / qpstep=4 / vbv_maxrate=62500 / vbv_bufsize=78125 / crf_max=0.0 / nal_hrd=none / filler=0 / ip_ratio=1.40 / pb_ratio=1.30 / aq=2:1.00
  25. Default                                  : Yes
  26. Forced                                   : No
  27. Color range                              : Limited
  28. Color primaries                          : BT.709
  29. Transfer characteristics                 : BT.709
  30. Matrix coefficients                      : BT.709
  31. Audio
  32. ID                                       : 2
  33. Format                                   : AAC LC
  34. Format/Info                              : Advanced Audio Codec Low Complexity
  35. Codec ID                                 : A_AAC-2
  36. Duration                                 : 1 h 35 min
  37. Bit rate                                 : 148 kb/s
  38. Channel(s)                               : 2 channels
  39. Channel layout                           : L R
  40. Sampling rate                            : 48.0 kHz
  41. Frame rate                               : 46.875 FPS (1024 SPF)
  42. Compression mode                         : Lossy
  43. Delay relative to video                  : 11 s 0 ms
  44. Stream size                              : 102 MiB (2%)
  45. Language                                 : English
  46. Default                                  : Yes
  47. Forced                                   : No
  48. Text #1
  49. ID                                       : 3
  50. Format                                   : UTF-8
  51. Codec ID                                 : S_TEXT/UTF8
  52. Codec ID/Info                            : UTF-8 Plain Text
  53. Duration                                 : 1 h 32 min
  54. Bit rate                                 : 60 b/s
  55. Frame rate                               : 0.214 FPS
  56. Count of elements                        : 1189
  57. Stream size                              : 40.8 KiB (0%)
  58. Language                                 : English
  59. Default                                  : Yes
  60. Forced                                   : No
  61. Text #2
  62. ID                                       : 4
  63. Format                                   : PGS
  64. Muxing mode                              : zlib
  65. Codec ID                                 : S_HDMV/PGS
  66. Codec ID/Info                            : Picture based subtitle format used on BDs/HD-DVDs
  67. Duration                                 : 1 h 32 min
  68. Bit rate                                 : 30.8 kb/s
  69. Frame rate                               : 0.432 FPS
  70. Count of elements                        : 2397
  71. Stream size                              : 20.4 MiB (0%)
  72. Language                                 : English
  73. Default                                  : No
  74. Forced                                   : No
  75. Menu
  76. 00:00:00.000                             : :Chapter 1
  77. 00:10:58.283                             : :Chapter 2
  78. 00:19:17.073                             : :Chapter 3
  79. 00:30:41.089                             : :Chapter 4
  80. 00:41:32.573                             : :Chapter 5
  81. 00:57:20.020                             : :Chapter 6
  82. 01:07:51.651                             : :Chapter 7
  83. 01:19:30.933                             : :Chapter 8
复制代码







                                       
                                       

                                       
                                       
                                       




The.Burning.Bed.1984.OAR.1080p.BluRay.x264.FLAC.2.0-HANDJOB.torrent (17.14 KB, 下载次数: 0)
回复

使用道具 举报

您需要登录后才可以回帖 登录 | 立即注册

本版积分规则

QQ|Archiver|手机版|小黑屋|蓝光电影网

GMT+8, 2022-10-8 04:04 , Processed in 0.059171 second(s), 28 queries .

Powered by Discuz! X3.4

Copyright © 2001-2020, Tencent Cloud.

快速回复 返回顶部 返回列表