找回密码
 立即注册

QQ登录

只需一步,快速开始

查看: 61|回复: 0

[剧情片] 长津湖之水门桥 The.Battle.at.Lake.Changjin.II.2022.CHINESE.1080p.BluRay.x264.DD5.1-iKiW 13.26GB

[复制链接]

0

精华

0

好友

2

听众

新手上路

Rank: 2

蓝光币
5
发表于 2022-8-8 07:06:37 | 显示全部楼层 |阅读模式


◎译  名 长津湖之水门桥 / 水门桥 / 长津湖2 / 三炸水门桥 / 长津湖(下) / The Battle At Lake Changjin II / Watergate Bridge
◎年  代 2022
◎产  地 中国大陆 / 中国香港
◎类  别 剧情 / 历史 / 战争
◎语  言 汉语普通话
◎上映日期 2022-02-01(中国大陆)
◎IMDb链接 https://www.imdb.com/title/tt16194408/
◎豆瓣评分 7.2/10 (303080人评价)
◎豆瓣链接 https://movie.douban.com/subject/35613853/
◎片  长 149分钟
◎导  演 徐克 Hark Tsui (id:1007152)
◎编  剧 兰晓龙 Xiaolong Lan (id:1275188)
       黄建新 Jianxin Huang (id:1019896)
◎演  员 吴京 Jing Wu (id:1000525)
       易烊千玺 Jackson Yee (id:1340022)
       朱亚文 Yawen Zhu (id:1312699)
       李晨 Chen Li (id:1274252)
       韩东君 Elvis Han (id:1348542)
       张涵予 Hanyu Zhang (id:1274319)
       耿乐 Le Geng (id:1274576)
       杜淳 Chun Du (id:1016663)
       段奕宏 Yihong Duan (id:1274291)
       胡军 Jun Hu (id:1032540)
       王丽坤 Likun Wang (id:1313574)
       杨一威 Yiwei Yang (id:1344877)
       李卓扬 Zhuoyang Li (id:1424102)
       何跃飞 Yuefei He (id:1462288)
       唐志强 Zhiqiang Tang (id:1462289)
       刘治威 Zhiwei Liu (id:1462287)
       庄小龙 Xiaolong Zhuang (id:1361307)
       辛玉波 Yubo Xin (id:1462291)
       张跃 Yue Zhang (id:1462292)
       许明虎 Tiger Xu (id:1325510)
       王宁 Ning Wang (id:1329168)
       王振威 Zhenwei Wang (id:1331393)
       陈泽轩 Zexuan Chen (id:1405579)
       李小锋 Xiaofeng Li (id:1462304)
       詹姆斯·菲尔伯德 James Filbird (id:1467075)
       约翰·克鲁兹 John Cruz (id:1467073)
       史磊 Lei Shi (id:1330939)
       胡学良 Xueliang Hu (id:1462290)
       贺广治  Guangzhi He (id:1462293)
       黄晓航 Xiaohang Huang (id:1462297)
       曹敖日格勒  (id:1462298)
       章小磊 Xiaolei Zhang (id:1462300)
       宋玉臣 Yuechen Song (id:1462301)
       张志坤 Zhikun Zhang (id:1462299)
       基里洛·舒尔加 Kyrylo Shulga (id:1474224)
       本·奥伦斯坦 Ben Orenstein (id:1474219)
       马蒂亚斯·洛里里 Matias Lorieri (id:1474218)
       黎艾蒙 Aimeng Li (id:1472872)
       于冬 Dong Yu (id:1317865)
       刘绍勇  (id:1453731)
       黄建新 Jianxin Huang (id:1019896)
       陈红 Hong Chen (id:1037742)
       施南生 Nansun Shi (id:1314820)
       梁凤英 Candy Leung (id:1326682)
       陈凯歌 Kaige Chen (id:1023040)
       徐克 Hark Tsui (id:1007152)
       林超贤 Dante Lam (id:1275075)
       蒋德富 Defu Jiang (id:1423660)
       曲吉小江 Xiaojiang Quji (id:1423706)
       吴京 Jing Wu (id:1000525)
       王之一 Zhiyi Wang (id:1398216)
       梁皓一  (id:1460859)
       李野  (id:1463554)
       罗攀 Pan Luo (id:1348389)
       高虎 Hu Gao (id:1450156)
       谢忠道 Kenny Tse (id:1319336)
       鲍德熹 Peter Pau (id:1294116)
       黄永恒 Wing-Hung Wong (id:1300411)
       丁豫 Yu Ding (id:1376690)
       张和平 Heping Zhang (id:1399847)
       霍廷霄 Tingxiao Huo (id:1287179)
       陆苇 Wei Lu (id:1386941)
       林伟健  (id:1460857)
       何志恒  (id:1460858)
       史蒂夫·伯吉斯 Steve Burgess (id:1279633)
       王丹戎 Danrong Wang (id:1276106)
       林峰 Feng Lin (id:1322676)
       董玮 Wai Tung (id:1299617)
       杨帅 Shuai Yang (id:1461805)
       王树增 Wang Shuzeng (id:1457564)
       舞当派 wutungpai (id:1468903)
◎简  介

  电影以抗美援朝战争第二次战役中的长津湖战役为背景,讲述了在结束了新兴里和下碣隅里的战斗之后,七连战士们又接到了更艰巨的任务……
  1. Video
  2. ID                                       : 1
  3. Format                                   : AVC
  4. Format/Info                              : Advanced Video Codec
  5. Format profile                           : [email protected]
  6. Format settings                          : CABAC / 5 Ref Frames
  7. Format settings, CABAC                   : Yes
  8. Format settings, Reference frames        : 5 frames
  9. Codec ID                                 : V_MPEG4/ISO/AVC
  10. Duration                                 : 2 h 29 min
  11. Bit rate                                 : 12.0 Mb/s
  12. Width                                    : 1 920 pixels
  13. Height                                   : 816 pixels
  14. Display aspect ratio                     : 2.35:1
  15. Frame rate mode                          : Constant
  16. Frame rate                               : 24.000 FPS
  17. Color space                              : YUV
  18. Chroma subsampling                       : 4:2:0
  19. Bit depth                                : 8 bits
  20. Scan type                                : Progressive
  21. Bits/(Pixel*Frame)                       : 0.319
  22. Stream size                              : 12.5 GiB (95%)
  23. Writing library                          : x264 core 133 r2334 a3ac64b
  24. Encoding settings                        : cabac=1 / ref=5 / deblock=1:-3:-3 / analyse=0x3:0x113 / me=umh / subme=11 / psy=1 / psy_rd=1.00:0.00 / mixed_ref=1 / me_range=64 / chroma_me=1 / trellis=2 / 8x8dct=1 / cqm=0 / deadzone=21,11 / fast_pskip=1 / chroma_qp_offset=-4 / threads=36 / lookahead_threads=6 / sliced_threads=0 / nr=0 / decimate=0 / interlaced=0 / bluray_compat=0 / constrained_intra=0 / bframes=8 / b_pyramid=2 / b_adapt=2 / b_bias=0 / direct=3 / weightb=1 / open_gop=0 / weightp=2 / keyint=250 / keyint_min=24 / scenecut=40 / intra_refresh=0 / rc=2pass / mbtree=0 / bitrate=12000 / ratetol=1.0 / qcomp=0.60 / qpmin=0 / qpmax=69 / qpstep=4 / cplxblur=20.0 / qblur=0.5 / ip_ratio=1.40 / pb_ratio=1.30 / aq=1:0.80
  25. Language                                 : English
  26. Default                                  : Yes
  27. Forced                                   : No
  28. Audio
  29. ID                                       : 2
  30. Format                                   : AC-3
  31. Format/Info                              : Audio Coding 3
  32. Commercial name                          : Dolby Digital
  33. Format settings                          : Dolby Surround EX
  34. Codec ID                                 : A_AC3
  35. Duration                                 : 2 h 29 min
  36. Bit rate mode                            : Constant
  37. Bit rate                                 : 640 kb/s
  38. Channel(s)                               : 6 channels
  39. Channel layout                           : L R C LFE Ls Rs
  40. Sampling rate                            : 48.0 kHz
  41. Frame rate                               : 31.250 FPS (1536 SPF)
  42. Compression mode                         : Lossy
  43. Stream size                              : 685 MiB (5%)
  44. Title                                    : 公映国语
  45. Language                                 : Chinese
  46. Service kind                             : Complete Main
  47. Default                                  : Yes
  48. Forced                                   : No
  49. Text #1
  50. ID                                       : 3
  51. Format                                   : UTF-8
  52. Codec ID                                 : S_TEXT/UTF8
  53. Codec ID/Info                            : UTF-8 Plain Text
  54. Duration                                 : 2 h 19 min
  55. Bit rate                                 : 30 b/s
  56. Frame rate                               : 0.175 FPS
  57. Count of elements                        : 1467
  58. Stream size                              : 31.4 KiB (0%)
  59. Language                                 : English
  60. Default                                  : Yes
  61. Forced                                   : No
  62. Text #2
  63. ID                                       : 4
  64. Format                                   : ASS
  65. Codec ID                                 : S_TEXT/ASS
  66. Codec ID/Info                            : Advanced Sub Station Alpha
  67. Duration                                 : 2 h 19 min
  68. Bit rate                                 : 123 b/s
  69. Frame rate                               : 0.177 FPS
  70. Count of elements                        : 1482
  71. Compression mode                         : Lossless
  72. Stream size                              : 127 KiB (0%)
  73. Title                                    : cht
  74. Language                                 : Chinese
  75. Default                                  : No
  76. Forced                                   : No
  77. Text #3
  78. ID                                       : 5
  79. Format                                   : ASS
  80. Codec ID                                 : S_TEXT/ASS
  81. Codec ID/Info                            : Advanced Sub Station Alpha
  82. Duration                                 : 2 h 19 min
  83. Bit rate                                 : 123 b/s
  84. Frame rate                               : 0.177 FPS
  85. Count of elements                        : 1482
  86. Compression mode                         : Lossless
  87. Stream size                              : 127 KiB (0%)
  88. Title                                    : chs
  89. Language                                 : Chinese
  90. Default                                  : No
  91. Forced                                   : No
复制代码






                                       
                                       

                                       
                                       
                                       




The.Battle.at.Lake.Changjin.II.2022.CHINESE.1080p.BluRay.x264.DD5.1-iKiW.torrent (17.24 KB, 下载次数: 1)
回复

使用道具 举报

您需要登录后才可以回帖 登录 | 立即注册

本版积分规则

QQ|Archiver|手机版|小黑屋|蓝光电影网

GMT+8, 2022-10-8 02:55 , Processed in 0.062320 second(s), 28 queries .

Powered by Discuz! X3.4

Copyright © 2001-2020, Tencent Cloud.

快速回复 返回顶部 返回列表