找回密码
 立即注册

QQ登录

只需一步,快速开始

查看: 31|回复: 0

[其他] 祝你好运 Luck.2022.2160p.ATVP.WEB-DL.x265.10bit.SDR.DDP5.1.Atmos-CM 15.74GB

[复制链接]

0

精华

0

好友

2

听众

新手上路

Rank: 2

蓝光币
5
发表于 前天 08:00 | 显示全部楼层 |阅读模式


◎标  题 祝你好运
◎译  名 幸运 / 开运奇遇记 / Good Luck Bad Luck
◎片  名 Luck
◎年  代 2022
◎产  地 西班牙 / 美国
◎类  别 喜剧 / 动画 / 奇幻 / 冒险
◎语  言 英语
◎上映日期 2022-08-05(美国网络)
◎IMDb链接 https://www.imdb.com/title/tt7214954/
◎豆瓣链接 https://movie.douban.com/subject/30471496/
◎导  演 佩吉·霍姆斯 Peggy Holmes
◎编  剧 基尔·默里 Kiel Murray
       乔纳森·阿贝尔 Jonathan Aibel
       格伦·伯杰 Glenn Berger
◎演  员 伊娃·诺布勒札达 Eva Noblezada
       西蒙·佩吉 Simon Pegg
       简·方达 Jane Fonda
       乌比·戈德堡 Whoopi Goldberg
       弗卢拉·博格 Flula Borg
       里尔·莱尔·哈瓦瑞 Lil Rel Howery
       科林·奥多霍诺 Colin O'Donoghue
       约翰·拉岑贝格 John Ratzenberger
       阿德琳·斯布恩 Adelynn Spoon
       约翰·拉塞特 John Lasseter
       大卫·埃里森 David Ellison
       约翰·戴布尼 John Debney
◎简  介

  简·方达将为动画新片[幸运]中的主要角色配音。该片由佩吉·霍姆斯([小叮当与海盗仙子])执导,由基尔·默里([赛车总动员])操刀剧本。故事讲述在一个好运气和坏运气互相碰撞的世界中,一个不幸的女孩必须介入并拯救这个世界。 简·方达将为龙配音,龙是热情洋溢的掌管好运气的CEO,她是毫无争议的最幸运的远古生物。龙很优雅,风格明确,她强大并且有说服力。唯一比好运更好的事情就是更多的好运,所以当坏运气开始失控,她必须直面自己的恐惧,面临永远失去好运气的风险。该片由天空之舞与苹果联合制作。
  1. Video
  2. ID                                       : 1
  3. Format                                   : HEVC
  4. Format/Info                              : High Efficiency Video Coding
  5. Format profile                           : Main [email protected]@High
  6. Codec ID                                 : V_MPEGH/ISO/HEVC
  7. Duration                                 : 1 h 45 min
  8. Bit rate                                 : 20.6 Mb/s
  9. Width                                    : 3 840 pixels
  10. Height                                   : 2 076 pixels
  11. Display aspect ratio                     : 1.85:1
  12. Frame rate mode                          : Constant
  13. Frame rate                               : 23.976 FPS
  14. Color space                              : YUV
  15. Chroma subsampling                       : 4:2:0
  16. Bit depth                                : 10 bits
  17. Bits/(Pixel*Frame)                       : 0.108
  18. Stream size                              : 15.2 GiB (96%)
  19. Language                                 : English
  20. Default                                  : Yes
  21. Forced                                   : No
  22. Color range                              : Limited
  23. Color primaries                          : BT.709
  24. Transfer characteristics                 : BT.709
  25. Matrix coefficients                      : BT.709

  26. Audio
  27. ID                                       : 2
  28. Format                                   : E-AC-3 JOC
  29. Format/Info                              : Enhanced AC-3 with Joint Object Coding
  30. Commercial name                          : Dolby Digital Plus with Dolby Atmos
  31. Codec ID                                 : A_EAC3
  32. Duration                                 : 1 h 45 min
  33. Bit rate mode                            : Constant
  34. Bit rate                                 : 768 kb/s
  35. Channel(s)                               : 6 channels
  36. Channel layout                           : L R C LFE Ls Rs
  37. Sampling rate                            : 48.0 kHz
  38. Frame rate                               : 31.250 FPS (1536 SPF)
  39. Compression mode                         : Lossy
  40. Stream size                              : 579 MiB (4%)
  41. Language                                 : English
  42. Service kind                             : Complete Main
  43. Default                                  : Yes
  44. Forced                                   : No
  45. Complexity index                         : 16
  46. Number of dynamic objects                : 15
  47. Bed channel count                        : 1 channel
  48. Bed channel configuration                : LFE

  49. Text #1
  50. ID                                       : 3
  51. Format                                   : UTF-8
  52. Codec ID                                 : S_TEXT/UTF8
  53. Codec ID/Info                            : UTF-8 Plain Text
  54. Duration                                 : 1 h 35 min
  55. Bit rate                                 : 68 b/s
  56. Frame rate                               : 0.239 FPS
  57. Count of elements                        : 1371
  58. Stream size                              : 48.0 KiB (0%)
  59. Language                                 : English
  60. Default                                  : No
  61. Forced                                   : No

  62. Text #2
  63. ID                                       : 4
  64. Format                                   : UTF-8
  65. Codec ID                                 : S_TEXT/UTF8
  66. Codec ID/Info                            : UTF-8 Plain Text
  67. Duration                                 : 1 h 36 min
  68. Bit rate                                 : 77 b/s
  69. Frame rate                               : 0.280 FPS
  70. Count of elements                        : 1616
  71. Stream size                              : 54.8 KiB (0%)
  72. Title                                    : SDH
  73. Language                                 : English
  74. Default                                  : No
  75. Forced                                   : No

  76. Text #3
  77. ID                                       : 5
  78. Format                                   : UTF-8
  79. Codec ID                                 : S_TEXT/UTF8
  80. Codec ID/Info                            : UTF-8 Plain Text
  81. Duration                                 : 1 h 44 min
  82. Bit rate                                 : 101 b/s
  83. Frame rate                               : 0.220 FPS
  84. Count of elements                        : 1374
  85. Stream size                              : 77.6 KiB (0%)
  86. Language                                 : Arabic
  87. Default                                  : No
  88. Forced                                   : No

  89. Text #4
  90. ID                                       : 6
  91. Format                                   : UTF-8
  92. Codec ID                                 : S_TEXT/UTF8
  93. Codec ID/Info                            : UTF-8 Plain Text
  94. Duration                                 : 1 h 44 min
  95. Bit rate                                 : 95 b/s
  96. Frame rate                               : 0.215 FPS
  97. Count of elements                        : 1342
  98. Stream size                              : 73.1 KiB (0%)
  99. Language                                 : Bulgarian
  100. Default                                  : No
  101. Forced                                   : No

  102. Text #5
  103. ID                                       : 7
  104. Format                                   : UTF-8
  105. Codec ID                                 : S_TEXT/UTF8
  106. Codec ID/Info                            : UTF-8 Plain Text
  107. Duration                                 : 1 h 44 min
  108. Bit rate                                 : 57 b/s
  109. Frame rate                               : 0.210 FPS
  110. Count of elements                        : 1315
  111. Stream size                              : 43.6 KiB (0%)
  112. Language                                 : Czech
  113. Default                                  : No
  114. Forced                                   : No

  115. Text #6
  116. ID                                       : 8
  117. Format                                   : UTF-8
  118. Codec ID                                 : S_TEXT/UTF8
  119. Codec ID/Info                            : UTF-8 Plain Text
  120. Duration                                 : 1 h 44 min
  121. Bit rate                                 : 59 b/s
  122. Frame rate                               : 0.209 FPS
  123. Count of elements                        : 1308
  124. Stream size                              : 45.4 KiB (0%)
  125. Language                                 : Danish
  126. Default                                  : No
  127. Forced                                   : No

  128. Text #7
  129. ID                                       : 9
  130. Format                                   : UTF-8
  131. Codec ID                                 : S_TEXT/UTF8
  132. Codec ID/Info                            : UTF-8 Plain Text
  133. Duration                                 : 1 h 35 min
  134. Bit rate                                 : 68 b/s
  135. Frame rate                               : 0.240 FPS
  136. Count of elements                        : 1381
  137. Stream size                              : 48.1 KiB (0%)
  138. Language                                 : German
  139. Default                                  : No
  140. Forced                                   : No

  141. Text #8
  142. ID                                       : 10
  143. Format                                   : UTF-8
  144. Codec ID                                 : S_TEXT/UTF8
  145. Codec ID/Info                            : UTF-8 Plain Text
  146. Duration                                 : 1 h 44 min
  147. Bit rate                                 : 106 b/s
  148. Frame rate                               : 0.219 FPS
  149. Count of elements                        : 1374
  150. Stream size                              : 81.5 KiB (0%)
  151. Language                                 : Greek
  152. Default                                  : No
  153. Forced                                   : No

  154. Text #9
  155. ID                                       : 11
  156. Format                                   : UTF-8
  157. Codec ID                                 : S_TEXT/UTF8
  158. Codec ID/Info                            : UTF-8 Plain Text
  159. Duration                                 : 1 h 44 min
  160. Bit rate                                 : 70 b/s
  161. Frame rate                               : 0.229 FPS
  162. Count of elements                        : 1431
  163. Stream size                              : 53.6 KiB (0%)
  164. Language                                 : Spanish
  165. Default                                  : No
  166. Forced                                   : No

  167. Text #10
  168. ID                                       : 12
  169. Format                                   : UTF-8
  170. Codec ID                                 : S_TEXT/UTF8
  171. Codec ID/Info                            : UTF-8 Plain Text
  172. Duration                                 : 1 h 44 min
  173. Bit rate                                 : 67 b/s
  174. Frame rate                               : 0.226 FPS
  175. Count of elements                        : 1415
  176. Stream size                              : 51.7 KiB (0%)
  177. Title                                    : Latin American
  178. Language                                 : Spanish
  179. Default                                  : No
  180. Forced                                   : No

  181. Text #11
  182. ID                                       : 13
  183. Format                                   : UTF-8
  184. Codec ID                                 : S_TEXT/UTF8
  185. Codec ID/Info                            : UTF-8 Plain Text
  186. Duration                                 : 1 h 44 min
  187. Bit rate                                 : 62 b/s
  188. Frame rate                               : 0.217 FPS
  189. Count of elements                        : 1356
  190. Stream size                              : 47.8 KiB (0%)
  191. Language                                 : Estonian
  192. Default                                  : No
  193. Forced                                   : No

  194. Text #12
  195. ID                                       : 14
  196. Format                                   : UTF-8
  197. Codec ID                                 : S_TEXT/UTF8
  198. Codec ID/Info                            : UTF-8 Plain Text
  199. Duration                                 : 1 h 44 min
  200. Bit rate                                 : 58 b/s
  201. Frame rate                               : 0.217 FPS
  202. Count of elements                        : 1357
  203. Stream size                              : 44.9 KiB (0%)
  204. Language                                 : Finnish
  205. Default                                  : No
  206. Forced                                   : No

  207. Text #13
  208. ID                                       : 15
  209. Format                                   : UTF-8
  210. Codec ID                                 : S_TEXT/UTF8
  211. Codec ID/Info                            : UTF-8 Plain Text
  212. Duration                                 : 1 h 36 min
  213. Bit rate                                 : 65 b/s
  214. Frame rate                               : 0.259 FPS
  215. Count of elements                        : 1504
  216. Stream size                              : 46.5 KiB (0%)
  217. Language                                 : French
  218. Default                                  : No
  219. Forced                                   : No

  220. Text #14
  221. ID                                       : 16
  222. Format                                   : UTF-8
  223. Codec ID                                 : S_TEXT/UTF8
  224. Codec ID/Info                            : UTF-8 Plain Text
  225. Duration                                 : 1 h 37 min
  226. Bit rate                                 : 65 b/s
  227. Frame rate                               : 0.258 FPS
  228. Count of elements                        : 1505
  229. Stream size                              : 46.5 KiB (0%)
  230. Title                                    : Canadian
  231. Language                                 : French
  232. Default                                  : No
  233. Forced                                   : No

  234. Text #15
  235. ID                                       : 17
  236. Format                                   : UTF-8
  237. Codec ID                                 : S_TEXT/UTF8
  238. Codec ID/Info                            : UTF-8 Plain Text
  239. Duration                                 : 1 h 44 min
  240. Bit rate                                 : 87 b/s
  241. Frame rate                               : 0.224 FPS
  242. Count of elements                        : 1401
  243. Stream size                              : 66.5 KiB (0%)
  244. Language                                 : Hebrew
  245. Default                                  : No
  246. Forced                                   : No

  247. Text #16
  248. ID                                       : 18
  249. Format                                   : UTF-8
  250. Codec ID                                 : S_TEXT/UTF8
  251. Codec ID/Info                            : UTF-8 Plain Text
  252. Duration                                 : 1 h 44 min
  253. Bit rate                                 : 158 b/s
  254. Frame rate                               : 0.225 FPS
  255. Count of elements                        : 1408
  256. Stream size                              : 121 KiB (0%)
  257. Language                                 : Hindi
  258. Default                                  : No
  259. Forced                                   : No

  260. Text #17
  261. ID                                       : 19
  262. Format                                   : UTF-8
  263. Codec ID                                 : S_TEXT/UTF8
  264. Codec ID/Info                            : UTF-8 Plain Text
  265. Duration                                 : 1 h 44 min
  266. Bit rate                                 : 65 b/s
  267. Frame rate                               : 0.224 FPS
  268. Count of elements                        : 1402
  269. Stream size                              : 49.8 KiB (0%)
  270. Language                                 : Hungarian
  271. Default                                  : No
  272. Forced                                   : No

  273. Text #18
  274. ID                                       : 20
  275. Format                                   : UTF-8
  276. Codec ID                                 : S_TEXT/UTF8
  277. Codec ID/Info                            : UTF-8 Plain Text
  278. Duration                                 : 1 h 44 min
  279. Bit rate                                 : 65 b/s
  280. Frame rate                               : 0.223 FPS
  281. Count of elements                        : 1394
  282. Stream size                              : 50.3 KiB (0%)
  283. Language                                 : Indonesian
  284. Default                                  : No
  285. Forced                                   : No

  286. Text #19
  287. ID                                       : 21
  288. Format                                   : UTF-8
  289. Codec ID                                 : S_TEXT/UTF8
  290. Codec ID/Info                            : UTF-8 Plain Text
  291. Duration                                 : 1 h 36 min
  292. Bit rate                                 : 69 b/s
  293. Frame rate                               : 0.242 FPS
  294. Count of elements                        : 1397
  295. Stream size                              : 48.8 KiB (0%)
  296. Language                                 : Italian
  297. Default                                  : No
  298. Forced                                   : No

  299. Text #20
  300. ID                                       : 22
  301. Format                                   : UTF-8
  302. Codec ID                                 : S_TEXT/UTF8
  303. Codec ID/Info                            : UTF-8 Plain Text
  304. Duration                                 : 1 h 44 min
  305. Bit rate                                 : 56 b/s
  306. Frame rate                               : 0.233 FPS
  307. Count of elements                        : 1459
  308. Stream size                              : 42.8 KiB (0%)
  309. Language                                 : Japanese
  310. Default                                  : No
  311. Forced                                   : No

  312. Text #21
  313. ID                                       : 23
  314. Format                                   : UTF-8
  315. Codec ID                                 : S_TEXT/UTF8
  316. Codec ID/Info                            : UTF-8 Plain Text
  317. Duration                                 : 1 h 44 min
  318. Bit rate                                 : 71 b/s
  319. Frame rate                               : 0.224 FPS
  320. Count of elements                        : 1400
  321. Stream size                              : 54.5 KiB (0%)
  322. Language                                 : Korean
  323. Default                                  : No
  324. Forced                                   : No

  325. Text #22
  326. ID                                       : 24
  327. Format                                   : UTF-8
  328. Codec ID                                 : S_TEXT/UTF8
  329. Codec ID/Info                            : UTF-8 Plain Text
  330. Duration                                 : 1 h 44 min
  331. Bit rate                                 : 64 b/s
  332. Frame rate                               : 0.224 FPS
  333. Count of elements                        : 1401
  334. Stream size                              : 48.9 KiB (0%)
  335. Language                                 : Lithuanian
  336. Default                                  : No
  337. Forced                                   : No

  338. Text #23
  339. ID                                       : 25
  340. Format                                   : UTF-8
  341. Codec ID                                 : S_TEXT/UTF8
  342. Codec ID/Info                            : UTF-8 Plain Text
  343. Duration                                 : 1 h 44 min
  344. Bit rate                                 : 63 b/s
  345. Frame rate                               : 0.223 FPS
  346. Count of elements                        : 1394
  347. Stream size                              : 48.7 KiB (0%)
  348. Language                                 : Latvian
  349. Default                                  : No
  350. Forced                                   : No

  351. Text #24
  352. ID                                       : 26
  353. Format                                   : UTF-8
  354. Codec ID                                 : S_TEXT/UTF8
  355. Codec ID/Info                            : UTF-8 Plain Text
  356. Duration                                 : 1 h 44 min
  357. Bit rate                                 : 63 b/s
  358. Frame rate                               : 0.225 FPS
  359. Count of elements                        : 1403
  360. Stream size                              : 48.6 KiB (0%)
  361. Language                                 : Malay
  362. Default                                  : No
  363. Forced                                   : No

  364. Text #25
  365. ID                                       : 27
  366. Format                                   : UTF-8
  367. Codec ID                                 : S_TEXT/UTF8
  368. Codec ID/Info                            : UTF-8 Plain Text
  369. Duration                                 : 1 h 44 min
  370. Bit rate                                 : 60 b/s
  371. Frame rate                               : 0.188 FPS
  372. Count of elements                        : 1174
  373. Stream size                              : 46.2 KiB (0%)
  374. Language                                 : Dutch
  375. Default                                  : No
  376. Forced                                   : No

  377. Text #26
  378. ID                                       : 28
  379. Format                                   : UTF-8
  380. Codec ID                                 : S_TEXT/UTF8
  381. Codec ID/Info                            : UTF-8 Plain Text
  382. Duration                                 : 1 h 44 min
  383. Bit rate                                 : 61 b/s
  384. Frame rate                               : 0.181 FPS
  385. Count of elements                        : 1128
  386. Stream size                              : 46.8 KiB (0%)
  387. Title                                    : Flemish
  388. Language                                 : Dutch
  389. Default                                  : No
  390. Forced                                   : No

  391. Text #27
  392. ID                                       : 29
  393. Format                                   : UTF-8
  394. Codec ID                                 : S_TEXT/UTF8
  395. Codec ID/Info                            : UTF-8 Plain Text
  396. Duration                                 : 1 h 44 min
  397. Bit rate                                 : 62 b/s
  398. Frame rate                               : 0.206 FPS
  399. Count of elements                        : 1288
  400. Stream size                              : 47.5 KiB (0%)
  401. Language                                 : Norwegian
  402. Default                                  : No
  403. Forced                                   : No

  404. Text #28
  405. ID                                       : 30
  406. Format                                   : UTF-8
  407. Codec ID                                 : S_TEXT/UTF8
  408. Codec ID/Info                            : UTF-8 Plain Text
  409. Duration                                 : 1 h 36 min
  410. Bit rate                                 : 73 b/s
  411. Frame rate                               : 0.242 FPS
  412. Count of elements                        : 1393
  413. Stream size                              : 51.8 KiB (0%)
  414. Language                                 : Polish
  415. Default                                  : No
  416. Forced                                   : No

  417. Text #29
  418. ID                                       : 31
  419. Format                                   : UTF-8
  420. Codec ID                                 : S_TEXT/UTF8
  421. Codec ID/Info                            : UTF-8 Plain Text
  422. Duration                                 : 1 h 44 min
  423. Bit rate                                 : 63 b/s
  424. Frame rate                               : 0.223 FPS
  425. Count of elements                        : 1394
  426. Stream size                              : 48.2 KiB (0%)
  427. Language                                 : Portuguese
  428. Default                                  : No
  429. Forced                                   : No

  430. Text #30
  431. ID                                       : 32
  432. Format                                   : UTF-8
  433. Codec ID                                 : S_TEXT/UTF8
  434. Codec ID/Info                            : UTF-8 Plain Text
  435. Duration                                 : 1 h 44 min
  436. Bit rate                                 : 62 b/s
  437. Frame rate                               : 0.222 FPS
  438. Count of elements                        : 1388
  439. Stream size                              : 47.4 KiB (0%)
  440. Title                                    : Brazilian
  441. Language                                 : Portuguese
  442. Default                                  : No
  443. Forced                                   : No

  444. Text #31
  445. ID                                       : 33
  446. Format                                   : UTF-8
  447. Codec ID                                 : S_TEXT/UTF8
  448. Codec ID/Info                            : UTF-8 Plain Text
  449. Duration                                 : 1 h 44 min
  450. Bit rate                                 : 102 b/s
  451. Frame rate                               : 0.224 FPS
  452. Count of elements                        : 1401
  453. Stream size                              : 78.2 KiB (0%)
  454. Language                                 : Russian
  455. Default                                  : No
  456. Forced                                   : No

  457. Text #32
  458. ID                                       : 34
  459. Format                                   : UTF-8
  460. Codec ID                                 : S_TEXT/UTF8
  461. Codec ID/Info                            : UTF-8 Plain Text
  462. Duration                                 : 1 h 44 min
  463. Bit rate                                 : 64 b/s
  464. Frame rate                               : 0.224 FPS
  465. Count of elements                        : 1404
  466. Stream size                              : 49.3 KiB (0%)
  467. Language                                 : Slovak
  468. Default                                  : No
  469. Forced                                   : No

  470. Text #33
  471. ID                                       : 35
  472. Format                                   : UTF-8
  473. Codec ID                                 : S_TEXT/UTF8
  474. Codec ID/Info                            : UTF-8 Plain Text
  475. Duration                                 : 1 h 44 min
  476. Bit rate                                 : 53 b/s
  477. Frame rate                               : 0.203 FPS
  478. Count of elements                        : 1269
  479. Stream size                              : 40.6 KiB (0%)
  480. Language                                 : Slovenian
  481. Default                                  : No
  482. Forced                                   : No

  483. Text #34
  484. ID                                       : 36
  485. Format                                   : UTF-8
  486. Codec ID                                 : S_TEXT/UTF8
  487. Codec ID/Info                            : UTF-8 Plain Text
  488. Duration                                 : 1 h 44 min
  489. Bit rate                                 : 64 b/s
  490. Frame rate                               : 0.214 FPS
  491. Count of elements                        : 1341
  492. Stream size                              : 49.0 KiB (0%)
  493. Language                                 : Swedish
  494. Default                                  : No
  495. Forced                                   : No

  496. Text #35
  497. ID                                       : 37
  498. Format                                   : UTF-8
  499. Codec ID                                 : S_TEXT/UTF8
  500. Codec ID/Info                            : UTF-8 Plain Text
  501. Duration                                 : 1 h 44 min
  502. Bit rate                                 : 210 b/s
  503. Frame rate                               : 0.225 FPS
  504. Count of elements                        : 1407
  505. Stream size                              : 161 KiB (0%)
  506. Language                                 : Tamil
  507. Default                                  : No
  508. Forced                                   : No

  509. Text #36
  510. ID                                       : 38
  511. Format                                   : UTF-8
  512. Codec ID                                 : S_TEXT/UTF8
  513. Codec ID/Info                            : UTF-8 Plain Text
  514. Duration                                 : 1 h 44 min
  515. Bit rate                                 : 191 b/s
  516. Frame rate                               : 0.225 FPS
  517. Count of elements                        : 1407
  518. Stream size                              : 146 KiB (0%)
  519. Language                                 : Telugu
  520. Default                                  : No
  521. Forced                                   : No

  522. Text #37
  523. ID                                       : 39
  524. Format                                   : UTF-8
  525. Codec ID                                 : S_TEXT/UTF8
  526. Codec ID/Info                            : UTF-8 Plain Text
  527. Duration                                 : 1 h 44 min
  528. Bit rate                                 : 147 b/s
  529. Frame rate                               : 0.225 FPS
  530. Count of elements                        : 1407
  531. Stream size                              : 112 KiB (0%)
  532. Language                                 : Thai
  533. Default                                  : No
  534. Forced                                   : No

  535. Text #38
  536. ID                                       : 40
  537. Format                                   : UTF-8
  538. Codec ID                                 : S_TEXT/UTF8
  539. Codec ID/Info                            : UTF-8 Plain Text
  540. Duration                                 : 1 h 44 min
  541. Bit rate                                 : 64 b/s
  542. Frame rate                               : 0.223 FPS
  543. Count of elements                        : 1395
  544. Stream size                              : 49.2 KiB (0%)
  545. Language                                 : Turkish
  546. Default                                  : No
  547. Forced                                   : No

  548. Text #39
  549. ID                                       : 41
  550. Format                                   : UTF-8
  551. Codec ID                                 : S_TEXT/UTF8
  552. Codec ID/Info                            : UTF-8 Plain Text
  553. Duration                                 : 1 h 44 min
  554. Bit rate                                 : 101 b/s
  555. Frame rate                               : 0.224 FPS
  556. Count of elements                        : 1404
  557. Stream size                              : 77.7 KiB (0%)
  558. Language                                 : Ukrainian
  559. Default                                  : No
  560. Forced                                   : No

  561. Text #40
  562. ID                                       : 42
  563. Format                                   : UTF-8
  564. Codec ID                                 : S_TEXT/UTF8
  565. Codec ID/Info                            : UTF-8 Plain Text
  566. Duration                                 : 1 h 44 min
  567. Bit rate                                 : 83 b/s
  568. Frame rate                               : 0.224 FPS
  569. Count of elements                        : 1404
  570. Stream size                              : 63.7 KiB (0%)
  571. Language                                 : Vietnamese
  572. Default                                  : No
  573. Forced                                   : No

  574. Text #41
  575. ID                                       : 43
  576. Format                                   : UTF-8
  577. Codec ID                                 : S_TEXT/UTF8
  578. Codec ID/Info                            : UTF-8 Plain Text
  579. Duration                                 : 1 h 44 min
  580. Bit rate                                 : 61 b/s
  581. Frame rate                               : 0.225 FPS
  582. Count of elements                        : 1408
  583. Stream size                              : 46.8 KiB (0%)
  584. Title                                    : Traditional
  585. Default                                  : No
  586. Forced                                   : No

  587. Text #42
  588. ID                                       : 44
  589. Format                                   : UTF-8
  590. Codec ID                                 : S_TEXT/UTF8
  591. Codec ID/Info                            : UTF-8 Plain Text
  592. Duration                                 : 1 h 44 min
  593. Bit rate                                 : 60 b/s
  594. Frame rate                               : 0.225 FPS
  595. Count of elements                        : 1407
  596. Stream size                              : 45.8 KiB (0%)
  597. Title                                    : zh-Hans
  598. Language                                 : Chinese
  599. Default                                  : No
  600. Forced                                   : No

  601. Text #43
  602. ID                                       : 45
  603. Format                                   : UTF-8
  604. Codec ID                                 : S_TEXT/UTF8
  605. Codec ID/Info                            : UTF-8 Plain Text
  606. Duration                                 : 1 h 44 min
  607. Bit rate                                 : 60 b/s
  608. Frame rate                               : 0.225 FPS
  609. Count of elements                        : 1408
  610. Stream size                              : 46.5 KiB (0%)
  611. Title                                    : zh-Hant
  612. Language                                 : Chinese
  613. Default                                  : No
  614. Forced                                   : No
复制代码




                                       
                                       

                                       
                                       
                                       




Luck.2022.2160p.ATVP.WEB-DL.x265.10bit.SDR.DDP5.1.Atmos-CM.torrent (20.32 KB, 下载次数: 0)
回复

使用道具 举报

您需要登录后才可以回帖 登录 | 立即注册

本版积分规则

QQ|Archiver|手机版|小黑屋|蓝光电影网

GMT+8, 2022-8-8 17:59 , Processed in 0.053912 second(s), 26 queries .

Powered by Discuz! X3.4

Copyright © 2001-2020, Tencent Cloud.

快速回复 返回顶部 返回列表