找回密码
 立即注册

QQ登录

只需一步,快速开始

查看: 13|回复: 0

[其他] 祝你好运 Luck.2022.2160p.ATVP.WEB-DL.x265.10bit.HDR.DDP5.1.Atmos-CM 18.49GB

[复制链接]

0

精华

0

好友

2

听众

新手上路

Rank: 2

蓝光币
5
发表于 前天 08:00 | 显示全部楼层 |阅读模式


◎标  题 祝你好运
◎译  名 幸运 / 开运奇遇记 / Good Luck Bad Luck
◎片  名 Luck
◎年  代 2022
◎产  地 西班牙 / 美国
◎类  别 喜剧 / 动画 / 奇幻 / 冒险
◎语  言 英语
◎上映日期 2022-08-05(美国网络)
◎IMDb链接 https://www.imdb.com/title/tt7214954/
◎豆瓣链接 https://movie.douban.com/subject/30471496/
◎导  演 佩吉·霍姆斯 Peggy Holmes
◎编  剧 基尔·默里 Kiel Murray
       乔纳森·阿贝尔 Jonathan Aibel
       格伦·伯杰 Glenn Berger
◎演  员 伊娃·诺布勒札达 Eva Noblezada
       西蒙·佩吉 Simon Pegg
       简·方达 Jane Fonda
       乌比·戈德堡 Whoopi Goldberg
       弗卢拉·博格 Flula Borg
       里尔·莱尔·哈瓦瑞 Lil Rel Howery
       科林·奥多霍诺 Colin O'Donoghue
       约翰·拉岑贝格 John Ratzenberger
       阿德琳·斯布恩 Adelynn Spoon
       约翰·拉塞特 John Lasseter
       大卫·埃里森 David Ellison
       约翰·戴布尼 John Debney
◎简  介

  简·方达将为动画新片[幸运]中的主要角色配音。该片由佩吉·霍姆斯([小叮当与海盗仙子])执导,由基尔·默里([赛车总动员])操刀剧本。故事讲述在一个好运气和坏运气互相碰撞的世界中,一个不幸的女孩必须介入并拯救这个世界。 简·方达将为龙配音,龙是热情洋溢的掌管好运气的CEO,她是毫无争议的最幸运的远古生物。龙很优雅,风格明确,她强大并且有说服力。唯一比好运更好的事情就是更多的好运,所以当坏运气开始失控,她必须直面自己的恐惧,面临永远失去好运气的风险。该片由天空之舞与苹果联合制作。
  1. Video
  2. ID                                       : 1
  3. Format                                   : HEVC
  4. Format/Info                              : High Efficiency Video Coding
  5. Format profile                           : Main [email protected]@High
  6. HDR format                               : SMPTE ST 2086, HDR10 compatible
  7. Codec ID                                 : V_MPEGH/ISO/HEVC
  8. Duration                                 : 1 h 45 min
  9. Bit rate                                 : 24.3 Mb/s
  10. Width                                    : 3 840 pixels
  11. Height                                   : 2 076 pixels
  12. Display aspect ratio                     : 1.85:1
  13. Frame rate mode                          : Constant
  14. Frame rate                               : 23.976 FPS
  15. Color space                              : YUV
  16. Chroma subsampling                       : 4:2:0 (Type 2)
  17. Bit depth                                : 10 bits
  18. Bits/(Pixel*Frame)                       : 0.127
  19. Stream size                              : 17.9 GiB (97%)
  20. Language                                 : English
  21. Default                                  : Yes
  22. Forced                                   : No
  23. Color range                              : Limited
  24. Color primaries                          : BT.2020
  25. Transfer characteristics                 : PQ
  26. Matrix coefficients                      : BT.2020 non-constant
  27. Mastering display color primaries        : Display P3
  28. Mastering display luminance              : min: 0.0050 cd/m2, max: 1000 cd/m2
  29. Maximum Content Light Level              : 1084 cd/m2
  30. Maximum Frame-Average Light Level        : 319 cd/m2

  31. Audio
  32. ID                                       : 2
  33. Format                                   : E-AC-3 JOC
  34. Format/Info                              : Enhanced AC-3 with Joint Object Coding
  35. Commercial name                          : Dolby Digital Plus with Dolby Atmos
  36. Codec ID                                 : A_EAC3
  37. Duration                                 : 1 h 45 min
  38. Bit rate mode                            : Constant
  39. Bit rate                                 : 768 kb/s
  40. Channel(s)                               : 6 channels
  41. Channel layout                           : L R C LFE Ls Rs
  42. Sampling rate                            : 48.0 kHz
  43. Frame rate                               : 31.250 FPS (1536 SPF)
  44. Compression mode                         : Lossy
  45. Stream size                              : 579 MiB (3%)
  46. Language                                 : English
  47. Service kind                             : Complete Main
  48. Default                                  : Yes
  49. Forced                                   : No
  50. Complexity index                         : 16
  51. Number of dynamic objects                : 15
  52. Bed channel count                        : 1 channel
  53. Bed channel configuration                : LFE

  54. Text #1
  55. ID                                       : 3
  56. Format                                   : UTF-8
  57. Codec ID                                 : S_TEXT/UTF8
  58. Codec ID/Info                            : UTF-8 Plain Text
  59. Duration                                 : 1 h 35 min
  60. Bit rate                                 : 68 b/s
  61. Frame rate                               : 0.239 FPS
  62. Count of elements                        : 1371
  63. Stream size                              : 48.0 KiB (0%)
  64. Language                                 : English
  65. Default                                  : No
  66. Forced                                   : No

  67. Text #2
  68. ID                                       : 4
  69. Format                                   : UTF-8
  70. Codec ID                                 : S_TEXT/UTF8
  71. Codec ID/Info                            : UTF-8 Plain Text
  72. Duration                                 : 1 h 36 min
  73. Bit rate                                 : 77 b/s
  74. Frame rate                               : 0.280 FPS
  75. Count of elements                        : 1616
  76. Stream size                              : 54.8 KiB (0%)
  77. Title                                    : SDH
  78. Language                                 : English
  79. Default                                  : No
  80. Forced                                   : No

  81. Text #3
  82. ID                                       : 5
  83. Format                                   : UTF-8
  84. Codec ID                                 : S_TEXT/UTF8
  85. Codec ID/Info                            : UTF-8 Plain Text
  86. Duration                                 : 1 h 44 min
  87. Bit rate                                 : 101 b/s
  88. Frame rate                               : 0.220 FPS
  89. Count of elements                        : 1374
  90. Stream size                              : 77.6 KiB (0%)
  91. Language                                 : Arabic
  92. Default                                  : No
  93. Forced                                   : No

  94. Text #4
  95. ID                                       : 6
  96. Format                                   : UTF-8
  97. Codec ID                                 : S_TEXT/UTF8
  98. Codec ID/Info                            : UTF-8 Plain Text
  99. Duration                                 : 1 h 44 min
  100. Bit rate                                 : 95 b/s
  101. Frame rate                               : 0.215 FPS
  102. Count of elements                        : 1342
  103. Stream size                              : 73.1 KiB (0%)
  104. Language                                 : Bulgarian
  105. Default                                  : No
  106. Forced                                   : No

  107. Text #5
  108. ID                                       : 7
  109. Format                                   : UTF-8
  110. Codec ID                                 : S_TEXT/UTF8
  111. Codec ID/Info                            : UTF-8 Plain Text
  112. Duration                                 : 1 h 44 min
  113. Bit rate                                 : 57 b/s
  114. Frame rate                               : 0.210 FPS
  115. Count of elements                        : 1315
  116. Stream size                              : 43.6 KiB (0%)
  117. Language                                 : Czech
  118. Default                                  : No
  119. Forced                                   : No

  120. Text #6
  121. ID                                       : 8
  122. Format                                   : UTF-8
  123. Codec ID                                 : S_TEXT/UTF8
  124. Codec ID/Info                            : UTF-8 Plain Text
  125. Duration                                 : 1 h 44 min
  126. Bit rate                                 : 59 b/s
  127. Frame rate                               : 0.209 FPS
  128. Count of elements                        : 1308
  129. Stream size                              : 45.4 KiB (0%)
  130. Language                                 : Danish
  131. Default                                  : No
  132. Forced                                   : No

  133. Text #7
  134. ID                                       : 9
  135. Format                                   : UTF-8
  136. Codec ID                                 : S_TEXT/UTF8
  137. Codec ID/Info                            : UTF-8 Plain Text
  138. Duration                                 : 1 h 35 min
  139. Bit rate                                 : 68 b/s
  140. Frame rate                               : 0.240 FPS
  141. Count of elements                        : 1381
  142. Stream size                              : 48.1 KiB (0%)
  143. Language                                 : German
  144. Default                                  : No
  145. Forced                                   : No

  146. Text #8
  147. ID                                       : 10
  148. Format                                   : UTF-8
  149. Codec ID                                 : S_TEXT/UTF8
  150. Codec ID/Info                            : UTF-8 Plain Text
  151. Duration                                 : 1 h 44 min
  152. Bit rate                                 : 106 b/s
  153. Frame rate                               : 0.219 FPS
  154. Count of elements                        : 1374
  155. Stream size                              : 81.5 KiB (0%)
  156. Language                                 : Greek
  157. Default                                  : No
  158. Forced                                   : No

  159. Text #9
  160. ID                                       : 11
  161. Format                                   : UTF-8
  162. Codec ID                                 : S_TEXT/UTF8
  163. Codec ID/Info                            : UTF-8 Plain Text
  164. Duration                                 : 1 h 44 min
  165. Bit rate                                 : 70 b/s
  166. Frame rate                               : 0.229 FPS
  167. Count of elements                        : 1431
  168. Stream size                              : 53.6 KiB (0%)
  169. Language                                 : Spanish
  170. Default                                  : No
  171. Forced                                   : No

  172. Text #10
  173. ID                                       : 12
  174. Format                                   : UTF-8
  175. Codec ID                                 : S_TEXT/UTF8
  176. Codec ID/Info                            : UTF-8 Plain Text
  177. Duration                                 : 1 h 44 min
  178. Bit rate                                 : 67 b/s
  179. Frame rate                               : 0.226 FPS
  180. Count of elements                        : 1415
  181. Stream size                              : 51.7 KiB (0%)
  182. Title                                    : Latin American
  183. Language                                 : Spanish
  184. Default                                  : No
  185. Forced                                   : No

  186. Text #11
  187. ID                                       : 13
  188. Format                                   : UTF-8
  189. Codec ID                                 : S_TEXT/UTF8
  190. Codec ID/Info                            : UTF-8 Plain Text
  191. Duration                                 : 1 h 44 min
  192. Bit rate                                 : 62 b/s
  193. Frame rate                               : 0.217 FPS
  194. Count of elements                        : 1356
  195. Stream size                              : 47.8 KiB (0%)
  196. Language                                 : Estonian
  197. Default                                  : No
  198. Forced                                   : No

  199. Text #12
  200. ID                                       : 14
  201. Format                                   : UTF-8
  202. Codec ID                                 : S_TEXT/UTF8
  203. Codec ID/Info                            : UTF-8 Plain Text
  204. Duration                                 : 1 h 44 min
  205. Bit rate                                 : 58 b/s
  206. Frame rate                               : 0.217 FPS
  207. Count of elements                        : 1357
  208. Stream size                              : 44.9 KiB (0%)
  209. Language                                 : Finnish
  210. Default                                  : No
  211. Forced                                   : No

  212. Text #13
  213. ID                                       : 15
  214. Format                                   : UTF-8
  215. Codec ID                                 : S_TEXT/UTF8
  216. Codec ID/Info                            : UTF-8 Plain Text
  217. Duration                                 : 1 h 36 min
  218. Bit rate                                 : 65 b/s
  219. Frame rate                               : 0.259 FPS
  220. Count of elements                        : 1504
  221. Stream size                              : 46.5 KiB (0%)
  222. Language                                 : French
  223. Default                                  : No
  224. Forced                                   : No

  225. Text #14
  226. ID                                       : 16
  227. Format                                   : UTF-8
  228. Codec ID                                 : S_TEXT/UTF8
  229. Codec ID/Info                            : UTF-8 Plain Text
  230. Duration                                 : 1 h 37 min
  231. Bit rate                                 : 65 b/s
  232. Frame rate                               : 0.258 FPS
  233. Count of elements                        : 1505
  234. Stream size                              : 46.5 KiB (0%)
  235. Title                                    : Canadian
  236. Language                                 : French
  237. Default                                  : No
  238. Forced                                   : No

  239. Text #15
  240. ID                                       : 17
  241. Format                                   : UTF-8
  242. Codec ID                                 : S_TEXT/UTF8
  243. Codec ID/Info                            : UTF-8 Plain Text
  244. Duration                                 : 1 h 44 min
  245. Bit rate                                 : 87 b/s
  246. Frame rate                               : 0.224 FPS
  247. Count of elements                        : 1401
  248. Stream size                              : 66.5 KiB (0%)
  249. Language                                 : Hebrew
  250. Default                                  : No
  251. Forced                                   : No

  252. Text #16
  253. ID                                       : 18
  254. Format                                   : UTF-8
  255. Codec ID                                 : S_TEXT/UTF8
  256. Codec ID/Info                            : UTF-8 Plain Text
  257. Duration                                 : 1 h 44 min
  258. Bit rate                                 : 158 b/s
  259. Frame rate                               : 0.225 FPS
  260. Count of elements                        : 1408
  261. Stream size                              : 121 KiB (0%)
  262. Language                                 : Hindi
  263. Default                                  : No
  264. Forced                                   : No

  265. Text #17
  266. ID                                       : 19
  267. Format                                   : UTF-8
  268. Codec ID                                 : S_TEXT/UTF8
  269. Codec ID/Info                            : UTF-8 Plain Text
  270. Duration                                 : 1 h 44 min
  271. Bit rate                                 : 65 b/s
  272. Frame rate                               : 0.224 FPS
  273. Count of elements                        : 1402
  274. Stream size                              : 49.8 KiB (0%)
  275. Language                                 : Hungarian
  276. Default                                  : No
  277. Forced                                   : No

  278. Text #18
  279. ID                                       : 20
  280. Format                                   : UTF-8
  281. Codec ID                                 : S_TEXT/UTF8
  282. Codec ID/Info                            : UTF-8 Plain Text
  283. Duration                                 : 1 h 44 min
  284. Bit rate                                 : 65 b/s
  285. Frame rate                               : 0.223 FPS
  286. Count of elements                        : 1394
  287. Stream size                              : 50.3 KiB (0%)
  288. Language                                 : Indonesian
  289. Default                                  : No
  290. Forced                                   : No

  291. Text #19
  292. ID                                       : 21
  293. Format                                   : UTF-8
  294. Codec ID                                 : S_TEXT/UTF8
  295. Codec ID/Info                            : UTF-8 Plain Text
  296. Duration                                 : 1 h 36 min
  297. Bit rate                                 : 69 b/s
  298. Frame rate                               : 0.242 FPS
  299. Count of elements                        : 1397
  300. Stream size                              : 48.8 KiB (0%)
  301. Language                                 : Italian
  302. Default                                  : No
  303. Forced                                   : No

  304. Text #20
  305. ID                                       : 22
  306. Format                                   : UTF-8
  307. Codec ID                                 : S_TEXT/UTF8
  308. Codec ID/Info                            : UTF-8 Plain Text
  309. Duration                                 : 1 h 44 min
  310. Bit rate                                 : 56 b/s
  311. Frame rate                               : 0.233 FPS
  312. Count of elements                        : 1459
  313. Stream size                              : 42.8 KiB (0%)
  314. Language                                 : Japanese
  315. Default                                  : No
  316. Forced                                   : No

  317. Text #21
  318. ID                                       : 23
  319. Format                                   : UTF-8
  320. Codec ID                                 : S_TEXT/UTF8
  321. Codec ID/Info                            : UTF-8 Plain Text
  322. Duration                                 : 1 h 44 min
  323. Bit rate                                 : 71 b/s
  324. Frame rate                               : 0.224 FPS
  325. Count of elements                        : 1400
  326. Stream size                              : 54.5 KiB (0%)
  327. Language                                 : Korean
  328. Default                                  : No
  329. Forced                                   : No

  330. Text #22
  331. ID                                       : 24
  332. Format                                   : UTF-8
  333. Codec ID                                 : S_TEXT/UTF8
  334. Codec ID/Info                            : UTF-8 Plain Text
  335. Duration                                 : 1 h 44 min
  336. Bit rate                                 : 64 b/s
  337. Frame rate                               : 0.224 FPS
  338. Count of elements                        : 1401
  339. Stream size                              : 48.9 KiB (0%)
  340. Language                                 : Lithuanian
  341. Default                                  : No
  342. Forced                                   : No

  343. Text #23
  344. ID                                       : 25
  345. Format                                   : UTF-8
  346. Codec ID                                 : S_TEXT/UTF8
  347. Codec ID/Info                            : UTF-8 Plain Text
  348. Duration                                 : 1 h 44 min
  349. Bit rate                                 : 63 b/s
  350. Frame rate                               : 0.223 FPS
  351. Count of elements                        : 1394
  352. Stream size                              : 48.7 KiB (0%)
  353. Language                                 : Latvian
  354. Default                                  : No
  355. Forced                                   : No

  356. Text #24
  357. ID                                       : 26
  358. Format                                   : UTF-8
  359. Codec ID                                 : S_TEXT/UTF8
  360. Codec ID/Info                            : UTF-8 Plain Text
  361. Duration                                 : 1 h 44 min
  362. Bit rate                                 : 63 b/s
  363. Frame rate                               : 0.225 FPS
  364. Count of elements                        : 1403
  365. Stream size                              : 48.6 KiB (0%)
  366. Language                                 : Malay
  367. Default                                  : No
  368. Forced                                   : No

  369. Text #25
  370. ID                                       : 27
  371. Format                                   : UTF-8
  372. Codec ID                                 : S_TEXT/UTF8
  373. Codec ID/Info                            : UTF-8 Plain Text
  374. Duration                                 : 1 h 44 min
  375. Bit rate                                 : 60 b/s
  376. Frame rate                               : 0.188 FPS
  377. Count of elements                        : 1174
  378. Stream size                              : 46.2 KiB (0%)
  379. Language                                 : Dutch
  380. Default                                  : No
  381. Forced                                   : No

  382. Text #26
  383. ID                                       : 28
  384. Format                                   : UTF-8
  385. Codec ID                                 : S_TEXT/UTF8
  386. Codec ID/Info                            : UTF-8 Plain Text
  387. Duration                                 : 1 h 44 min
  388. Bit rate                                 : 61 b/s
  389. Frame rate                               : 0.181 FPS
  390. Count of elements                        : 1128
  391. Stream size                              : 46.8 KiB (0%)
  392. Title                                    : Flemish
  393. Language                                 : Dutch
  394. Default                                  : No
  395. Forced                                   : No

  396. Text #27
  397. ID                                       : 29
  398. Format                                   : UTF-8
  399. Codec ID                                 : S_TEXT/UTF8
  400. Codec ID/Info                            : UTF-8 Plain Text
  401. Duration                                 : 1 h 44 min
  402. Bit rate                                 : 62 b/s
  403. Frame rate                               : 0.206 FPS
  404. Count of elements                        : 1288
  405. Stream size                              : 47.5 KiB (0%)
  406. Language                                 : Norwegian
  407. Default                                  : No
  408. Forced                                   : No

  409. Text #28
  410. ID                                       : 30
  411. Format                                   : UTF-8
  412. Codec ID                                 : S_TEXT/UTF8
  413. Codec ID/Info                            : UTF-8 Plain Text
  414. Duration                                 : 1 h 36 min
  415. Bit rate                                 : 73 b/s
  416. Frame rate                               : 0.242 FPS
  417. Count of elements                        : 1393
  418. Stream size                              : 51.8 KiB (0%)
  419. Language                                 : Polish
  420. Default                                  : No
  421. Forced                                   : No

  422. Text #29
  423. ID                                       : 31
  424. Format                                   : UTF-8
  425. Codec ID                                 : S_TEXT/UTF8
  426. Codec ID/Info                            : UTF-8 Plain Text
  427. Duration                                 : 1 h 44 min
  428. Bit rate                                 : 63 b/s
  429. Frame rate                               : 0.223 FPS
  430. Count of elements                        : 1394
  431. Stream size                              : 48.2 KiB (0%)
  432. Language                                 : Portuguese
  433. Default                                  : No
  434. Forced                                   : No

  435. Text #30
  436. ID                                       : 32
  437. Format                                   : UTF-8
  438. Codec ID                                 : S_TEXT/UTF8
  439. Codec ID/Info                            : UTF-8 Plain Text
  440. Duration                                 : 1 h 44 min
  441. Bit rate                                 : 62 b/s
  442. Frame rate                               : 0.222 FPS
  443. Count of elements                        : 1388
  444. Stream size                              : 47.4 KiB (0%)
  445. Title                                    : Brazilian
  446. Language                                 : Portuguese
  447. Default                                  : No
  448. Forced                                   : No

  449. Text #31
  450. ID                                       : 33
  451. Format                                   : UTF-8
  452. Codec ID                                 : S_TEXT/UTF8
  453. Codec ID/Info                            : UTF-8 Plain Text
  454. Duration                                 : 1 h 44 min
  455. Bit rate                                 : 102 b/s
  456. Frame rate                               : 0.224 FPS
  457. Count of elements                        : 1401
  458. Stream size                              : 78.2 KiB (0%)
  459. Language                                 : Russian
  460. Default                                  : No
  461. Forced                                   : No

  462. Text #32
  463. ID                                       : 34
  464. Format                                   : UTF-8
  465. Codec ID                                 : S_TEXT/UTF8
  466. Codec ID/Info                            : UTF-8 Plain Text
  467. Duration                                 : 1 h 44 min
  468. Bit rate                                 : 64 b/s
  469. Frame rate                               : 0.224 FPS
  470. Count of elements                        : 1404
  471. Stream size                              : 49.3 KiB (0%)
  472. Language                                 : Slovak
  473. Default                                  : No
  474. Forced                                   : No

  475. Text #33
  476. ID                                       : 35
  477. Format                                   : UTF-8
  478. Codec ID                                 : S_TEXT/UTF8
  479. Codec ID/Info                            : UTF-8 Plain Text
  480. Duration                                 : 1 h 44 min
  481. Bit rate                                 : 53 b/s
  482. Frame rate                               : 0.203 FPS
  483. Count of elements                        : 1269
  484. Stream size                              : 40.6 KiB (0%)
  485. Language                                 : Slovenian
  486. Default                                  : No
  487. Forced                                   : No

  488. Text #34
  489. ID                                       : 36
  490. Format                                   : UTF-8
  491. Codec ID                                 : S_TEXT/UTF8
  492. Codec ID/Info                            : UTF-8 Plain Text
  493. Duration                                 : 1 h 44 min
  494. Bit rate                                 : 64 b/s
  495. Frame rate                               : 0.214 FPS
  496. Count of elements                        : 1341
  497. Stream size                              : 49.0 KiB (0%)
  498. Language                                 : Swedish
  499. Default                                  : No
  500. Forced                                   : No

  501. Text #35
  502. ID                                       : 37
  503. Format                                   : UTF-8
  504. Codec ID                                 : S_TEXT/UTF8
  505. Codec ID/Info                            : UTF-8 Plain Text
  506. Duration                                 : 1 h 44 min
  507. Bit rate                                 : 210 b/s
  508. Frame rate                               : 0.225 FPS
  509. Count of elements                        : 1407
  510. Stream size                              : 161 KiB (0%)
  511. Language                                 : Tamil
  512. Default                                  : No
  513. Forced                                   : No

  514. Text #36
  515. ID                                       : 38
  516. Format                                   : UTF-8
  517. Codec ID                                 : S_TEXT/UTF8
  518. Codec ID/Info                            : UTF-8 Plain Text
  519. Duration                                 : 1 h 44 min
  520. Bit rate                                 : 191 b/s
  521. Frame rate                               : 0.225 FPS
  522. Count of elements                        : 1407
  523. Stream size                              : 146 KiB (0%)
  524. Language                                 : Telugu
  525. Default                                  : No
  526. Forced                                   : No

  527. Text #37
  528. ID                                       : 39
  529. Format                                   : UTF-8
  530. Codec ID                                 : S_TEXT/UTF8
  531. Codec ID/Info                            : UTF-8 Plain Text
  532. Duration                                 : 1 h 44 min
  533. Bit rate                                 : 147 b/s
  534. Frame rate                               : 0.225 FPS
  535. Count of elements                        : 1407
  536. Stream size                              : 112 KiB (0%)
  537. Language                                 : Thai
  538. Default                                  : No
  539. Forced                                   : No

  540. Text #38
  541. ID                                       : 40
  542. Format                                   : UTF-8
  543. Codec ID                                 : S_TEXT/UTF8
  544. Codec ID/Info                            : UTF-8 Plain Text
  545. Duration                                 : 1 h 44 min
  546. Bit rate                                 : 64 b/s
  547. Frame rate                               : 0.223 FPS
  548. Count of elements                        : 1395
  549. Stream size                              : 49.2 KiB (0%)
  550. Language                                 : Turkish
  551. Default                                  : No
  552. Forced                                   : No

  553. Text #39
  554. ID                                       : 41
  555. Format                                   : UTF-8
  556. Codec ID                                 : S_TEXT/UTF8
  557. Codec ID/Info                            : UTF-8 Plain Text
  558. Duration                                 : 1 h 44 min
  559. Bit rate                                 : 101 b/s
  560. Frame rate                               : 0.224 FPS
  561. Count of elements                        : 1404
  562. Stream size                              : 77.7 KiB (0%)
  563. Language                                 : Ukrainian
  564. Default                                  : No
  565. Forced                                   : No

  566. Text #40
  567. ID                                       : 42
  568. Format                                   : UTF-8
  569. Codec ID                                 : S_TEXT/UTF8
  570. Codec ID/Info                            : UTF-8 Plain Text
  571. Duration                                 : 1 h 44 min
  572. Bit rate                                 : 83 b/s
  573. Frame rate                               : 0.224 FPS
  574. Count of elements                        : 1404
  575. Stream size                              : 63.7 KiB (0%)
  576. Language                                 : Vietnamese
  577. Default                                  : No
  578. Forced                                   : No

  579. Text #41
  580. ID                                       : 43
  581. Format                                   : UTF-8
  582. Codec ID                                 : S_TEXT/UTF8
  583. Codec ID/Info                            : UTF-8 Plain Text
  584. Duration                                 : 1 h 44 min
  585. Bit rate                                 : 61 b/s
  586. Frame rate                               : 0.225 FPS
  587. Count of elements                        : 1408
  588. Stream size                              : 46.8 KiB (0%)
  589. Title                                    : Traditional
  590. Default                                  : No
  591. Forced                                   : No

  592. Text #42
  593. ID                                       : 44
  594. Format                                   : UTF-8
  595. Codec ID                                 : S_TEXT/UTF8
  596. Codec ID/Info                            : UTF-8 Plain Text
  597. Duration                                 : 1 h 44 min
  598. Bit rate                                 : 60 b/s
  599. Frame rate                               : 0.225 FPS
  600. Count of elements                        : 1407
  601. Stream size                              : 45.8 KiB (0%)
  602. Title                                    : zh-Hans
  603. Language                                 : Chinese
  604. Default                                  : No
  605. Forced                                   : No

  606. Text #43
  607. ID                                       : 45
  608. Format                                   : UTF-8
  609. Codec ID                                 : S_TEXT/UTF8
  610. Codec ID/Info                            : UTF-8 Plain Text
  611. Duration                                 : 1 h 44 min
  612. Bit rate                                 : 60 b/s
  613. Frame rate                               : 0.225 FPS
  614. Count of elements                        : 1408
  615. Stream size                              : 46.5 KiB (0%)
  616. Title                                    : zh-Hant
  617. Language                                 : Chinese
  618. Default                                  : No
  619. Forced                                   : No
复制代码




                                       
                                       

                                       
                                       
                                       




Luck.2022.2160p.ATVP.WEB-DL.x265.10bit.HDR.DDP5.1.Atmos-CM.torrent (23.76 KB, 下载次数: 6)
回复

使用道具 举报

您需要登录后才可以回帖 登录 | 立即注册

本版积分规则

QQ|Archiver|手机版|小黑屋|蓝光电影网

GMT+8, 2022-8-8 19:04 , Processed in 0.055848 second(s), 28 queries .

Powered by Discuz! X3.4

Copyright © 2001-2020, Tencent Cloud.

快速回复 返回顶部 返回列表