找回密码
 立即注册

QQ登录

只需一步,快速开始

查看: 40|回复: 0

[其他] 铁血战士:猎物 Prey.2022.2160p.HULU.2160p.WEB-DL.x265.10bit.SDR.DDP5.1-CM 8.78GB

[复制链接]

0

精华

0

好友

2

听众

新手上路

Rank: 2

蓝光币
5
发表于 前天 08:00 | 显示全部楼层 |阅读模式


◎标  题 铁血战士:猎物
◎译  名 铁血战士5 / 终极战士:兽猎者(台) / 铁血战士:骷髅 / Skulls / 铁血战士:狩猎追击(港)
◎片  名 Prey
◎年  代 2022
◎产  地 美国
◎类  别 动作 / 科幻 / 恐怖
◎语  言 英语
◎上映日期 2022-08-05(美国网络)
◎IMDb评分 6.4/10 (877人评价)
◎IMDb链接 https://www.imdb.com/title/tt11866324/
◎豆瓣链接 https://movie.douban.com/subject/35262994/
◎导  演 丹·特拉亨伯格 Dan Trachtenberg
◎演  员 安伯·明迪桑德 Amber Midthunder
       戴恩·迪利格罗 Dane DiLiegro
       斯蒂芬·马蒂亚斯 Stefany Mathias
       斯托米·基普 Stormee Kipp
       达寇塔·比弗 Dakota Beavers
       杰夫·卡特 Jeff Cutter
◎简  介

  Prey is coming to Hulu August 5                                       
                                    “Prey,” an all-new action-thriller from 20th Century Studios directed by Dan Trachtenberg (“The Boys,” “10 Cloverfield Lane”) and the newest entry in the “Predator” franchise, will stream August 5, 2022, exclusively on Hulu.                                       
                                                                           
                                    Set in the Comanche Nation 300 years ago, “Prey” is the story of a young woman, Naru, a fierce and highly skilled warrior....
  1. Video
  2. ID                                       : 1
  3. Format                                   : HEVC
  4. Format/Info                              : High Efficiency Video Coding
  5. Format profile                           : Main [email protected]@Main
  6. Codec ID                                 : V_MPEGH/ISO/HEVC
  7. Duration                                 : 1 h 39 min
  8. Bit rate                                 : 12.4 Mb/s
  9. Width                                    : 3 840 pixels
  10. Height                                   : 2 160 pixels
  11. Display aspect ratio                     : 16:9
  12. Frame rate mode                          : Constant
  13. Frame rate                               : 24.000 FPS
  14. Color space                              : YUV
  15. Chroma subsampling                       : 4:2:0
  16. Bit depth                                : 10 bits
  17. Bits/(Pixel*Frame)                       : 0.062
  18. Stream size                              : 8.61 GiB (98%)
  19. Language                                 : English
  20. Default                                  : Yes
  21. Forced                                   : No
  22. Audio
  23. ID                                       : 2
  24. Format                                   : E-AC-3
  25. Format/Info                              : Enhanced AC-3
  26. Commercial name                          : Dolby Digital Plus
  27. Codec ID                                 : A_EAC3
  28. Duration                                 : 1 h 39 min
  29. Bit rate mode                            : Constant
  30. Bit rate                                 : 256 kb/s
  31. Channel(s)                               : 6 channels
  32. Channel layout                           : L R C LFE Ls Rs
  33. Sampling rate                            : 48.0 kHz
  34. Frame rate                               : 31.250 FPS (1536 SPF)
  35. Compression mode                         : Lossy
  36. Stream size                              : 182 MiB (2%)
  37. Language                                 : English
  38. Service kind                             : Complete Main
  39. Default                                  : Yes
  40. Forced                                   : No
  41. Text #1
  42. ID                                       : 3
  43. Format                                   : UTF-8
  44. Codec ID                                 : S_TEXT/UTF8
  45. Codec ID/Info                            : UTF-8 Plain Text
  46. Duration                                 : 1 h 29 min
  47. Bit rate                                 : 29 b/s
  48. Frame rate                               : 0.158 FPS
  49. Count of elements                        : 852
  50. Stream size                              : 19.5 KiB (0%)
  51. Title                                    : SDH
  52. Language                                 : English
  53. Default                                  : No
  54. Forced                                   : No
  55. Text #2
  56. ID                                       : 4
  57. Format                                   : UTF-8
  58. Codec ID                                 : S_TEXT/UTF8
  59. Codec ID/Info                            : UTF-8 Plain Text
  60. Duration                                 : 1 h 28 min
  61. Bit rate                                 : 15 b/s
  62. Frame rate                               : 0.072 FPS
  63. Count of elements                        : 381
  64. Stream size                              : 9.78 KiB (0%)
  65. Language                                 : English
  66. Default                                  : No
  67. Forced                                   : No
  68. Text #3
  69. ID                                       : 5
  70. Format                                   : UTF-8
  71. Codec ID                                 : S_TEXT/UTF8
  72. Codec ID/Info                            : UTF-8 Plain Text
  73. Duration                                 : 1 h 31 min
  74. Bit rate                                 : 29 b/s
  75. Frame rate                               : 0.154 FPS
  76. Count of elements                        : 848
  77. Stream size                              : 19.5 KiB (0%)
  78. Title                                    : SDH
  79. Language                                 : Spanish
  80. Default                                  : No
  81. Forced                                   : No
  82. Text #4
  83. ID                                       : 6
  84. Format                                   : UTF-8
  85. Codec ID                                 : S_TEXT/UTF8
  86. Codec ID/Info                            : UTF-8 Plain Text
  87. Duration                                 : 1 h 31 min
  88. Bit rate                                 : 14 b/s
  89. Frame rate                               : 0.068 FPS
  90. Count of elements                        : 376
  91. Stream size                              : 9.49 KiB (0%)
  92. Language                                 : Spanish
  93. Default                                  : No
  94. Forced                                   : No
  95. Menu
  96. 00:00:00.000                             : Chapter 01
  97. 01:30:23.130                             : Credits
复制代码




                                       
                                       

                                       
                                       
                                       




Prey.2022.2160p.HULU.2160p.WEB-DL.x265.10bit.SDR.DDP5.1-CM.torrent (22.59 KB, 下载次数: 7)
回复

使用道具 举报

您需要登录后才可以回帖 登录 | 立即注册

本版积分规则

QQ|Archiver|手机版|小黑屋|蓝光电影网

GMT+8, 2022-8-8 18:46 , Processed in 0.060773 second(s), 28 queries .

Powered by Discuz! X3.4

Copyright © 2001-2020, Tencent Cloud.

快速回复 返回顶部 返回列表