找回密码
 立即注册

QQ登录

只需一步,快速开始

查看: 17|回复: 0

[其他] 祝你好运 Luck.2022.2160p.ATVP.WEB-DL.DDP5.1.Atmos.DV.MP4.x265-DVSUX 18.44GB

[复制链接]

0

精华

0

好友

2

听众

新手上路

Rank: 2

蓝光币
5
发表于 前天 07:59 | 显示全部楼层 |阅读模式


◎标  题 祝你好运
◎译  名 幸运 / 开运奇遇记 / Good Luck Bad Luck
◎片  名 Luck
◎年  代 2022
◎产  地 西班牙 / 美国
◎类  别 喜剧 / 动画 / 奇幻 / 冒险
◎语  言 英语
◎上映日期 2022-08-05(美国网络)
◎IMDb链接 https://www.imdb.com/title/tt7214954/
◎豆瓣链接 https://movie.douban.com/subject/30471496/
◎导  演 佩吉·霍姆斯 Peggy Holmes
◎编  剧 基尔·默里 Kiel Murray
       乔纳森·阿贝尔 Jonathan Aibel
       格伦·伯杰 Glenn Berger
◎演  员 伊娃·诺布勒札达 Eva Noblezada
       西蒙·佩吉 Simon Pegg
       简·方达 Jane Fonda
       乌比·戈德堡 Whoopi Goldberg
       弗卢拉·博格 Flula Borg
       里尔·莱尔·哈瓦瑞 Lil Rel Howery
       科林·奥多霍诺 Colin O'Donoghue
       约翰·拉岑贝格 John Ratzenberger
       阿德琳·斯布恩 Adelynn Spoon
       约翰·拉塞特 John Lasseter
       大卫·埃里森 David Ellison
       约翰·戴布尼 John Debney
◎简  介

  简·方达将为动画新片[幸运]中的主要角色配音。该片由佩吉·霍姆斯([小叮当与海盗仙子])执导,由基尔·默里([赛车总动员])操刀剧本。故事讲述在一个好运气和坏运气互相碰撞的世界中,一个不幸的女孩必须介入并拯救这个世界。 简·方达将为龙配音,龙是热情洋溢的掌管好运气的CEO,她是毫无争议的最幸运的远古生物。龙很优雅,风格明确,她强大并且有说服力。唯一比好运更好的事情就是更多的好运,所以当坏运气开始失控,她必须直面自己的恐惧,面临永远失去好运气的风险。该片由天空之舞与苹果联合制作。
  1. Video
  2. ID                                       : 1
  3. Format                                   : HEVC
  4. Format/Info                              : High Efficiency Video Coding
  5. Format profile                           : Main [email protected]@High
  6. HDR format                               : Dolby Vision, Version 1.0, dvhe.05.06, BL+RPU
  7. Codec ID                                 : dvhe
  8. Codec ID/Info                            : High Efficiency Video Coding with Dolby Vision
  9. Duration                                 : 1 h 45 min
  10. Bit rate                                 : 24.3 Mb/s
  11. Width                                    : 3 840 pixels
  12. Height                                   : 2 080 pixels
  13. Original height                          : 2 076 pixels
  14. Display aspect ratio                     : 1.85:1
  15. Original display aspect ratio            : 1.85:1
  16. Frame rate mode                          : Constant
  17. Frame rate                               : 23.976 (24000/1001/189150) FPS
  18. Color space                              : YUV
  19. Chroma subsampling                       : 4:2:0
  20. Bit depth                                : 10 bits
  21. Bits/(Pixel*Frame)                       : 0.127
  22. Stream size                              : 17.9 GiB (97%)
  23. Default                                  : Yes
  24. Alternate group                          : 1
  25. Encoded date                             : UTC 2022-08-05 03:38:51
  26. Tagged date                              : UTC 2022-08-05 03:41:08
  27. Codec configuration box                  : hvcC+dvcC
  28. Audio
  29. ID                                       : 2
  30. Format                                   : E-AC-3 JOC
  31. Format/Info                              : Enhanced AC-3 with Joint Object Coding
  32. Commercial name                          : Dolby Digital Plus with Dolby Atmos
  33. Codec ID                                 : ec-3
  34. Duration                                 : 1 h 45 min
  35. Bit rate mode                            : Constant
  36. Bit rate                                 : 768 kb/s
  37. Maximum bit rate                         : 811 kb/s
  38. Channel(s)                               : 6 channels
  39. Channel layout                           : L R C LFE Ls Rs
  40. Sampling rate                            : 48.0 kHz
  41. Frame rate                               : 31.250 FPS (1536 SPF)
  42. Compression mode                         : Lossy
  43. Stream size                              : 579 MiB (3%)
  44. Title                                    : English
  45. Language                                 : English
  46. Service kind                             : Complete Main
  47. Default                                  : Yes
  48. Alternate group                          : 1
  49. Tagged date                              : UTC 2022-08-05 03:41:08
  50. Complexity index                         : Not present / 16
  51. Number of dynamic objects                : 15
  52. Bed channel count                        : 1 channel
  53. Bed channel configuration                : LFE
  54. Text #1
  55. ID                                       : 3
  56. Format                                   : Timed Text
  57. Codec ID                                 : tx3g
  58. Duration                                 : 1 h 36 min
  59. Bit rate mode                            : Variable
  60. Bit rate                                 : 85 b/s
  61. Frame rate                               : 0.558 FPS
  62. Stream size                              : 60.4 KiB (0%)
  63. Title                                    : English
  64. Language                                 : English
  65. Forced                                   : No
  66. Encoded date                             : UTC 2022-08-05 03:40:57
  67. Tagged date                              : UTC 2022-08-05 03:41:08
  68. Text #2
  69. ID                                       : 4
  70. Format                                   : Timed Text
  71. Codec ID                                 : tx3g
  72. Duration                                 : 1 h 36 min
  73. Bit rate mode                            : Variable
  74. Bit rate                                 : 94 b/s
  75. Frame rate                               : 0.558 FPS
  76. Stream size                              : 66.8 KiB (0%)
  77. Title                                    : English
  78. Language                                 : English
  79. Forced                                   : No
  80. Encoded date                             : UTC 2022-08-05 03:40:57
  81. Tagged date                              : UTC 2022-08-05 03:41:08
  82. Text #3
  83. ID                                       : 5
  84. Format                                   : Timed Text
  85. Codec ID                                 : tx3g
  86. Duration                                 : 1 h 36 min
  87. Bit rate mode                            : Variable
  88. Bit rate                                 : 75 b/s
  89. Frame rate                               : 0.473 FPS
  90. Stream size                              : 52.8 KiB (0%)
  91. Title                                    : English
  92. Language                                 : English
  93. Forced                                   : No
  94. Encoded date                             : UTC 2022-08-05 03:40:57
  95. Tagged date                              : UTC 2022-08-05 03:41:08
  96. Text #4
  97. ID                                       : 6
  98. Format                                   : Timed Text
  99. Codec ID                                 : tx3g
  100. Duration                                 : 1 h 45 min
  101. Bit rate mode                            : Variable
  102. Bit rate                                 : 101 b/s
  103. Frame rate                               : 0.436 FPS
  104. Stream size                              : 77.4 KiB (0%)
  105. Title                                    : Arabic
  106. Language                                 : Arabic
  107. Forced                                   : No
  108. Encoded date                             : UTC 2022-08-05 03:40:57
  109. Tagged date                              : UTC 2022-08-05 03:41:08
  110. Text #5
  111. ID                                       : 7
  112. Format                                   : Timed Text
  113. Codec ID                                 : tx3g
  114. Duration                                 : 1 h 45 min
  115. Bit rate mode                            : Variable
  116. Bit rate                                 : 101 b/s
  117. Frame rate                               : 0.426 FPS
  118. Stream size                              : 77.8 KiB (0%)
  119. Title                                    : Bulgarian
  120. Language                                 : Bulgarian
  121. Forced                                   : No
  122. Encoded date                             : UTC 2022-08-05 03:41:00
  123. Tagged date                              : UTC 2022-08-05 03:41:08
  124. Text #6
  125. ID                                       : 8
  126. Format                                   : Timed Text
  127. Codec ID                                 : tx3g
  128. Duration                                 : 1 h 45 min
  129. Bit rate mode                            : Variable
  130. Bit rate                                 : 68 b/s
  131. Frame rate                               : 0.447 FPS
  132. Stream size                              : 52.1 KiB (0%)
  133. Title                                    : Chinese-Cantonese
  134. Language                                 : Chinese
  135. Forced                                   : No
  136. Encoded date                             : UTC 2022-08-05 03:41:01
  137. Tagged date                              : UTC 2022-08-05 03:41:08
  138. Text #7
  139. ID                                       : 9
  140. Format                                   : Timed Text
  141. Codec ID                                 : tx3g
  142. Duration                                 : 1 h 45 min
  143. Bit rate mode                            : Variable
  144. Bit rate                                 : 66 b/s
  145. Frame rate                               : 0.446 FPS
  146. Stream size                              : 51.0 KiB (0%)
  147. Title                                    : Chinese-Simplified
  148. Language                                 : Chinese
  149. Forced                                   : No
  150. Encoded date                             : UTC 2022-08-05 03:41:01
  151. Tagged date                              : UTC 2022-08-05 03:41:08
  152. Text #8
  153. ID                                       : 10
  154. Format                                   : Timed Text
  155. Codec ID                                 : tx3g
  156. Duration                                 : 1 h 45 min
  157. Bit rate mode                            : Variable
  158. Bit rate                                 : 67 b/s
  159. Frame rate                               : 0.447 FPS
  160. Stream size                              : 51.7 KiB (0%)
  161. Title                                    : Chinese-Traditional
  162. Language                                 : Chinese
  163. Forced                                   : No
  164. Encoded date                             : UTC 2022-08-05 03:41:01
  165. Tagged date                              : UTC 2022-08-05 03:41:08
  166. Text #9
  167. ID                                       : 11
  168. Format                                   : Timed Text
  169. Codec ID                                 : tx3g
  170. Duration                                 : 1 h 45 min
  171. Bit rate mode                            : Variable
  172. Bit rate                                 : 63 b/s
  173. Frame rate                               : 0.417 FPS
  174. Stream size                              : 48.3 KiB (0%)
  175. Title                                    : Czech
  176. Language                                 : Czech
  177. Forced                                   : No
  178. Encoded date                             : UTC 2022-08-05 03:41:01
  179. Tagged date                              : UTC 2022-08-05 03:41:08
  180. Text #10
  181. ID                                       : 12
  182. Format                                   : Timed Text
  183. Codec ID                                 : tx3g
  184. Duration                                 : 1 h 45 min
  185. Bit rate mode                            : Variable
  186. Bit rate                                 : 65 b/s
  187. Frame rate                               : 0.415 FPS
  188. Stream size                              : 50.0 KiB (0%)
  189. Title                                    : Danish
  190. Language                                 : Danish
  191. Forced                                   : No
  192. Encoded date                             : UTC 2022-08-05 03:41:01
  193. Tagged date                              : UTC 2022-08-05 03:41:08
  194. Text #11
  195. ID                                       : 13
  196. Format                                   : Timed Text
  197. Codec ID                                 : tx3g
  198. Duration                                 : 1 h 45 min
  199. Bit rate mode                            : Variable
  200. Bit rate                                 : 66 b/s
  201. Frame rate                               : 0.358 FPS
  202. Stream size                              : 50.5 KiB (0%)
  203. Title                                    : Dutch
  204. Language                                 : Dutch
  205. Forced                                   : No
  206. Encoded date                             : UTC 2022-08-05 03:41:01
  207. Tagged date                              : UTC 2022-08-05 03:41:08
  208. Text #12
  209. ID                                       : 14
  210. Format                                   : Timed Text
  211. Codec ID                                 : tx3g
  212. Duration                                 : 1 h 45 min
  213. Bit rate mode                            : Variable
  214. Bit rate                                 : 65 b/s
  215. Frame rate                               : 0.372 FPS
  216. Stream size                              : 50.2 KiB (0%)
  217. Title                                    : Dutch
  218. Language                                 : Dutch
  219. Forced                                   : No
  220. Encoded date                             : UTC 2022-08-05 03:41:01
  221. Tagged date                              : UTC 2022-08-05 03:41:08
  222. Text #13
  223. ID                                       : 15
  224. Format                                   : Timed Text
  225. Codec ID                                 : tx3g
  226. Duration                                 : 1 h 45 min
  227. Bit rate mode                            : Variable
  228. Bit rate                                 : 68 b/s
  229. Frame rate                               : 0.430 FPS
  230. Stream size                              : 52.5 KiB (0%)
  231. Title                                    : Estonian
  232. Language                                 : Estonian
  233. Forced                                   : No
  234. Encoded date                             : UTC 2022-08-05 03:41:01
  235. Tagged date                              : UTC 2022-08-05 03:41:08
  236. Text #14
  237. ID                                       : 16
  238. Format                                   : Timed Text
  239. Codec ID                                 : tx3g
  240. Duration                                 : 1 h 45 min
  241. Bit rate mode                            : Variable
  242. Bit rate                                 : 65 b/s
  243. Frame rate                               : 0.431 FPS
  244. Stream size                              : 49.7 KiB (0%)
  245. Title                                    : Finnish
  246. Language                                 : Finnish
  247. Forced                                   : No
  248. Encoded date                             : UTC 2022-08-05 03:41:01
  249. Tagged date                              : UTC 2022-08-05 03:41:08
  250. Text #15
  251. ID                                       : 17
  252. Format                                   : Timed Text
  253. Codec ID                                 : tx3g
  254. Duration                                 : 1 h 37 min
  255. Bit rate mode                            : Variable
  256. Bit rate                                 : 73 b/s
  257. Frame rate                               : 0.513 FPS
  258. Stream size                              : 52.0 KiB (0%)
  259. Title                                    : French
  260. Language                                 : French
  261. Forced                                   : No
  262. Encoded date                             : UTC 2022-08-05 03:41:01
  263. Tagged date                              : UTC 2022-08-05 03:41:08
  264. Text #16
  265. ID                                       : 18
  266. Format                                   : Timed Text
  267. Codec ID                                 : tx3g
  268. Duration                                 : 1 h 37 min
  269. Bit rate mode                            : Variable
  270. Bit rate                                 : 73 b/s
  271. Frame rate                               : 0.513 FPS
  272. Stream size                              : 52.0 KiB (0%)
  273. Title                                    : French
  274. Language                                 : French
  275. Forced                                   : No
  276. Encoded date                             : UTC 2022-08-05 03:41:01
  277. Tagged date                              : UTC 2022-08-05 03:41:08
  278. Text #17
  279. ID                                       : 19
  280. Format                                   : Timed Text
  281. Codec ID                                 : tx3g
  282. Duration                                 : 1 h 36 min
  283. Bit rate mode                            : Variable
  284. Bit rate                                 : 75 b/s
  285. Frame rate                               : 0.475 FPS
  286. Stream size                              : 53.0 KiB (0%)
  287. Title                                    : German
  288. Language                                 : German
  289. Forced                                   : No
  290. Encoded date                             : UTC 2022-08-05 03:41:01
  291. Tagged date                              : UTC 2022-08-05 03:41:08
  292. Text #18
  293. ID                                       : 20
  294. Format                                   : Timed Text
  295. Codec ID                                 : tx3g
  296. Duration                                 : 1 h 45 min
  297. Bit rate mode                            : Variable
  298. Bit rate                                 : 112 b/s
  299. Frame rate                               : 0.436 FPS
  300. Stream size                              : 86.3 KiB (0%)
  301. Title                                    : Greek
  302. Language                                 : Greek
  303. Forced                                   : No
  304. Encoded date                             : UTC 2022-08-05 03:41:01
  305. Tagged date                              : UTC 2022-08-05 03:41:08
  306. Text #19
  307. ID                                       : 21
  308. Format                                   : Timed Text
  309. Codec ID                                 : tx3g
  310. Duration                                 : 1 h 45 min
  311. Bit rate mode                            : Variable
  312. Bit rate                                 : 93 b/s
  313. Frame rate                               : 0.445 FPS
  314. Stream size                              : 71.6 KiB (0%)
  315. Title                                    : Hebrew
  316. Language                                 : Hebrew
  317. Forced                                   : No
  318. Encoded date                             : UTC 2022-08-05 03:41:01
  319. Tagged date                              : UTC 2022-08-05 03:41:08
  320. Text #20
  321. ID                                       : 22
  322. Format                                   : Timed Text
  323. Codec ID                                 : tx3g
  324. Duration                                 : 1 h 45 min
  325. Bit rate mode                            : Variable
  326. Bit rate                                 : 164 b/s
  327. Frame rate                               : 0.447 FPS
  328. Stream size                              : 126 KiB (0%)
  329. Title                                    : Hindi
  330. Language                                 : Hindi
  331. Forced                                   : No
  332. Encoded date                             : UTC 2022-08-05 03:41:02
  333. Tagged date                              : UTC 2022-08-05 03:41:08
  334. Text #21
  335. ID                                       : 23
  336. Format                                   : Timed Text
  337. Codec ID                                 : tx3g
  338. Duration                                 : 1 h 45 min
  339. Bit rate mode                            : Variable
  340. Bit rate                                 : 71 b/s
  341. Frame rate                               : 0.445 FPS
  342. Stream size                              : 54.7 KiB (0%)
  343. Title                                    : Hungarian
  344. Language                                 : Hungarian
  345. Forced                                   : No
  346. Encoded date                             : UTC 2022-08-05 03:41:02
  347. Tagged date                              : UTC 2022-08-05 03:41:08
  348. Text #22
  349. ID                                       : 24
  350. Format                                   : Timed Text
  351. Codec ID                                 : tx3g
  352. Duration                                 : 1 h 45 min
  353. Bit rate mode                            : Variable
  354. Bit rate                                 : 72 b/s
  355. Frame rate                               : 0.442 FPS
  356. Stream size                              : 55.1 KiB (0%)
  357. Title                                    : Indonesian
  358. Language                                 : Indonesian
  359. Forced                                   : No
  360. Encoded date                             : UTC 2022-08-05 03:41:02
  361. Tagged date                              : UTC 2022-08-05 03:41:08
  362. Text #23
  363. ID                                       : 25
  364. Format                                   : Timed Text
  365. Codec ID                                 : tx3g
  366. Duration                                 : 1 h 37 min
  367. Bit rate mode                            : Variable
  368. Bit rate                                 : 76 b/s
  369. Frame rate                               : 0.480 FPS
  370. Stream size                              : 53.7 KiB (0%)
  371. Title                                    : Italian
  372. Language                                 : Italian
  373. Forced                                   : No
  374. Encoded date                             : UTC 2022-08-05 03:41:03
  375. Tagged date                              : UTC 2022-08-05 03:41:08
  376. Text #24
  377. ID                                       : 26
  378. Format                                   : Timed Text
  379. Codec ID                                 : tx3g
  380. Duration                                 : 1 h 45 min
  381. Bit rate mode                            : Variable
  382. Bit rate                                 : 63 b/s
  383. Frame rate                               : 0.460 FPS
  384. Stream size                              : 48.2 KiB (0%)
  385. Title                                    : Japanese
  386. Language                                 : Japanese
  387. Forced                                   : No
  388. Encoded date                             : UTC 2022-08-05 03:41:03
  389. Tagged date                              : UTC 2022-08-05 03:41:08
  390. Text #25
  391. ID                                       : 27
  392. Format                                   : Timed Text
  393. Codec ID                                 : tx3g
  394. Duration                                 : 1 h 45 min
  395. Bit rate mode                            : Variable
  396. Bit rate                                 : 77 b/s
  397. Frame rate                               : 0.444 FPS
  398. Stream size                              : 59.3 KiB (0%)
  399. Title                                    : Korean
  400. Language                                 : Korean
  401. Forced                                   : No
  402. Encoded date                             : UTC 2022-08-05 03:41:03
  403. Tagged date                              : UTC 2022-08-05 03:41:08
  404. Text #26
  405. ID                                       : 28
  406. Format                                   : Timed Text
  407. Codec ID                                 : tx3g
  408. Duration                                 : 1 h 45 min
  409. Bit rate mode                            : Variable
  410. Bit rate                                 : 70 b/s
  411. Frame rate                               : 0.442 FPS
  412. Stream size                              : 53.6 KiB (0%)
  413. Title                                    : Latvian
  414. Language                                 : Latvian
  415. Forced                                   : No
  416. Encoded date                             : UTC 2022-08-05 03:41:03
  417. Tagged date                              : UTC 2022-08-05 03:41:08
  418. Text #27
  419. ID                                       : 29
  420. Format                                   : Timed Text
  421. Codec ID                                 : tx3g
  422. Duration                                 : 1 h 45 min
  423. Bit rate mode                            : Variable
  424. Bit rate                                 : 70 b/s
  425. Frame rate                               : 0.445 FPS
  426. Stream size                              : 53.8 KiB (0%)
  427. Title                                    : Lithuanian
  428. Language                                 : Lithuanian
  429. Forced                                   : No
  430. Encoded date                             : UTC 2022-08-05 03:41:03
  431. Tagged date                              : UTC 2022-08-05 03:41:08
  432. Text #28
  433. ID                                       : 30
  434. Format                                   : Timed Text
  435. Codec ID                                 : tx3g
  436. Duration                                 : 1 h 45 min
  437. Bit rate mode                            : Variable
  438. Bit rate                                 : 70 b/s
  439. Frame rate                               : 0.445 FPS
  440. Stream size                              : 53.5 KiB (0%)
  441. Title                                    : Malay
  442. Language                                 : Malay
  443. Forced                                   : No
  444. Encoded date                             : UTC 2022-08-05 03:41:04
  445. Tagged date                              : UTC 2022-08-05 03:41:08
  446. Text #29
  447. ID                                       : 31
  448. Format                                   : Timed Text
  449. Codec ID                                 : tx3g
  450. Duration                                 : 1 h 45 min
  451. Bit rate mode                            : Variable
  452. Bit rate                                 : 67 b/s
  453. Frame rate                               : 0.409 FPS
  454. Stream size                              : 51.9 KiB (0%)
  455. Title                                    : Norwegian
  456. Language                                 : Norwegian
  457. Forced                                   : No
  458. Encoded date                             : UTC 2022-08-05 03:41:04
  459. Tagged date                              : UTC 2022-08-05 03:41:08
  460. Text #30
  461. ID                                       : 32
  462. Format                                   : Timed Text
  463. Codec ID                                 : tx3g
  464. Duration                                 : 1 h 36 min
  465. Bit rate mode                            : Variable
  466. Bit rate                                 : 80 b/s
  467. Frame rate                               : 0.480 FPS
  468. Stream size                              : 56.7 KiB (0%)
  469. Title                                    : Polish
  470. Language                                 : Polish
  471. Forced                                   : No
  472. Encoded date                             : UTC 2022-08-05 03:41:04
  473. Tagged date                              : UTC 2022-08-05 03:41:08
  474. Text #31
  475. ID                                       : 33
  476. Format                                   : Timed Text
  477. Codec ID                                 : tx3g
  478. Duration                                 : 1 h 45 min
  479. Bit rate mode                            : Variable
  480. Bit rate                                 : 69 b/s
  481. Frame rate                               : 0.442 FPS
  482. Stream size                              : 53.1 KiB (0%)
  483. Title                                    : Portuguese
  484. Language                                 : Portuguese
  485. Forced                                   : No
  486. Encoded date                             : UTC 2022-08-05 03:41:04
  487. Tagged date                              : UTC 2022-08-05 03:41:08
  488. Text #32
  489. ID                                       : 34
  490. Format                                   : Timed Text
  491. Codec ID                                 : tx3g
  492. Duration                                 : 1 h 45 min
  493. Bit rate mode                            : Variable
  494. Bit rate                                 : 68 b/s
  495. Frame rate                               : 0.440 FPS
  496. Stream size                              : 52.3 KiB (0%)
  497. Title                                    : Portuguese
  498. Language                                 : Portuguese
  499. Forced                                   : No
  500. Encoded date                             : UTC 2022-08-05 03:41:05
  501. Tagged date                              : UTC 2022-08-05 03:41:08
  502. Text #33
  503. ID                                       : 35
  504. Format                                   : Timed Text
  505. Codec ID                                 : tx3g
  506. Duration                                 : 1 h 45 min
  507. Bit rate mode                            : Variable
  508. Bit rate                                 : 108 b/s
  509. Frame rate                               : 0.444 FPS
  510. Stream size                              : 83.2 KiB (0%)
  511. Title                                    : Russian
  512. Language                                 : Russian
  513. Forced                                   : No
  514. Encoded date                             : UTC 2022-08-05 03:41:05
  515. Tagged date                              : UTC 2022-08-05 03:41:08
  516. Text #34
  517. ID                                       : 36
  518. Format                                   : Timed Text
  519. Codec ID                                 : tx3g
  520. Duration                                 : 1 h 45 min
  521. Bit rate mode                            : Variable
  522. Bit rate                                 : 70 b/s
  523. Frame rate                               : 0.445 FPS
  524. Stream size                              : 54.2 KiB (0%)
  525. Title                                    : Slovak
  526. Language                                 : Slovak
  527. Forced                                   : No
  528. Encoded date                             : UTC 2022-08-05 03:41:05
  529. Tagged date                              : UTC 2022-08-05 03:41:08
  530. Text #35
  531. ID                                       : 37
  532. Format                                   : Timed Text
  533. Codec ID                                 : tx3g
  534. Duration                                 : 1 h 45 min
  535. Bit rate mode                            : Variable
  536. Bit rate                                 : 58 b/s
  537. Frame rate                               : 0.403 FPS
  538. Stream size                              : 44.9 KiB (0%)
  539. Title                                    : Slovenian
  540. Language                                 : Slovenian
  541. Forced                                   : No
  542. Encoded date                             : UTC 2022-08-05 03:41:05
  543. Tagged date                              : UTC 2022-08-05 03:41:08
  544. Text #36
  545. ID                                       : 38
  546. Format                                   : Timed Text
  547. Codec ID                                 : tx3g
  548. Duration                                 : 1 h 45 min
  549. Bit rate mode                            : Variable
  550. Bit rate                                 : 74 b/s
  551. Frame rate                               : 0.449 FPS
  552. Stream size                              : 56.6 KiB (0%)
  553. Title                                    : Spanish-EU
  554. Language                                 : Spanish
  555. Forced                                   : No
  556. Encoded date                             : UTC 2022-08-05 03:41:05
  557. Tagged date                              : UTC 2022-08-05 03:41:08
  558. Text #37
  559. ID                                       : 39
  560. Format                                   : Timed Text
  561. Codec ID                                 : tx3g
  562. Duration                                 : 1 h 45 min
  563. Bit rate mode                            : Variable
  564. Bit rate                                 : 76 b/s
  565. Frame rate                               : 0.454 FPS
  566. Stream size                              : 58.5 KiB (0%)
  567. Title                                    : Spanish-EU
  568. Language                                 : Spanish
  569. Forced                                   : No
  570. Encoded date                             : UTC 2022-08-05 03:41:05
  571. Tagged date                              : UTC 2022-08-05 03:41:08
  572. Text #38
  573. ID                                       : 40
  574. Format                                   : Timed Text
  575. Codec ID                                 : tx3g
  576. Duration                                 : 1 h 45 min
  577. Bit rate mode                            : Variable
  578. Bit rate                                 : 70 b/s
  579. Frame rate                               : 0.425 FPS
  580. Stream size                              : 53.6 KiB (0%)
  581. Title                                    : Swedish
  582. Language                                 : Swedish
  583. Forced                                   : No
  584. Encoded date                             : UTC 2022-08-05 03:41:05
  585. Tagged date                              : UTC 2022-08-05 03:41:08
  586. Text #39
  587. ID                                       : 41
  588. Format                                   : Timed Text
  589. Codec ID                                 : tx3g
  590. Duration                                 : 1 h 45 min
  591. Bit rate mode                            : Variable
  592. Bit rate                                 : 215 b/s
  593. Frame rate                               : 0.446 FPS
  594. Stream size                              : 166 KiB (0%)
  595. Title                                    : Tamil
  596. Language                                 : Tamil
  597. Forced                                   : No
  598. Encoded date                             : UTC 2022-08-05 03:41:06
  599. Tagged date                              : UTC 2022-08-05 03:41:08
  600. Text #40
  601. ID                                       : 42
  602. Format                                   : Timed Text
  603. Codec ID                                 : tx3g
  604. Duration                                 : 1 h 45 min
  605. Bit rate mode                            : Variable
  606. Bit rate                                 : 196 b/s
  607. Frame rate                               : 0.446 FPS
  608. Stream size                              : 151 KiB (0%)
  609. Title                                    : Telugu
  610. Language                                 : Telugu
  611. Forced                                   : No
  612. Encoded date                             : UTC 2022-08-05 03:41:06
  613. Tagged date                              : UTC 2022-08-05 03:41:08
  614. Text #41
  615. ID                                       : 43
  616. Format                                   : Timed Text
  617. Codec ID                                 : tx3g
  618. Duration                                 : 1 h 45 min
  619. Bit rate mode                            : Variable
  620. Bit rate                                 : 153 b/s
  621. Frame rate                               : 0.446 FPS
  622. Stream size                              : 117 KiB (0%)
  623. Title                                    : Thai
  624. Language                                 : Thai
  625. Forced                                   : No
  626. Encoded date                             : UTC 2022-08-05 03:41:06
  627. Tagged date                              : UTC 2022-08-05 03:41:08
  628. Text #42
  629. ID                                       : 44
  630. Format                                   : Timed Text
  631. Codec ID                                 : tx3g
  632. Duration                                 : 1 h 45 min
  633. Bit rate mode                            : Variable
  634. Bit rate                                 : 70 b/s
  635. Frame rate                               : 0.443 FPS
  636. Stream size                              : 54.1 KiB (0%)
  637. Title                                    : Turkish
  638. Language                                 : Turkish
  639. Forced                                   : No
  640. Encoded date                             : UTC 2022-08-05 03:41:06
  641. Tagged date                              : UTC 2022-08-05 03:41:08
  642. Text #43
  643. ID                                       : 45
  644. Format                                   : Timed Text
  645. Codec ID                                 : tx3g
  646. Duration                                 : 1 h 45 min
  647. Bit rate mode                            : Variable
  648. Bit rate                                 : 107 b/s
  649. Frame rate                               : 0.445 FPS
  650. Stream size                              : 82.7 KiB (0%)
  651. Title                                    : Ukrainian
  652. Language                                 : Ukrainian
  653. Forced                                   : No
  654. Encoded date                             : UTC 2022-08-05 03:41:06
  655. Tagged date                              : UTC 2022-08-05 03:41:08
  656. Text #44
  657. ID                                       : 46
  658. Format                                   : Timed Text
  659. Codec ID                                 : tx3g
  660. Duration                                 : 1 h 45 min
  661. Bit rate mode                            : Variable
  662. Bit rate                                 : 89 b/s
  663. Frame rate                               : 0.445 FPS
  664. Stream size                              : 68.7 KiB (0%)
  665. Title                                    : Vietnamese
  666. Language                                 : Vietnamese
  667. Forced                                   : No
  668. Encoded date                             : UTC 2022-08-05 03:41:06
  669. Tagged date                              : UTC 2022-08-05 03:41:08
复制代码




                                       
                                       

                                       
                                       
                                       




Luck.2022.2160p.ATVP.WEB-DL.DDP5.1.Atmos.DV.MP4.x265-DVSUX.torrent (23.7 KB, 下载次数: 0)
回复

使用道具 举报

您需要登录后才可以回帖 登录 | 立即注册

本版积分规则

QQ|Archiver|手机版|小黑屋|蓝光电影网

GMT+8, 2022-8-8 18:48 , Processed in 0.056273 second(s), 28 queries .

Powered by Discuz! X3.4

Copyright © 2001-2020, Tencent Cloud.

快速回复 返回顶部 返回列表