找回密码
 立即注册

QQ登录

只需一步,快速开始

查看: 11|回复: 0

[其他] 铁血战士:猎物 Prey.2022.2160p.WEB-DL.x265.8bit.SDR.DDP5.1.Atmos-CM 14.25GB

[复制链接]

0

精华

0

好友

2

听众

新手上路

Rank: 2

蓝光币
5
发表于 前天 07:58 | 显示全部楼层 |阅读模式


◎标  题 铁血战士:猎物
◎译  名 铁血战士5 / 终极战士:兽猎者(台) / 铁血战士:骷髅 / Skulls / 铁血战士:狩猎追击(港)
◎片  名 Prey
◎年  代 2022
◎产  地 美国
◎类  别 动作 / 科幻 / 恐怖
◎语  言 英语
◎上映日期 2022-08-05(美国网络)
◎IMDb评分 6.4/10 (877人评价)
◎IMDb链接 https://www.imdb.com/title/tt11866324/
◎豆瓣链接 https://movie.douban.com/subject/35262994/
◎导  演 丹·特拉亨伯格 Dan Trachtenberg
◎演  员 安伯·明迪桑德 Amber Midthunder
       戴恩·迪利格罗 Dane DiLiegro
       斯蒂芬·马蒂亚斯 Stefany Mathias
       斯托米·基普 Stormee Kipp
       达寇塔·比弗 Dakota Beavers
       杰夫·卡特 Jeff Cutter
◎简  介

  Prey is coming to Hulu August 5                                       
                                    “Prey,” an all-new action-thriller from 20th Century Studios directed by Dan Trachtenberg (“The Boys,” “10 Cloverfield Lane”) and the newest entry in the “Predator” franchise, will stream August 5, 2022, exclusively on Hulu.                                       
                                                                           
                                    Set in the Comanche Nation 300 years ago, “Prey” is the story of a young woman, Naru, a fierce and highly skilled warrior....
  1. Video
  2. ID                                       : 1
  3. Format                                   : HEVC
  4. Format/Info                              : High Efficiency Video Coding
  5. Format profile                           : [email protected]@High
  6. Codec ID                                 : V_MPEGH/ISO/HEVC
  7. Duration                                 : 1 h 39 min
  8. Bit rate                                 : 19.7 Mb/s
  9. Width                                    : 3 840 pixels
  10. Height                                   : 2 160 pixels
  11. Display aspect ratio                     : 16:9
  12. Frame rate mode                          : Constant
  13. Frame rate                               : 24.000 FPS
  14. Color space                              : YUV
  15. Chroma subsampling                       : 4:2:0
  16. Bit depth                                : 8 bits
  17. Bits/(Pixel*Frame)                       : 0.099
  18. Stream size                              : 13.7 GiB (96%)
  19. Writing library                          : x265 3.5:[Linux][GCC 9.4.0][64 bit] 8bit+10bit+12bit
  20. Encoding settings                        : cpuid=1111039 / frame-threads=1 / numa-pools=16 / wpp / no-pmode / no-pme / no-psnr / no-ssim / log-level=2 / input-csp=1 / input-res=3840x2160 / interlace=0 / total-frames=0 / level-idc=50 / high-tier=1 / uhd-bd=0 / ref=2 / no-allow-non-conformance / repeat-headers / annexb / no-aud / no-hrd / info / hash=0 / no-temporal-layers / no-open-gop / min-keyint=48 / keyint=48 / gop-lookahead=0 / bframes=4 / b-adapt=1 / b-pyramid / bframe-bias=0 / rc-lookahead=48 / lookahead-slices=8 / scenecut=0 / hist-scenecut=0 / radl=0 / no-splice / no-intra-refresh / ctu=32 / min-cu-size=8 / no-rect / no-amp / max-tu-size=16 / tu-inter-depth=2 / tu-intra-depth=2 / limit-tu=0 / rdoq-level=1 / dynamic-rd=0.00 / no-ssim-rd / signhide / no-tskip / nr-intra=0 / nr-inter=0 / no-constrained-intra / no-strong-intra-smoothing / max-merge=3 / limit-refs=1 / no-limit-modes / me=1 / subme=2 / merange=44 / temporal-mvp / no-frame-dup / no-hme / weightp / no-weightb / no-analyze-src-pics / deblock=0:0 / no-sao / no-sao-non-deblock / rd=4 / selective-sao=0 / early-skip / rskip / no-fast-intra / no-tskip-fast / no-cu-lossless / b-intra / no-splitrd-skip / rdpenalty=1 / psy-rd=1.60 / psy-rdoq=5.00 / no-rd-refine / no-lossless / cbqpoffs=0 / crqpoffs=0 / rc=abr / bitrate=20000 / qcomp=0.75 / qpstep=4 / stats-write=0 / stats-read=0 / vbv-maxrate=24000 / vbv-bufsize=40000 / vbv-init=0.9 / ipratio=1.40 / pbratio=1.30 / aq-mode=3 / aq-strength=1.00 / no-cutree / zone-count=0 / no-strict-cbr / qg-size=32 / no-rc-grain / qpmax=69 / qpmin=0 / no-const-vbv / sar=1 / overscan=0 / videoformat=5 / range=0 / colorprim=1 / transfer=1 / colormatrix=1 / chromaloc=0 / display-window=0 / cll=0,0 / min-luma=0 / max-luma=255 / log2-max-poc-lsb=8 / vui-timing-info / vui-hrd-info / slices=1 / no-opt-qp-pps / no-opt-ref-list-length-pps / no-multi-pass-opt-rps / scenecut-bias=0.00 / hist-threshold=0.01 / no-opt-cu-delta-qp / no-aq-motion / no-hdr10 / no-hdr10-opt / no-dhdr10-opt / no-idr-recovery-sei / analysis-reuse-level=0 / analysis-save-reuse-level=0 / analysis-load-reuse-level=0 / scale-factor=0 / refine-intra=0 / refine-inter=0 / refine-mv=1 / refine-ctu-distortion=0 / no-limit-sao / ctu-info=0 / no-lowpass-dct / refine-analysis-type=0 / copy-pic=1 / max-ausize-factor=1.0 / no-dynamic-refine / no-single-sei / no-hevc-aq / no-svt / no-field / qp-adaptation-range=1.00 / no-scenecut-aware-qpconformance-window-offsets / right=0 / bottom=0
  21. Language                                 : English
  22. Default                                  : Yes
  23. Forced                                   : No
  24. Color range                              : Limited
  25. Color primaries                          : BT.709
  26. Transfer characteristics                 : BT.709
  27. Matrix coefficients                      : BT.709
  28. Audio
  29. ID                                       : 2
  30. Format                                   : E-AC-3 JOC
  31. Format/Info                              : Enhanced AC-3 with Joint Object Coding
  32. Commercial name                          : Dolby Digital Plus with Dolby Atmos
  33. Codec ID                                 : A_EAC3
  34. Duration                                 : 1 h 39 min
  35. Bit rate mode                            : Constant
  36. Bit rate                                 : 768 kb/s
  37. Channel(s)                               : 6 channels
  38. Channel layout                           : L R C LFE Ls Rs
  39. Sampling rate                            : 48.0 kHz
  40. Frame rate                               : 31.250 FPS (1536 SPF)
  41. Compression mode                         : Lossy
  42. Stream size                              : 547 MiB (4%)
  43. Language                                 : English
  44. Service kind                             : Complete Main
  45. Default                                  : Yes
  46. Forced                                   : No
  47. Complexity index                         : 16
  48. Number of dynamic objects                : 15
  49. Bed channel count                        : 1 channel
  50. Bed channel configuration                : LFE
  51. Text #1
  52. ID                                       : 3
  53. Format                                   : UTF-8
  54. Codec ID                                 : S_TEXT/UTF8
  55. Codec ID/Info                            : UTF-8 Plain Text
  56. Duration                                 : 1 h 29 min
  57. Bit rate                                 : 29 b/s
  58. Frame rate                               : 0.158 FPS
  59. Count of elements                        : 852
  60. Stream size                              : 19.5 KiB (0%)
  61. Title                                    : SDH
  62. Language                                 : English
  63. Default                                  : No
  64. Forced                                   : No
  65. Text #2
  66. ID                                       : 4
  67. Format                                   : UTF-8
  68. Codec ID                                 : S_TEXT/UTF8
  69. Codec ID/Info                            : UTF-8 Plain Text
  70. Duration                                 : 1 h 28 min
  71. Bit rate                                 : 15 b/s
  72. Frame rate                               : 0.072 FPS
  73. Count of elements                        : 381
  74. Stream size                              : 9.78 KiB (0%)
  75. Language                                 : English
  76. Default                                  : No
  77. Forced                                   : No
  78. Text #3
  79. ID                                       : 5
  80. Format                                   : UTF-8
  81. Codec ID                                 : S_TEXT/UTF8
  82. Codec ID/Info                            : UTF-8 Plain Text
  83. Duration                                 : 1 h 38 min
  84. Bit rate                                 : 10 b/s
  85. Frame rate                               : 0.048 FPS
  86. Count of elements                        : 287
  87. Stream size                              : 7.78 KiB (0%)
  88. Language                                 : Czech
  89. Default                                  : No
  90. Forced                                   : No
  91. Text #4
  92. ID                                       : 6
  93. Format                                   : UTF-8
  94. Codec ID                                 : S_TEXT/UTF8
  95. Codec ID/Info                            : UTF-8 Plain Text
  96. Duration                                 : 1 h 38 min
  97. Bit rate                                 : 10 b/s
  98. Frame rate                               : 0.050 FPS
  99. Count of elements                        : 296
  100. Stream size                              : 7.70 KiB (0%)
  101. Language                                 : Danish
  102. Default                                  : No
  103. Forced                                   : No
  104. Text #5
  105. ID                                       : 7
  106. Format                                   : UTF-8
  107. Codec ID                                 : S_TEXT/UTF8
  108. Codec ID/Info                            : UTF-8 Plain Text
  109. Duration                                 : 1 h 38 min
  110. Bit rate                                 : 11 b/s
  111. Frame rate                               : 0.048 FPS
  112. Count of elements                        : 286
  113. Stream size                              : 8.25 KiB (0%)
  114. Language                                 : German
  115. Default                                  : No
  116. Forced                                   : No
  117. Text #6
  118. ID                                       : 8
  119. Format                                   : UTF-8
  120. Codec ID                                 : S_TEXT/UTF8
  121. Codec ID/Info                            : UTF-8 Plain Text
  122. Duration                                 : 1 h 38 min
  123. Bit rate                                 : 19 b/s
  124. Frame rate                               : 0.050 FPS
  125. Count of elements                        : 299
  126. Stream size                              : 14.1 KiB (0%)
  127. Language                                 : Greek
  128. Default                                  : No
  129. Forced                                   : No
  130. Text #7
  131. ID                                       : 9
  132. Format                                   : UTF-8
  133. Codec ID                                 : S_TEXT/UTF8
  134. Codec ID/Info                            : UTF-8 Plain Text
  135. Duration                                 : 1 h 38 min
  136. Bit rate                                 : 11 b/s
  137. Frame rate                               : 0.050 FPS
  138. Count of elements                        : 298
  139. Stream size                              : 8.22 KiB (0%)
  140. Language                                 : Spanish
  141. Default                                  : No
  142. Forced                                   : No
  143. Text #8
  144. ID                                       : 10
  145. Format                                   : UTF-8
  146. Codec ID                                 : S_TEXT/UTF8
  147. Codec ID/Info                            : UTF-8 Plain Text
  148. Duration                                 : 1 h 38 min
  149. Bit rate                                 : 10 b/s
  150. Frame rate                               : 0.050 FPS
  151. Count of elements                        : 297
  152. Stream size                              : 7.84 KiB (0%)
  153. Title                                    : Latin American
  154. Language                                 : Spanish
  155. Default                                  : No
  156. Forced                                   : No
  157. Text #9
  158. ID                                       : 11
  159. Format                                   : UTF-8
  160. Codec ID                                 : S_TEXT/UTF8
  161. Codec ID/Info                            : UTF-8 Plain Text
  162. Duration                                 : 1 h 38 min
  163. Bit rate                                 : 11 b/s
  164. Frame rate                               : 0.049 FPS
  165. Count of elements                        : 293
  166. Stream size                              : 8.38 KiB (0%)
  167. Language                                 : Finnish
  168. Default                                  : No
  169. Forced                                   : No
  170. Text #10
  171. ID                                       : 12
  172. Format                                   : UTF-8
  173. Codec ID                                 : S_TEXT/UTF8
  174. Codec ID/Info                            : UTF-8 Plain Text
  175. Duration                                 : 1 h 38 min
  176. Bit rate                                 : 11 b/s
  177. Frame rate                               : 0.049 FPS
  178. Count of elements                        : 290
  179. Stream size                              : 8.25 KiB (0%)
  180. Language                                 : French
  181. Default                                  : No
  182. Forced                                   : No
  183. Text #11
  184. ID                                       : 13
  185. Format                                   : UTF-8
  186. Codec ID                                 : S_TEXT/UTF8
  187. Codec ID/Info                            : UTF-8 Plain Text
  188. Duration                                 : 1 h 38 min
  189. Bit rate                                 : 10 b/s
  190. Frame rate                               : 0.050 FPS
  191. Count of elements                        : 297
  192. Stream size                              : 7.93 KiB (0%)
  193. Language                                 : Hungarian
  194. Default                                  : No
  195. Forced                                   : No
  196. Text #12
  197. ID                                       : 14
  198. Format                                   : UTF-8
  199. Codec ID                                 : S_TEXT/UTF8
  200. Codec ID/Info                            : UTF-8 Plain Text
  201. Duration                                 : 1 h 38 min
  202. Bit rate                                 : 10 b/s
  203. Frame rate                               : 0.049 FPS
  204. Count of elements                        : 292
  205. Stream size                              : 7.42 KiB (0%)
  206. Language                                 : Italian
  207. Default                                  : No
  208. Forced                                   : No
  209. Text #13
  210. ID                                       : 15
  211. Format                                   : UTF-8
  212. Codec ID                                 : S_TEXT/UTF8
  213. Codec ID/Info                            : UTF-8 Plain Text
  214. Duration                                 : 1 h 38 min
  215. Bit rate                                 : 12 b/s
  216. Frame rate                               : 0.061 FPS
  217. Count of elements                        : 364
  218. Stream size                              : 9.31 KiB (0%)
  219. Language                                 : Japanese
  220. Default                                  : No
  221. Forced                                   : No
  222. Text #14
  223. ID                                       : 16
  224. Format                                   : UTF-8
  225. Codec ID                                 : S_TEXT/UTF8
  226. Codec ID/Info                            : UTF-8 Plain Text
  227. Duration                                 : 1 h 38 min
  228. Bit rate                                 : 11 b/s
  229. Frame rate                               : 0.050 FPS
  230. Count of elements                        : 299
  231. Stream size                              : 8.63 KiB (0%)
  232. Language                                 : Korean
  233. Default                                  : No
  234. Forced                                   : No
  235. Text #15
  236. ID                                       : 17
  237. Format                                   : UTF-8
  238. Codec ID                                 : S_TEXT/UTF8
  239. Codec ID/Info                            : UTF-8 Plain Text
  240. Duration                                 : 1 h 38 min
  241. Bit rate                                 : 11 b/s
  242. Frame rate                               : 0.045 FPS
  243. Count of elements                        : 267
  244. Stream size                              : 8.13 KiB (0%)
  245. Language                                 : Dutch
  246. Default                                  : No
  247. Forced                                   : No
  248. Text #16
  249. ID                                       : 18
  250. Format                                   : UTF-8
  251. Codec ID                                 : S_TEXT/UTF8
  252. Codec ID/Info                            : UTF-8 Plain Text
  253. Duration                                 : 1 h 38 min
  254. Bit rate                                 : 11 b/s
  255. Frame rate                               : 0.038 FPS
  256. Count of elements                        : 227
  257. Stream size                              : 8.23 KiB (0%)
  258. Language                                 : Norwegian
  259. Default                                  : No
  260. Forced                                   : No
  261. Text #17
  262. ID                                       : 19
  263. Format                                   : UTF-8
  264. Codec ID                                 : S_TEXT/UTF8
  265. Codec ID/Info                            : UTF-8 Plain Text
  266. Duration                                 : 1 h 38 min
  267. Bit rate                                 : 10 b/s
  268. Frame rate                               : 0.049 FPS
  269. Count of elements                        : 290
  270. Stream size                              : 7.81 KiB (0%)
  271. Language                                 : Polish
  272. Default                                  : No
  273. Forced                                   : No
  274. Text #18
  275. ID                                       : 20
  276. Format                                   : UTF-8
  277. Codec ID                                 : S_TEXT/UTF8
  278. Codec ID/Info                            : UTF-8 Plain Text
  279. Duration                                 : 1 h 38 min
  280. Bit rate                                 : 11 b/s
  281. Frame rate                               : 0.050 FPS
  282. Count of elements                        : 296
  283. Stream size                              : 8.29 KiB (0%)
  284. Language                                 : Portuguese
  285. Default                                  : No
  286. Forced                                   : No
  287. Text #19
  288. ID                                       : 21
  289. Format                                   : UTF-8
  290. Codec ID                                 : S_TEXT/UTF8
  291. Codec ID/Info                            : UTF-8 Plain Text
  292. Duration                                 : 1 h 38 min
  293. Bit rate                                 : 11 b/s
  294. Frame rate                               : 0.050 FPS
  295. Count of elements                        : 295
  296. Stream size                              : 8.15 KiB (0%)
  297. Title                                    : Brazilian
  298. Language                                 : Portuguese
  299. Default                                  : No
  300. Forced                                   : No
  301. Text #20
  302. ID                                       : 22
  303. Format                                   : UTF-8
  304. Codec ID                                 : S_TEXT/UTF8
  305. Codec ID/Info                            : UTF-8 Plain Text
  306. Duration                                 : 1 h 38 min
  307. Bit rate                                 : 11 b/s
  308. Frame rate                               : 0.044 FPS
  309. Count of elements                        : 261
  310. Stream size                              : 8.03 KiB (0%)
  311. Language                                 : Romanian
  312. Default                                  : No
  313. Forced                                   : No
  314. Text #21
  315. ID                                       : 23
  316. Format                                   : UTF-8
  317. Codec ID                                 : S_TEXT/UTF8
  318. Codec ID/Info                            : UTF-8 Plain Text
  319. Duration                                 : 1 h 38 min
  320. Bit rate                                 : 10 b/s
  321. Frame rate                               : 0.050 FPS
  322. Count of elements                        : 298
  323. Stream size                              : 7.84 KiB (0%)
  324. Language                                 : Slovak
  325. Default                                  : No
  326. Forced                                   : No
  327. Text #22
  328. ID                                       : 24
  329. Format                                   : UTF-8
  330. Codec ID                                 : S_TEXT/UTF8
  331. Codec ID/Info                            : UTF-8 Plain Text
  332. Duration                                 : 1 h 38 min
  333. Bit rate                                 : 10 b/s
  334. Frame rate                               : 0.050 FPS
  335. Count of elements                        : 295
  336. Stream size                              : 7.71 KiB (0%)
  337. Language                                 : Swedish
  338. Default                                  : No
  339. Forced                                   : No
  340. Text #23
  341. ID                                       : 25
  342. Format                                   : UTF-8
  343. Codec ID                                 : S_TEXT/UTF8
  344. Codec ID/Info                            : UTF-8 Plain Text
  345. Duration                                 : 1 h 38 min
  346. Bit rate                                 : 11 b/s
  347. Frame rate                               : 0.050 FPS
  348. Count of elements                        : 296
  349. Stream size                              : 8.24 KiB (0%)
  350. Language                                 : Turkish
  351. Default                                  : No
  352. Forced                                   : No
  353. Text #24
  354. ID                                       : 26
  355. Format                                   : UTF-8
  356. Codec ID                                 : S_TEXT/UTF8
  357. Codec ID/Info                            : UTF-8 Plain Text
  358. Duration                                 : 1 h 38 min
  359. Bit rate                                 : 10 b/s
  360. Frame rate                               : 0.050 FPS
  361. Count of elements                        : 298
  362. Stream size                              : 7.91 KiB (0%)
  363. Title                                    : Hong Kong
  364. Language                                 : Chinese
  365. Default                                  : No
  366. Forced                                   : No
  367. Text #25
  368. ID                                       : 27
  369. Format                                   : UTF-8
  370. Codec ID                                 : S_TEXT/UTF8
  371. Codec ID/Info                            : UTF-8 Plain Text
  372. Duration                                 : 1 h 38 min
  373. Bit rate                                 : 11 b/s
  374. Frame rate                               : 0.050 FPS
  375. Count of elements                        : 299
  376. Stream size                              : 8.32 KiB (0%)
  377. Title                                    : Simplified
  378. Language                                 : Chinese
  379. Default                                  : No
  380. Forced                                   : No
  381. Text #26
  382. ID                                       : 28
  383. Format                                   : UTF-8
  384. Codec ID                                 : S_TEXT/UTF8
  385. Codec ID/Info                            : UTF-8 Plain Text
  386. Duration                                 : 1 h 38 min
  387. Bit rate                                 : 10 b/s
  388. Frame rate                               : 0.050 FPS
  389. Count of elements                        : 299
  390. Stream size                              : 7.92 KiB (0%)
  391. Title                                    : Traditional
  392. Language                                 : Chinese
  393. Default                                  : No
  394. Forced                                   : No
  395. Menu
  396. 01:32:13.000                             : en:Credits
复制代码





                                       
                                       

                                       
                                       
                                       




Prey.2022.2160p.WEB-DL.x265.8bit.SDR.DDP5.1.Atmos-CM.torrent (18.43 KB, 下载次数: 0)
回复

使用道具 举报

您需要登录后才可以回帖 登录 | 立即注册

本版积分规则

QQ|Archiver|手机版|小黑屋|蓝光电影网

GMT+8, 2022-8-8 17:41 , Processed in 0.057254 second(s), 28 queries .

Powered by Discuz! X3.4

Copyright © 2001-2020, Tencent Cloud.

快速回复 返回顶部 返回列表