找回密码
 立即注册

QQ登录

只需一步,快速开始

查看: 12|回复: 0

[其他] 铁血战士:猎物 Prey.2022.DUBBED.COMANCHE.2160p.DSNP.WEB-DL.DDP5.1.Atmos.DV.MKV.x265-DVSUX 11.99GB

[复制链接]

0

精华

0

好友

2

听众

新手上路

Rank: 2

蓝光币
5
发表于 前天 07:57 | 显示全部楼层 |阅读模式


◎标  题 铁血战士:猎物
◎译  名 铁血战士5 / 终极战士:兽猎者(台) / 铁血战士:骷髅 / Skulls / 铁血战士:狩猎追击(港)
◎片  名 Prey
◎年  代 2022
◎产  地 美国
◎类  别 动作 / 科幻 / 恐怖
◎语  言 英语
◎上映日期 2022-08-05(美国网络)
◎IMDb评分 6.4/10 (877人评价)
◎IMDb链接 https://www.imdb.com/title/tt11866324/
◎豆瓣链接 https://movie.douban.com/subject/35262994/
◎导  演 丹·特拉亨伯格 Dan Trachtenberg
◎演  员 安伯·明迪桑德 Amber Midthunder
       戴恩·迪利格罗 Dane DiLiegro
       斯蒂芬·马蒂亚斯 Stefany Mathias
       斯托米·基普 Stormee Kipp
       达寇塔·比弗 Dakota Beavers
       杰夫·卡特 Jeff Cutter
◎简  介

  Prey is coming to Hulu August 5                                       
                                    “Prey,” an all-new action-thriller from 20th Century Studios directed by Dan Trachtenberg (“The Boys,” “10 Cloverfield Lane”) and the newest entry in the “Predator” franchise, will stream August 5, 2022, exclusively on Hulu.                                       
                                                                           
                                    Set in the Comanche Nation 300 years ago, “Prey” is the story of a young woman, Naru, a fierce and highly skilled warrior....
  1. Video
  2. ID                                       : 1
  3. Format                                   : HEVC
  4. Format/Info                              : High Efficiency Video Coding
  5. Format profile                           : Main [email protected]@High
  6. HDR format                               : Dolby Vision, Version 1.0, dvhe.05.06, BL+RPU
  7. Codec ID                                 : V_MPEGH/ISO/HEVC
  8. Duration                                 : 1 h 39 min
  9. Bit rate                                 : 16.5 Mb/s
  10. Width                                    : 3 840 pixels
  11. Height                                   : 2 160 pixels
  12. Display aspect ratio                     : 16:9
  13. Frame rate mode                          : Constant
  14. Frame rate                               : 24.000 FPS
  15. Color space                              : YUV
  16. Chroma subsampling                       : 4:2:0
  17. Bit depth                                : 10 bits
  18. Bits/(Pixel*Frame)                       : 0.083
  19. Stream size                              : 11.5 GiB (96%)
  20. Language                                 : English
  21. Default                                  : Yes
  22. Forced                                   : No
  23. Color range                              : Full
  24. Audio
  25. ID                                       : 2
  26. Format                                   : E-AC-3 JOC
  27. Format/Info                              : Enhanced AC-3 with Joint Object Coding
  28. Commercial name                          : Dolby Digital Plus with Dolby Atmos
  29. Codec ID                                 : A_EAC3
  30. Duration                                 : 1 h 39 min
  31. Bit rate mode                            : Constant
  32. Bit rate                                 : 768 kb/s
  33. Channel(s)                               : 6 channels
  34. Channel layout                           : L R C LFE Ls Rs
  35. Sampling rate                            : 48.0 kHz
  36. Frame rate                               : 31.250 FPS (1536 SPF)
  37. Compression mode                         : Lossy
  38. Stream size                              : 547 MiB (4%)
  39. Language                                 : English
  40. Service kind                             : Complete Main
  41. Default                                  : Yes
  42. Forced                                   : No
  43. Complexity index                         : 16
  44. Number of dynamic objects                : 15
  45. Bed channel count                        : 1 channel
  46. Bed channel configuration                : LFE
  47. Text #1
  48. ID                                       : 3
  49. Format                                   : UTF-8
  50. Codec ID                                 : S_TEXT/UTF8
  51. Codec ID/Info                            : UTF-8 Plain Text
  52. Duration                                 : 1 h 26 min
  53. Bit rate                                 : 0 b/s
  54. Frame rate                               : 0.001 FPS
  55. Count of elements                        : 4
  56. Stream size                              : 103 Bytes (0%)
  57. Title                                    : Forced
  58. Language                                 : English
  59. Default                                  : No
  60. Forced                                   : Yes
  61. Text #2
  62. ID                                       : 4
  63. Format                                   : UTF-8
  64. Codec ID                                 : S_TEXT/UTF8
  65. Codec ID/Info                            : UTF-8 Plain Text
  66. Duration                                 : 1 h 28 min
  67. Bit rate                                 : 14 b/s
  68. Frame rate                               : 0.072 FPS
  69. Count of elements                        : 381
  70. Stream size                              : 9.28 KiB (0%)
  71. Language                                 : English
  72. Default                                  : No
  73. Forced                                   : No
  74. Text #3
  75. ID                                       : 5
  76. Format                                   : UTF-8
  77. Codec ID                                 : S_TEXT/UTF8
  78. Codec ID/Info                            : UTF-8 Plain Text
  79. Duration                                 : 1 h 29 min
  80. Bit rate                                 : 27 b/s
  81. Frame rate                               : 0.158 FPS
  82. Count of elements                        : 849
  83. Stream size                              : 18.4 KiB (0%)
  84. Title                                    : SDH
  85. Language                                 : English
  86. Default                                  : No
  87. Forced                                   : No
  88. Text #4
  89. ID                                       : 6
  90. Format                                   : UTF-8
  91. Codec ID                                 : S_TEXT/UTF8
  92. Codec ID/Info                            : UTF-8 Plain Text
  93. Duration                                 : 1 h 38 min
  94. Bit rate                                 : 10 b/s
  95. Frame rate                               : 0.048 FPS
  96. Count of elements                        : 287
  97. Stream size                              : 7.77 KiB (0%)
  98. Language                                 : Czech
  99. Default                                  : No
  100. Forced                                   : No
  101. Text #5
  102. ID                                       : 7
  103. Format                                   : UTF-8
  104. Codec ID                                 : S_TEXT/UTF8
  105. Codec ID/Info                            : UTF-8 Plain Text
  106. Duration                                 : 1 h 38 min
  107. Bit rate                                 : 10 b/s
  108. Frame rate                               : 0.050 FPS
  109. Count of elements                        : 296
  110. Stream size                              : 7.69 KiB (0%)
  111. Language                                 : Danish
  112. Default                                  : No
  113. Forced                                   : No
  114. Text #6
  115. ID                                       : 8
  116. Format                                   : UTF-8
  117. Codec ID                                 : S_TEXT/UTF8
  118. Codec ID/Info                            : UTF-8 Plain Text
  119. Duration                                 : 1 h 38 min
  120. Bit rate                                 : 11 b/s
  121. Frame rate                               : 0.048 FPS
  122. Count of elements                        : 286
  123. Stream size                              : 8.25 KiB (0%)
  124. Language                                 : German
  125. Default                                  : No
  126. Forced                                   : No
  127. Text #7
  128. ID                                       : 9
  129. Format                                   : UTF-8
  130. Codec ID                                 : S_TEXT/UTF8
  131. Codec ID/Info                            : UTF-8 Plain Text
  132. Duration                                 : 1 h 38 min
  133. Bit rate                                 : 19 b/s
  134. Frame rate                               : 0.050 FPS
  135. Count of elements                        : 299
  136. Stream size                              : 14.1 KiB (0%)
  137. Language                                 : Greek
  138. Default                                  : No
  139. Forced                                   : No
  140. Text #8
  141. ID                                       : 10
  142. Format                                   : UTF-8
  143. Codec ID                                 : S_TEXT/UTF8
  144. Codec ID/Info                            : UTF-8 Plain Text
  145. Duration                                 : 1 h 38 min
  146. Bit rate                                 : 10 b/s
  147. Frame rate                               : 0.050 FPS
  148. Count of elements                        : 297
  149. Stream size                              : 7.83 KiB (0%)
  150. Title                                    : Latin American
  151. Language                                 : Spanish
  152. Default                                  : No
  153. Forced                                   : No
  154. Text #9
  155. ID                                       : 11
  156. Format                                   : UTF-8
  157. Codec ID                                 : S_TEXT/UTF8
  158. Codec ID/Info                            : UTF-8 Plain Text
  159. Duration                                 : 1 h 38 min
  160. Bit rate                                 : 11 b/s
  161. Frame rate                               : 0.050 FPS
  162. Count of elements                        : 298
  163. Stream size                              : 8.21 KiB (0%)
  164. Language                                 : Spanish
  165. Default                                  : No
  166. Forced                                   : No
  167. Text #10
  168. ID                                       : 12
  169. Format                                   : UTF-8
  170. Codec ID                                 : S_TEXT/UTF8
  171. Codec ID/Info                            : UTF-8 Plain Text
  172. Duration                                 : 1 h 38 min
  173. Bit rate                                 : 11 b/s
  174. Frame rate                               : 0.049 FPS
  175. Count of elements                        : 293
  176. Stream size                              : 8.37 KiB (0%)
  177. Language                                 : Finnish
  178. Default                                  : No
  179. Forced                                   : No
  180. Text #11
  181. ID                                       : 13
  182. Format                                   : UTF-8
  183. Codec ID                                 : S_TEXT/UTF8
  184. Codec ID/Info                            : UTF-8 Plain Text
  185. Duration                                 : 1 h 38 min
  186. Bit rate                                 : 11 b/s
  187. Frame rate                               : 0.049 FPS
  188. Count of elements                        : 290
  189. Stream size                              : 8.24 KiB (0%)
  190. Language                                 : French
  191. Default                                  : No
  192. Forced                                   : No
  193. Text #12
  194. ID                                       : 14
  195. Format                                   : UTF-8
  196. Codec ID                                 : S_TEXT/UTF8
  197. Codec ID/Info                            : UTF-8 Plain Text
  198. Duration                                 : 1 h 38 min
  199. Bit rate                                 : 10 b/s
  200. Frame rate                               : 0.050 FPS
  201. Count of elements                        : 297
  202. Stream size                              : 7.92 KiB (0%)
  203. Language                                 : Hungarian
  204. Default                                  : No
  205. Forced                                   : No
  206. Text #13
  207. ID                                       : 15
  208. Format                                   : UTF-8
  209. Codec ID                                 : S_TEXT/UTF8
  210. Codec ID/Info                            : UTF-8 Plain Text
  211. Duration                                 : 1 h 38 min
  212. Bit rate                                 : 10 b/s
  213. Frame rate                               : 0.049 FPS
  214. Count of elements                        : 292
  215. Stream size                              : 7.41 KiB (0%)
  216. Language                                 : Italian
  217. Default                                  : No
  218. Forced                                   : No
  219. Text #14
  220. ID                                       : 16
  221. Format                                   : UTF-8
  222. Codec ID                                 : S_TEXT/UTF8
  223. Codec ID/Info                            : UTF-8 Plain Text
  224. Duration                                 : 1 h 38 min
  225. Bit rate                                 : 12 b/s
  226. Frame rate                               : 0.061 FPS
  227. Count of elements                        : 364
  228. Stream size                              : 9.29 KiB (0%)
  229. Language                                 : Japanese
  230. Default                                  : No
  231. Forced                                   : No
  232. Text #15
  233. ID                                       : 17
  234. Format                                   : UTF-8
  235. Codec ID                                 : S_TEXT/UTF8
  236. Codec ID/Info                            : UTF-8 Plain Text
  237. Duration                                 : 1 h 38 min
  238. Bit rate                                 : 11 b/s
  239. Frame rate                               : 0.050 FPS
  240. Count of elements                        : 299
  241. Stream size                              : 8.63 KiB (0%)
  242. Language                                 : Korean
  243. Default                                  : No
  244. Forced                                   : No
  245. Text #16
  246. ID                                       : 18
  247. Format                                   : UTF-8
  248. Codec ID                                 : S_TEXT/UTF8
  249. Codec ID/Info                            : UTF-8 Plain Text
  250. Duration                                 : 1 h 38 min
  251. Bit rate                                 : 11 b/s
  252. Frame rate                               : 0.045 FPS
  253. Count of elements                        : 267
  254. Stream size                              : 8.13 KiB (0%)
  255. Language                                 : Dutch
  256. Default                                  : No
  257. Forced                                   : No
  258. Text #17
  259. ID                                       : 19
  260. Format                                   : UTF-8
  261. Codec ID                                 : S_TEXT/UTF8
  262. Codec ID/Info                            : UTF-8 Plain Text
  263. Duration                                 : 1 h 38 min
  264. Bit rate                                 : 11 b/s
  265. Frame rate                               : 0.038 FPS
  266. Count of elements                        : 227
  267. Stream size                              : 8.23 KiB (0%)
  268. Language                                 : Norwegian
  269. Default                                  : No
  270. Forced                                   : No
  271. Text #18
  272. ID                                       : 20
  273. Format                                   : UTF-8
  274. Codec ID                                 : S_TEXT/UTF8
  275. Codec ID/Info                            : UTF-8 Plain Text
  276. Duration                                 : 1 h 38 min
  277. Bit rate                                 : 10 b/s
  278. Frame rate                               : 0.049 FPS
  279. Count of elements                        : 290
  280. Stream size                              : 7.81 KiB (0%)
  281. Language                                 : Polish
  282. Default                                  : No
  283. Forced                                   : No
  284. Text #19
  285. ID                                       : 21
  286. Format                                   : UTF-8
  287. Codec ID                                 : S_TEXT/UTF8
  288. Codec ID/Info                            : UTF-8 Plain Text
  289. Duration                                 : 1 h 38 min
  290. Bit rate                                 : 11 b/s
  291. Frame rate                               : 0.050 FPS
  292. Count of elements                        : 295
  293. Stream size                              : 8.14 KiB (0%)
  294. Title                                    : Brazilian
  295. Language                                 : Portuguese
  296. Default                                  : No
  297. Forced                                   : No
  298. Text #20
  299. ID                                       : 22
  300. Format                                   : UTF-8
  301. Codec ID                                 : S_TEXT/UTF8
  302. Codec ID/Info                            : UTF-8 Plain Text
  303. Duration                                 : 1 h 38 min
  304. Bit rate                                 : 11 b/s
  305. Frame rate                               : 0.050 FPS
  306. Count of elements                        : 296
  307. Stream size                              : 8.29 KiB (0%)
  308. Language                                 : Portuguese
  309. Default                                  : No
  310. Forced                                   : No
  311. Text #21
  312. ID                                       : 23
  313. Format                                   : UTF-8
  314. Codec ID                                 : S_TEXT/UTF8
  315. Codec ID/Info                            : UTF-8 Plain Text
  316. Duration                                 : 1 h 38 min
  317. Bit rate                                 : 11 b/s
  318. Frame rate                               : 0.044 FPS
  319. Count of elements                        : 261
  320. Stream size                              : 8.02 KiB (0%)
  321. Language                                 : Romanian
  322. Default                                  : No
  323. Forced                                   : No
  324. Text #22
  325. ID                                       : 24
  326. Format                                   : UTF-8
  327. Codec ID                                 : S_TEXT/UTF8
  328. Codec ID/Info                            : UTF-8 Plain Text
  329. Duration                                 : 1 h 38 min
  330. Bit rate                                 : 10 b/s
  331. Frame rate                               : 0.050 FPS
  332. Count of elements                        : 298
  333. Stream size                              : 7.83 KiB (0%)
  334. Language                                 : Slovak
  335. Default                                  : No
  336. Forced                                   : No
  337. Text #23
  338. ID                                       : 25
  339. Format                                   : UTF-8
  340. Codec ID                                 : S_TEXT/UTF8
  341. Codec ID/Info                            : UTF-8 Plain Text
  342. Duration                                 : 1 h 38 min
  343. Bit rate                                 : 10 b/s
  344. Frame rate                               : 0.050 FPS
  345. Count of elements                        : 295
  346. Stream size                              : 7.71 KiB (0%)
  347. Language                                 : Swedish
  348. Default                                  : No
  349. Forced                                   : No
  350. Text #24
  351. ID                                       : 26
  352. Format                                   : UTF-8
  353. Codec ID                                 : S_TEXT/UTF8
  354. Codec ID/Info                            : UTF-8 Plain Text
  355. Duration                                 : 1 h 38 min
  356. Bit rate                                 : 11 b/s
  357. Frame rate                               : 0.050 FPS
  358. Count of elements                        : 296
  359. Stream size                              : 8.23 KiB (0%)
  360. Language                                 : Turkish
  361. Default                                  : No
  362. Forced                                   : No
  363. Text #25
  364. ID                                       : 27
  365. Format                                   : UTF-8
  366. Codec ID                                 : S_TEXT/UTF8
  367. Codec ID/Info                            : UTF-8 Plain Text
  368. Duration                                 : 1 h 38 min
  369. Bit rate                                 : 10 b/s
  370. Frame rate                               : 0.050 FPS
  371. Count of elements                        : 298
  372. Stream size                              : 7.91 KiB (0%)
  373. Title                                    : Hong Kong
  374. Language                                 : Chinese
  375. Default                                  : No
  376. Forced                                   : No
  377. Text #26
  378. ID                                       : 28
  379. Format                                   : UTF-8
  380. Codec ID                                 : S_TEXT/UTF8
  381. Codec ID/Info                            : UTF-8 Plain Text
  382. Duration                                 : 1 h 38 min
  383. Bit rate                                 : 11 b/s
  384. Frame rate                               : 0.050 FPS
  385. Count of elements                        : 299
  386. Stream size                              : 8.31 KiB (0%)
  387. Title                                    : Simplified
  388. Language                                 : Chinese
  389. Default                                  : No
  390. Forced                                   : No
  391. Text #27
  392. ID                                       : 29
  393. Format                                   : UTF-8
  394. Codec ID                                 : S_TEXT/UTF8
  395. Codec ID/Info                            : UTF-8 Plain Text
  396. Duration                                 : 1 h 38 min
  397. Bit rate                                 : 10 b/s
  398. Frame rate                               : 0.050 FPS
  399. Count of elements                        : 299
  400. Stream size                              : 7.91 KiB (0%)
  401. Title                                    : Traditional
  402. Language                                 : Chinese
  403. Default                                  : No
  404. Forced                                   : No
复制代码





                                       
                                       

                                       
                                       
                                       




Prey.2022.DUBBED.COMANCHE.2160p.DSNP.WEB-DL.DDP5.1.Atmos.DV.MKV.x265-DVSUX.torrent (15.67 KB, 下载次数: 0)
回复

使用道具 举报

您需要登录后才可以回帖 登录 | 立即注册

本版积分规则

QQ|Archiver|手机版|小黑屋|蓝光电影网

GMT+8, 2022-8-8 18:43 , Processed in 0.055048 second(s), 28 queries .

Powered by Discuz! X3.4

Copyright © 2001-2020, Tencent Cloud.

快速回复 返回顶部 返回列表