找回密码
 立即注册

QQ登录

只需一步,快速开始

查看: 13|回复: 0

[其他] 空前绝后满天飞2:瞒天过海飞飞飞 Airplane.II.The.Sequel.1982.2160p.WEB-DL.x265.10bit.HDR.DTS-HD.MA.2.0-NOGRP 15.61GB

[复制链接]

0

精华

0

好友

2

听众

新手上路

Rank: 2

蓝光币
5
发表于 前天 07:57 | 显示全部楼层 |阅读模式


◎标  题 空前绝后满天飞2:瞒天过海飞飞飞
◎译  名 空前绝后满天飞续集
◎片  名 Airplane II: The Sequel
◎年  代 1982
◎产  地 美国
◎类  别 喜剧 / 科幻
◎语  言 英语
◎上映日期 1982-12-10(美国)
◎IMDb评分 6.2/10 (51312人评价)
◎IMDb链接 https://www.imdb.com/title/tt0083530/
◎豆瓣评分 7.0/10 (2900人评价)
◎豆瓣链接 https://movie.douban.com/subject/1298727/
◎片  长 85 分钟
◎导  演 肯·芬克尔曼 Ken Finkleman
◎编  剧 肯·芬克尔曼 Ken Finkleman
◎演  员 朱丽·哈基提 Julie Hagerty
       罗伯特·海斯 Robert Hays
       劳埃德·布里吉斯 Lloyd Bridges
       查德·艾微特 Chad Everett
       皮特·格拉维斯 Peter Graves
       詹姆斯·诺贝尔 James Noble
       Gail Matthius Gail Matthius
       肯特·麦科德 Kent McCord
       Tom McGreevey Tom McGreevey
       约翰·拉尔克 John Larch
       戴维·莱热 David Leisure
       Jack Jones Jack Jones
       理查德·吉利兰德 Richard Gilliland
       Hugh Gillin Hugh Gillin
       路易斯·基亚姆布拉沃 Louis Giambalvo
       Wendy Phillips Wendy Phillips
       Ann Nelson Ann Nelson
       李·帕特森 Lee Patterson
       Stephen Stucker Stephen Stucker
       Elisa Goodman Elisa Goodman
       肯·芬克尔曼 Ken Finkleman
       雷蒙德·布尔 Raymond Burr
       小詹姆斯·A·沃森 James A. Watson Jr.
       Sandy Ward Sandy Ward
       Mary Mon Toy Mary Mon Toy
       路易丝·索莱尔 Louise Sorel
       Hank Robinson Hank Robinson
       Pat Sajak Pat Sajak
       Kenneth O'Brien Kenneth O'Brien
       Marcy Lafferty Marcy Lafferty
       Martin Garner Martin Garner
       布鲁斯·弗兰奇 Bruce French
       约翰·帕拉贡 John Paragon
       约翰·德纳 John Dehner
       Maurice Hill Maurice Hill
       约翰·汉考克 John Hancock
       劳伦妮·兰登 Laurene Landon
       约翰·沃侬 John Vernon
       乔治·温迪特 George Wendt
       瑞克·欧弗顿 Rick Overton
       Ricky Powell Ricky Powell
       莫妮卡·加布里埃尔 Monique Gabrielle
       雷普·汤恩 Rip Torn
       Craig Berenson Craig Berenson
       桑尼·波诺 Sonny Bono
       查克·康诺斯 Chuck Connors
       桑达·伯格曼 Sandahl Bergman
       赫夫·维勒查泽 Hervé Villechaize
       Art Fleming Art Fleming
       Gary Faga Gary Faga
       Joyce DeWitt Joyce DeWitt
       李·布莱恩特 Lee Bryant
       帕特里克·卡利顿 Patrick Culliton
       迈克尔·柯里 Michael Currie
       博克伯恩斯 Burke Byrnes
       杰克·伯纳迪 Jack Bernardi
       阿尔·伯恩 Earl Boen
       莱昂·阿斯金 Leon Askin
       Frank Ashmore Frank Ashmore
       山姆·安德森 Sam Anderson
       小猫娜提雅维达 Kitten Natividad
       理查德·杰克尔 Richard Jaeckel
       李·珀塞尔 Lee Purcell
       大卫·佩默 David Paymer
       威廉·夏特纳 William Shatner
◎标  签 喜剧 / 美国 / 无厘头 / 恶搞 / 搞笑 / 1982 / 科幻 / 美国电影
◎简  介

    这次,大批乘客离开地球,乘坐第一艘民用太空梭直飞月球,然而机上有个炸弹怪客,太空梭就快要被炸开了,加上引擎又故障,但是最糟的却是飞机上发现他们没有咖啡可喝。
  1. Video
  2. ID                                       : 1
  3. Format                                   : HEVC
  4. Format/Info                              : High Efficiency Video Coding
  5. Format profile                           : Main [email protected]@High
  6. HDR format                               : SMPTE ST 2086, HDR10 compatible
  7. Codec ID                                 : V_MPEGH/ISO/HEVC
  8. Duration                                 : 1 h 24 min
  9. Bit rate                                 : 24.8 Mb/s
  10. Width                                    : 3 840 pixels
  11. Height                                   : 2 076 pixels
  12. Display aspect ratio                     : 1.85:1
  13. Frame rate mode                          : Constant
  14. Frame rate                               : 23.976 FPS
  15. Color space                              : YUV
  16. Chroma subsampling                       : 4:2:0 (Type 2)
  17. Bit depth                                : 10 bits
  18. Bits/(Pixel*Frame)                       : 0.130
  19. Stream size                              : 14.6 GiB (93%)
  20. Default                                  : Yes
  21. Forced                                   : No
  22. Color range                              : Limited
  23. Color primaries                          : BT.2020
  24. Transfer characteristics                 : PQ
  25. Matrix coefficients                      : BT.2020 non-constant
  26. Mastering display color primaries        : Display P3
  27. Mastering display luminance              : min: 0.0050 cd/m2, max: 1000 cd/m2
  28. Maximum Content Light Level              : 1031 cd/m2
  29. Maximum Frame-Average Light Level        : 221 cd/m2
  30. Audio #1
  31. ID                                       : 2
  32. Format                                   : DTS XLL
  33. Format/Info                              : Digital Theater Systems
  34. Commercial name                          : DTS-HD Master Audio
  35. Codec ID                                 : A_DTS
  36. Duration                                 : 1 h 24 min
  37. Bit rate mode                            : Variable
  38. Bit rate                                 : 1 587 kb/s
  39. Channel(s)                               : 2 channels
  40. Channel layout                           : L R
  41. Sampling rate                            : 48.0 kHz
  42. Frame rate                               : 93.750 FPS (512 SPF)
  43. Bit depth                                : 24 bits
  44. Compression mode                         : Lossless
  45. Delay relative to video                  : 6 ms
  46. Stream size                              : 956 MiB (6%)
  47. Title                                    : DTS-HD MA 2.0
  48. Language                                 : English
  49. Default                                  : Yes
  50. Forced                                   : No
  51. Audio #2
  52. ID                                       : 3
  53. Format                                   : AAC LC
  54. Format/Info                              : Advanced Audio Codec Low Complexity
  55. Codec ID                                 : A_AAC-2
  56. Duration                                 : 1 h 24 min
  57. Bit rate                                 : 123 kb/s
  58. Channel(s)                               : 2 channels
  59. Channel layout                           : L R
  60. Sampling rate                            : 48.0 kHz
  61. Frame rate                               : 46.875 FPS (1024 SPF)
  62. Compression mode                         : Lossy
  63. Stream size                              : 74.1 MiB (0%)
  64. Title                                    : AAC 2.0
  65. Language                                 : English
  66. Default                                  : No
  67. Forced                                   : No
  68. Text #1
  69. ID                                       : 4
  70. Format                                   : UTF-8
  71. Codec ID                                 : S_TEXT/UTF8
  72. Codec ID/Info                            : UTF-8 Plain Text
  73. Duration                                 : 1 h 23 min
  74. Bit rate                                 : 79 b/s
  75. Frame rate                               : 0.375 FPS
  76. Count of elements                        : 1875
  77. Stream size                              : 48.3 KiB (0%)
  78. Title                                    : English CC
  79. Language                                 : English
  80. Default                                  : No
  81. Forced                                   : No
  82. Text #2
  83. ID                                       : 5
  84. Format                                   : UTF-8
  85. Codec ID                                 : S_TEXT/UTF8
  86. Codec ID/Info                            : UTF-8 Plain Text
  87. Duration                                 : 1 h 23 min
  88. Bit rate                                 : 115 b/s
  89. Frame rate                               : 0.231 FPS
  90. Count of elements                        : 1152
  91. Stream size                              : 70.2 KiB (0%)
  92. Title                                    : Bulgarian
  93. Language                                 : Bulgarian
  94. Default                                  : No
  95. Forced                                   : No
  96. Text #3
  97. ID                                       : 6
  98. Format                                   : UTF-8
  99. Codec ID                                 : S_TEXT/UTF8
  100. Codec ID/Info                            : UTF-8 Plain Text
  101. Duration                                 : 1 h 23 min
  102. Bit rate                                 : 124 b/s
  103. Frame rate                               : 0.237 FPS
  104. Count of elements                        : 1181
  105. Stream size                              : 75.6 KiB (0%)
  106. Title                                    : Greek
  107. Language                                 : Greek
  108. Default                                  : No
  109. Forced                                   : No
  110. Text #4
  111. ID                                       : 7
  112. Format                                   : PGS
  113. Muxing mode                              : zlib
  114. Codec ID                                 : S_HDMV/PGS
  115. Codec ID/Info                            : Picture based subtitle format used on BDs/HD-DVDs
  116. Duration                                 : 1 h 21 min
  117. Bit rate                                 : 46.5 kb/s
  118. Frame rate                               : 0.488 FPS
  119. Count of elements                        : 2398
  120. Stream size                              : 27.2 MiB (0%)
  121. Title                                    : SDH
  122. Language                                 : English
  123. Default                                  : No
  124. Forced                                   : No
  125. Text #5
  126. ID                                       : 8
  127. Format                                   : PGS
  128. Muxing mode                              : zlib
  129. Codec ID                                 : S_HDMV/PGS
  130. Codec ID/Info                            : Picture based subtitle format used on BDs/HD-DVDs
  131. Duration                                 : 1 h 23 min
  132. Bit rate                                 : 42.1 kb/s
  133. Frame rate                               : 0.461 FPS
  134. Count of elements                        : 2306
  135. Stream size                              : 25.1 MiB (0%)
  136. Language                                 : French
  137. Default                                  : No
  138. Forced                                   : No
  139. Text #6
  140. ID                                       : 9
  141. Format                                   : PGS
  142. Muxing mode                              : zlib
  143. Codec ID                                 : S_HDMV/PGS
  144. Codec ID/Info                            : Picture based subtitle format used on BDs/HD-DVDs
  145. Duration                                 : 1 h 23 min
  146. Bit rate                                 : 41.8 kb/s
  147. Frame rate                               : 0.457 FPS
  148. Count of elements                        : 2288
  149. Stream size                              : 24.9 MiB (0%)
  150. Language                                 : Spanish
  151. Default                                  : No
  152. Forced                                   : No
  153. Menu
  154. 00:00:00.000                             : en:Chapter 01
  155. 00:08:05.902                             : en:Chapter 02
  156. 00:16:32.826                             : en:Chapter 03
  157. 00:19:57.489                             : en:Chapter 04
  158. 00:23:02.132                             : en:Chapter 05
  159. 00:31:20.547                             : en:Chapter 06
  160. 00:37:38.883                             : en:Chapter 07
  161. 00:42:18.455                             : en:Chapter 08
  162. 00:45:25.308                             : en:Chapter 09
  163. 00:49:29.386                             : en:Chapter 10
  164. 00:55:04.346                             : en:Chapter 11
  165. 01:00:04.854                             : en:Chapter 12
  166. 01:07:02.147                             : en:Chapter 13
  167. 01:10:44.244                             : en:Chapter 14
  168. 01:18:24.037                             : en:Chapter 15
复制代码




                                       
                                       

                                       
                                       
                                       




Airplane.II.The.Sequel.1982.2160p.WEB-DL.x265.10bit.HDR.DTS-HD.MA.2.0-NOGRP.torrent (20.18 KB, 下载次数: 0)
回复

使用道具 举报

您需要登录后才可以回帖 登录 | 立即注册

本版积分规则

QQ|Archiver|手机版|小黑屋|蓝光电影网

GMT+8, 2022-8-8 17:45 , Processed in 0.055130 second(s), 28 queries .

Powered by Discuz! X3.4

Copyright © 2001-2020, Tencent Cloud.

快速回复 返回顶部 返回列表