找回密码
 立即注册

QQ登录

只需一步,快速开始

查看: 13|回复: 0

[其他] 48小时闯天关 Another.48.Hrs.1990.2160p.WEB-DL.x265.10bit.HDR.DTS-HD.MA.TrueHD.5.1-NOGRP 21.87GB

[复制链接]

0

精华

0

好友

2

听众

新手上路

Rank: 2

蓝光币
5
发表于 前天 07:57 | 显示全部楼层 |阅读模式


◎标  题 48小时闯天关
◎译  名 新48小时 / 四十八小时2
◎片  名 Another 48 Hrs.
◎年  代 1990
◎产  地 美国
◎类  别 剧情 / 喜剧 / 动作 / 惊悚 / 犯罪
◎语  言 英语
◎上映日期 1990-06-08
◎IMDb评分 5.9/10 (41314人评价)
◎IMDb链接 https://www.imdb.com/title/tt0099044/
◎豆瓣评分 6.0/10 (186人评价)
◎豆瓣链接 https://movie.douban.com/subject/1296349/
◎片  长 93 分钟
◎导  演 沃尔特·希尔 Walter Hill
◎编  剧 杰布·斯图尔特 Jeb Stuart
       斯蒂芬·E.德·索萨 Steven E. de Souza
       拉里·格罗斯 Larry Gross
       约翰·法沙诺 John Fasano
       罗杰·斯波蒂斯伍德 Roger Spottiswoode
       沃尔特·希尔 Walter Hill
       艾迪·墨菲 Eddie Murphy
◎演  员 艾迪·墨菲 Eddie Murphy
       尼克·诺特 Nick Nolte
       布里翁·詹姆斯 Brion James
       谢娜·奥勃良 Shauna O'Brien
       Dawn Robinson Dawn Robinson
       Edgar Small Edgar Small
       Michael Williams Michael Williams
       Edward Walsh Edward Walsh
       佩姬·梁 Page Leong
       布赖特·詹宁斯 Brent Jennings
       阿兰·格拉夫 Allan Graf
       埃德·欧罗斯 Ed O'Ross
       菲利斯·奥兰迪 Felice Orlandi
       小猫娜提雅维达 Kitten Natividad
       Hoke Howell Hoke Howell
       提莎·坎贝尔-马丁 Tisha Campbell-Martin
       丹尼斯海顿 Dennis Hayden
       凯文·泰德 Kevin Tighe
       安德鲁·迪沃夫 Andrew Divoff
       伯尼·凯西 Bernie Casey
       Alisa Christensen Alisa Christensen
       维克托·勃兰特 Victor Brandt
       特德·马克兰德 Ted Markland
       Benjamin Lum Benjamin Lum
       Russ McCubbin Russ McCubbin
       弗兰克·麦克雷 Frank McRae
       Richard Lee-Sung Richard Lee-Sung
       John Del Regno John Del Regno
       南茜·艾薇哈德 Nancy Everhard
       Deirdre Fitzpatrick Deirdre Fitzpatrick
       拉尔夫·S·辛格尔顿 Ralph S. Singleton
       劳伦斯·戈登 Lawrence Gordon
       詹姆斯·霍纳 James Horner
       马修·莱昂涅蒂 Matthew F. Leonetti
       Freeman A. Davies Freeman A. Davies
       杰基•伯奇 Jackie Burch
       乔治·R·尼尔森 George R. Nelson
       约瑟夫·C·内梅克三世 Joseph C. Nemec III
       Gary Wissner Gary Wissner
       Dan Moore Dan Moore
       Peter Tothpal Peter Tothpal
       Robert L. Stevenson Robert L. Stevenson
       Michael F. Blake Michael F. Blake
       阿兰·格拉夫 Allan Graf
       Steve Grumette Steve Grumette
◎简  介

  白人警探尼克.诺尔蒂为了追查神秘的毒贩"卖冰人",不得不找当年的黑人罪犯搭档埃迪.墨菲协助提供线索。埃迪因有一笔巨款仍寄存在尼克手上,只好不情不愿地加以帮忙,但二人在合作过程中发生多起冲突。最后,他们还是发现了卖冰人"的真正身份,原来是警察中人。全片从编剧的情节安排,到导演的动作设计,再到演员的卖力演出,处处可见台前幕后工作人员尽力使本片显得热闹好看的努力,不过最终还是摆脱不了既有的框架,只是在公式化之中转圈圈,甚至埃迪的惹笑伎俩也显得有点技穷了。
  1. Video
  2. ID                                       : 1
  3. Format                                   : HEVC
  4. Format/Info                              : High Efficiency Video Coding
  5. Format profile                           : Main [email protected]@High
  6. HDR format                               : SMPTE ST 2086, HDR10 compatible
  7. Codec ID                                 : V_MPEGH/ISO/HEVC
  8. Duration                                 : 1 h 35 min
  9. Bit rate                                 : 24.5 Mb/s
  10. Width                                    : 3 840 pixels
  11. Height                                   : 2 076 pixels
  12. Display aspect ratio                     : 1.85:1
  13. Frame rate mode                          : Constant
  14. Frame rate                               : 23.976 FPS
  15. Color space                              : YUV
  16. Chroma subsampling                       : 4:2:0 (Type 2)
  17. Bit depth                                : 10 bits
  18. Bits/(Pixel*Frame)                       : 0.128
  19. Stream size                              : 16.3 GiB (75%)
  20. Default                                  : Yes
  21. Forced                                   : No
  22. Color range                              : Limited
  23. Color primaries                          : BT.2020
  24. Transfer characteristics                 : PQ
  25. Matrix coefficients                      : BT.2020 non-constant
  26. Mastering display color primaries        : Display P3
  27. Mastering display luminance              : min: 0.0050 cd/m2, max: 1000 cd/m2
  28. Maximum Content Light Level              : 2657 cd/m2
  29. Maximum Frame-Average Light Level        : 435 cd/m2
  30. Audio #1
  31. ID                                       : 2
  32. Format                                   : MLP FBA
  33. Format/Info                              : Meridian Lossless Packing FBA
  34. Commercial name                          : Dolby TrueHD
  35. Codec ID                                 : A_TRUEHD
  36. Duration                                 : 1 h 35 min
  37. Bit rate mode                            : Variable
  38. Bit rate                                 : 3 637 kb/s
  39. Maximum bit rate                         : 4 929 kb/s
  40. Channel(s)                               : 6 channels
  41. Channel layout                           : L R C LFE Ls Rs
  42. Sampling rate                            : 48.0 kHz
  43. Frame rate                               : 1 200.000 FPS (40 SPF)
  44. Compression mode                         : Lossless
  45. Stream size                              : 2.42 GiB (11%)
  46. Title                                    : TrueHD 5.1
  47. Language                                 : English
  48. Default                                  : Yes
  49. Forced                                   : No
  50. Audio #2
  51. ID                                       : 3
  52. Format                                   : DTS XLL
  53. Format/Info                              : Digital Theater Systems
  54. Commercial name                          : DTS-HD Master Audio
  55. Codec ID                                 : A_DTS
  56. Duration                                 : 1 h 35 min
  57. Bit rate mode                            : Variable
  58. Bit rate                                 : 4 117 kb/s
  59. Channel(s)                               : 6 channels
  60. Channel layout                           : C L R Ls Rs LFE
  61. Sampling rate                            : 48.0 kHz
  62. Frame rate                               : 93.750 FPS (512 SPF)
  63. Bit depth                                : 24 bits
  64. Compression mode                         : Lossless
  65. Stream size                              : 2.74 GiB (13%)
  66. Title                                    : DTS-HD MA 5.1
  67. Language                                 : English
  68. Default                                  : No
  69. Forced                                   : No
  70. Audio #3
  71. ID                                       : 4
  72. Format                                   : AC-3
  73. Format/Info                              : Audio Coding 3
  74. Commercial name                          : Dolby Digital
  75. Codec ID                                 : A_AC3
  76. Duration                                 : 1 h 35 min
  77. Bit rate mode                            : Constant
  78. Bit rate                                 : 384 kb/s
  79. Channel(s)                               : 6 channels
  80. Channel layout                           : L R C LFE Ls Rs
  81. Sampling rate                            : 48.0 kHz
  82. Frame rate                               : 31.250 FPS (1536 SPF)
  83. Compression mode                         : Lossy
  84. Stream size                              : 262 MiB (1%)
  85. Title                                    : DD 5.1
  86. Language                                 : English
  87. Service kind                             : Complete Main
  88. Default                                  : No
  89. Forced                                   : No
  90. Text #1
  91. ID                                       : 5
  92. Format                                   : UTF-8
  93. Codec ID                                 : S_TEXT/UTF8
  94. Codec ID/Info                            : UTF-8 Plain Text
  95. Duration                                 : 1 h 27 min
  96. Bit rate                                 : 74 b/s
  97. Frame rate                               : 0.230 FPS
  98. Count of elements                        : 1215
  99. Stream size                              : 47.8 KiB (0%)
  100. Language                                 : English
  101. Default                                  : Yes
  102. Forced                                   : No
  103. Text #2
  104. ID                                       : 6
  105. Format                                   : UTF-8
  106. Codec ID                                 : S_TEXT/UTF8
  107. Codec ID/Info                            : UTF-8 Plain Text
  108. Duration                                 : 1 h 27 min
  109. Bit rate                                 : 53 b/s
  110. Frame rate                               : 0.150 FPS
  111. Count of elements                        : 792
  112. Stream size                              : 34.7 KiB (0%)
  113. Title                                    : French European
  114. Language                                 : French
  115. Default                                  : No
  116. Forced                                   : No
  117. Text #3
  118. ID                                       : 7
  119. Format                                   : PGS
  120. Muxing mode                              : zlib
  121. Codec ID                                 : S_HDMV/PGS
  122. Codec ID/Info                            : Picture based subtitle format used on BDs/HD-DVDs
  123. Duration                                 : 1 h 27 min
  124. Bit rate                                 : 50.4 kb/s
  125. Frame rate                               : 0.461 FPS
  126. Count of elements                        : 2430
  127. Stream size                              : 31.7 MiB (0%)
  128. Language                                 : English
  129. Default                                  : No
  130. Forced                                   : No
  131. Text #4
  132. ID                                       : 8
  133. Format                                   : PGS
  134. Muxing mode                              : zlib
  135. Codec ID                                 : S_HDMV/PGS
  136. Codec ID/Info                            : Picture based subtitle format used on BDs/HD-DVDs
  137. Duration                                 : 1 h 30 min
  138. Bit rate                                 : 53.5 kb/s
  139. Frame rate                               : 0.504 FPS
  140. Count of elements                        : 2752
  141. Stream size                              : 34.8 MiB (0%)
  142. Title                                    : SDH
  143. Language                                 : English
  144. Default                                  : No
  145. Forced                                   : No
  146. Text #5
  147. ID                                       : 9
  148. Format                                   : PGS
  149. Muxing mode                              : zlib
  150. Codec ID                                 : S_HDMV/PGS
  151. Codec ID/Info                            : Picture based subtitle format used on BDs/HD-DVDs
  152. Duration                                 : 1 h 30 min
  153. Bit rate                                 : 32.1 kb/s
  154. Frame rate                               : 0.264 FPS
  155. Count of elements                        : 1434
  156. Stream size                              : 20.8 MiB (0%)
  157. Language                                 : German
  158. Default                                  : No
  159. Forced                                   : No
  160. Text #6
  161. ID                                       : 10
  162. Format                                   : PGS
  163. Muxing mode                              : zlib
  164. Codec ID                                 : S_HDMV/PGS
  165. Codec ID/Info                            : Picture based subtitle format used on BDs/HD-DVDs
  166. Duration                                 : 1 h 27 min
  167. Bit rate                                 : 34.0 kb/s
  168. Frame rate                               : 0.300 FPS
  169. Count of elements                        : 1584
  170. Stream size                              : 21.4 MiB (0%)
  171. Language                                 : French
  172. Default                                  : No
  173. Forced                                   : No
  174. Text #7
  175. ID                                       : 11
  176. Format                                   : PGS
  177. Muxing mode                              : zlib
  178. Codec ID                                 : S_HDMV/PGS
  179. Codec ID/Info                            : Picture based subtitle format used on BDs/HD-DVDs
  180. Duration                                 : 1 h 27 min
  181. Bit rate                                 : 24.7 kb/s
  182. Frame rate                               : 0.348 FPS
  183. Count of elements                        : 1836
  184. Stream size                              : 15.5 MiB (0%)
  185. Language                                 : Japanese
  186. Default                                  : No
  187. Forced                                   : No
  188. Menu
  189. 00:00:00.000                             : en:Chapter 01
  190. 00:07:45.965                             : en:Chapter 02
  191. 00:13:22.302                             : en:Chapter 03
  192. 00:20:26.726                             : en:Chapter 04
  193. 00:24:25.382                             : en:Chapter 05
  194. 00:32:47.258                             : en:Chapter 06
  195. 00:42:21.416                             : en:Chapter 07
  196. 00:52:42.203                             : en:Chapter 08
  197. 00:57:38.625                             : en:Chapter 09
  198. 01:07:20.623                             : en:Chapter 10
  199. 01:11:11.438                             : en:Chapter 11
  200. 01:17:12.215                             : en:Chapter 12
  201. 01:21:49.868                             : en:Chapter 13
  202. 01:29:33.707                             : en:Chapter 14
  203. 01:32:24.794                             : en:Chapter 15
复制代码




                                       
                                       

                                       
                                       
                                       




Another.48.Hrs.1990.2160p.WEB-DL.x265.10bit.HDR.DTS-HD.MA.TrueHD.5.1-NOGRP.torrent (28.01 KB, 下载次数: 0)
回复

使用道具 举报

您需要登录后才可以回帖 登录 | 立即注册

本版积分规则

QQ|Archiver|手机版|小黑屋|蓝光电影网

GMT+8, 2022-8-8 18:47 , Processed in 0.053106 second(s), 26 queries .

Powered by Discuz! X3.4

Copyright © 2001-2020, Tencent Cloud.

快速回复 返回顶部 返回列表