找回密码
 立即注册

QQ登录

只需一步,快速开始

查看: 12|回复: 0

[其他] 48小时闯天关 Another.48.Hrs.1990.2160p.WEB-DL.DD5.1.DV.MP4.x265-DVSUX 16.65GB

[复制链接]

0

精华

0

好友

2

听众

新手上路

Rank: 2

蓝光币
5
发表于 前天 07:56 | 显示全部楼层 |阅读模式


◎标  题 48小时闯天关
◎译  名 新48小时 / 四十八小时2
◎片  名 Another 48 Hrs.
◎年  代 1990
◎产  地 美国
◎类  别 剧情 / 喜剧 / 动作 / 惊悚 / 犯罪
◎语  言 英语
◎上映日期 1990-06-08
◎IMDb评分 5.9/10 (41314人评价)
◎IMDb链接 https://www.imdb.com/title/tt0099044/
◎豆瓣评分 6.0/10 (186人评价)
◎豆瓣链接 https://movie.douban.com/subject/1296349/
◎片  长 93 分钟
◎导  演 沃尔特·希尔 Walter Hill
◎编  剧 杰布·斯图尔特 Jeb Stuart
       斯蒂芬·E.德·索萨 Steven E. de Souza
       拉里·格罗斯 Larry Gross
       约翰·法沙诺 John Fasano
       罗杰·斯波蒂斯伍德 Roger Spottiswoode
       沃尔特·希尔 Walter Hill
       艾迪·墨菲 Eddie Murphy
◎演  员 艾迪·墨菲 Eddie Murphy
       尼克·诺特 Nick Nolte
       布里翁·詹姆斯 Brion James
       谢娜·奥勃良 Shauna O'Brien
       Dawn Robinson Dawn Robinson
       Edgar Small Edgar Small
       Michael Williams Michael Williams
       Edward Walsh Edward Walsh
       佩姬·梁 Page Leong
       布赖特·詹宁斯 Brent Jennings
       阿兰·格拉夫 Allan Graf
       埃德·欧罗斯 Ed O'Ross
       菲利斯·奥兰迪 Felice Orlandi
       小猫娜提雅维达 Kitten Natividad
       Hoke Howell Hoke Howell
       提莎·坎贝尔-马丁 Tisha Campbell-Martin
       丹尼斯海顿 Dennis Hayden
       凯文·泰德 Kevin Tighe
       安德鲁·迪沃夫 Andrew Divoff
       伯尼·凯西 Bernie Casey
       Alisa Christensen Alisa Christensen
       维克托·勃兰特 Victor Brandt
       特德·马克兰德 Ted Markland
       Benjamin Lum Benjamin Lum
       Russ McCubbin Russ McCubbin
       弗兰克·麦克雷 Frank McRae
       Richard Lee-Sung Richard Lee-Sung
       John Del Regno John Del Regno
       南茜·艾薇哈德 Nancy Everhard
       Deirdre Fitzpatrick Deirdre Fitzpatrick
       拉尔夫·S·辛格尔顿 Ralph S. Singleton
       劳伦斯·戈登 Lawrence Gordon
       詹姆斯·霍纳 James Horner
       马修·莱昂涅蒂 Matthew F. Leonetti
       Freeman A. Davies Freeman A. Davies
       杰基•伯奇 Jackie Burch
       乔治·R·尼尔森 George R. Nelson
       约瑟夫·C·内梅克三世 Joseph C. Nemec III
       Gary Wissner Gary Wissner
       Dan Moore Dan Moore
       Peter Tothpal Peter Tothpal
       Robert L. Stevenson Robert L. Stevenson
       Michael F. Blake Michael F. Blake
       阿兰·格拉夫 Allan Graf
       Steve Grumette Steve Grumette
◎简  介

  白人警探尼克.诺尔蒂为了追查神秘的毒贩"卖冰人",不得不找当年的黑人罪犯搭档埃迪.墨菲协助提供线索。埃迪因有一笔巨款仍寄存在尼克手上,只好不情不愿地加以帮忙,但二人在合作过程中发生多起冲突。最后,他们还是发现了卖冰人"的真正身份,原来是警察中人。全片从编剧的情节安排,到导演的动作设计,再到演员的卖力演出,处处可见台前幕后工作人员尽力使本片显得热闹好看的努力,不过最终还是摆脱不了既有的框架,只是在公式化之中转圈圈,甚至埃迪的惹笑伎俩也显得有点技穷了。
  1. Video
  2. ID                                       : 1
  3. Format                                   : HEVC
  4. Format/Info                              : High Efficiency Video Coding
  5. Format profile                           : Main [email protected]@High
  6. HDR format                               : Dolby Vision, Version 1.0, dvhe.05.06, BL+RPU
  7. Codec ID                                 : dvhe
  8. Codec ID/Info                            : High Efficiency Video Coding with Dolby Vision
  9. Duration                                 : 1 h 35 min
  10. Bit rate                                 : 24.6 Mb/s
  11. Width                                    : 3 840 pixels
  12. Height                                   : 2 080 pixels
  13. Original height                          : 2 076 pixels
  14. Display aspect ratio                     : 1.85:1
  15. Original display aspect ratio            : 1.85:1
  16. Frame rate mode                          : Constant
  17. Frame rate                               : 23.976 (24000/1001/189150) FPS
  18. Color space                              : YUV
  19. Chroma subsampling                       : 4:2:0
  20. Bit depth                                : 10 bits
  21. Bits/(Pixel*Frame)                       : 0.128
  22. Stream size                              : 16.4 GiB (98%)
  23. Default                                  : Yes
  24. Alternate group                          : 1
  25. Encoded date                             : UTC 2022-08-05 13:11:12
  26. Tagged date                              : UTC 2022-08-05 13:12:29
  27. Codec configuration box                  : hvcC+dvcC
  28. Audio
  29. ID                                       : 2
  30. Format                                   : AC-3
  31. Format/Info                              : Audio Coding 3
  32. Commercial name                          : Dolby Digital
  33. Codec ID                                 : ac-3
  34. Duration                                 : 1 h 35 min
  35. Bit rate mode                            : Constant
  36. Bit rate                                 : 384 kb/s
  37. Maximum bit rate                         : 406 kb/s
  38. Channel(s)                               : 6 channels
  39. Channel layout                           : L R C LFE Ls Rs
  40. Sampling rate                            : 48.0 kHz
  41. Frame rate                               : 31.250 FPS (1536 SPF)
  42. Compression mode                         : Lossy
  43. Stream size                              : 262 MiB (2%)
  44. Title                                    : English
  45. Language                                 : English
  46. Service kind                             : Complete Main
  47. Default                                  : Yes
  48. Alternate group                          : 1
  49. Tagged date                              : UTC 2022-08-05 13:12:29
  50. Text #1
  51. ID                                       : 3
  52. Format                                   : Timed Text
  53. Codec ID                                 : tx3g
  54. Duration                                 : 1 h 31 min
  55. Bit rate mode                            : Variable
  56. Bit rate                                 : 78 b/s
  57. Frame rate                               : 0.442 FPS
  58. Stream size                              : 52.5 KiB (0%)
  59. Title                                    : English
  60. Language                                 : English
  61. Forced                                   : No
  62. Encoded date                             : UTC 2022-08-05 13:12:29
  63. Tagged date                              : UTC 2022-08-05 13:12:29
  64. Text #2
  65. ID                                       : 4
  66. Format                                   : Timed Text
  67. Codec ID                                 : tx3g
  68. Duration                                 : 1 h 31 min
  69. Bit rate mode                            : Variable
  70. Bit rate                                 : 56 b/s
  71. Frame rate                               : 0.288 FPS
  72. Stream size                              : 37.4 KiB (0%)
  73. Title                                    : French
  74. Language                                 : French
  75. Forced                                   : No
  76. Encoded date                             : UTC 2022-08-05 13:12:29
  77. Tagged date                              : UTC 2022-08-05 13:12:29
复制代码




                                       
                                       

                                       
                                       
                                       




Another.48.Hrs.1990.2160p.WEB-DL.DD5.1.DV.MP4.x265-DVSUX.torrent (21.45 KB, 下载次数: 0)
回复

使用道具 举报

您需要登录后才可以回帖 登录 | 立即注册

本版积分规则

QQ|Archiver|手机版|小黑屋|蓝光电影网

GMT+8, 2022-8-8 18:52 , Processed in 0.052668 second(s), 28 queries .

Powered by Discuz! X3.4

Copyright © 2001-2020, Tencent Cloud.

快速回复 返回顶部 返回列表