找回密码
 立即注册

QQ登录

只需一步,快速开始

查看: 12|回复: 0

[其他] 空前绝后满天飞2:瞒天过海飞飞飞 Airplane.II.The.Sequel.1982.2160p.WEB-DL.DTS-HD.MA.2.0.DV.MKV.x265-DVSUX 15.70GB

[复制链接]

0

精华

0

好友

2

听众

新手上路

Rank: 2

蓝光币
5
发表于 前天 07:56 | 显示全部楼层 |阅读模式


◎标  题 空前绝后满天飞2:瞒天过海飞飞飞
◎译  名 空前绝后满天飞续集
◎片  名 Airplane II: The Sequel
◎年  代 1982
◎产  地 美国
◎类  别 喜剧 / 科幻
◎语  言 英语
◎上映日期 1982-12-10(美国)
◎IMDb评分 6.2/10 (51312人评价)
◎IMDb链接 https://www.imdb.com/title/tt0083530/
◎豆瓣评分 7.0/10 (2900人评价)
◎豆瓣链接 https://movie.douban.com/subject/1298727/
◎片  长 85 分钟
◎导  演 肯·芬克尔曼 Ken Finkleman
◎编  剧 肯·芬克尔曼 Ken Finkleman
◎演  员 朱丽·哈基提 Julie Hagerty
       罗伯特·海斯 Robert Hays
       劳埃德·布里吉斯 Lloyd Bridges
       查德·艾微特 Chad Everett
       皮特·格拉维斯 Peter Graves
       詹姆斯·诺贝尔 James Noble
       Gail Matthius Gail Matthius
       肯特·麦科德 Kent McCord
       Tom McGreevey Tom McGreevey
       约翰·拉尔克 John Larch
       戴维·莱热 David Leisure
       Jack Jones Jack Jones
       理查德·吉利兰德 Richard Gilliland
       Hugh Gillin Hugh Gillin
       路易斯·基亚姆布拉沃 Louis Giambalvo
       Wendy Phillips Wendy Phillips
       Ann Nelson Ann Nelson
       李·帕特森 Lee Patterson
       Stephen Stucker Stephen Stucker
       Elisa Goodman Elisa Goodman
       肯·芬克尔曼 Ken Finkleman
       雷蒙德·布尔 Raymond Burr
       小詹姆斯·A·沃森 James A. Watson Jr.
       Sandy Ward Sandy Ward
       Mary Mon Toy Mary Mon Toy
       路易丝·索莱尔 Louise Sorel
       Hank Robinson Hank Robinson
       Pat Sajak Pat Sajak
       Kenneth O'Brien Kenneth O'Brien
       Marcy Lafferty Marcy Lafferty
       Martin Garner Martin Garner
       布鲁斯·弗兰奇 Bruce French
       约翰·帕拉贡 John Paragon
       约翰·德纳 John Dehner
       Maurice Hill Maurice Hill
       约翰·汉考克 John Hancock
       劳伦妮·兰登 Laurene Landon
       约翰·沃侬 John Vernon
       乔治·温迪特 George Wendt
       瑞克·欧弗顿 Rick Overton
       Ricky Powell Ricky Powell
       莫妮卡·加布里埃尔 Monique Gabrielle
       雷普·汤恩 Rip Torn
       Craig Berenson Craig Berenson
       桑尼·波诺 Sonny Bono
       查克·康诺斯 Chuck Connors
       桑达·伯格曼 Sandahl Bergman
       赫夫·维勒查泽 Hervé Villechaize
       Art Fleming Art Fleming
       Gary Faga Gary Faga
       Joyce DeWitt Joyce DeWitt
       李·布莱恩特 Lee Bryant
       帕特里克·卡利顿 Patrick Culliton
       迈克尔·柯里 Michael Currie
       博克伯恩斯 Burke Byrnes
       杰克·伯纳迪 Jack Bernardi
       阿尔·伯恩 Earl Boen
       莱昂·阿斯金 Leon Askin
       Frank Ashmore Frank Ashmore
       山姆·安德森 Sam Anderson
       小猫娜提雅维达 Kitten Natividad
       理查德·杰克尔 Richard Jaeckel
       李·珀塞尔 Lee Purcell
       大卫·佩默 David Paymer
       威廉·夏特纳 William Shatner
◎标  签 喜剧 / 美国 / 无厘头 / 恶搞 / 搞笑 / 1982 / 科幻 / 美国电影
◎简  介

    这次,大批乘客离开地球,乘坐第一艘民用太空梭直飞月球,然而机上有个炸弹怪客,太空梭就快要被炸开了,加上引擎又故障,但是最糟的却是飞机上发现他们没有咖啡可喝。
  1. Video
  2. ID                                       : 1
  3. Format                                   : HEVC
  4. Format/Info                              : High Efficiency Video Coding
  5. Format profile                           : Main [email protected]@High
  6. HDR format                               : Dolby Vision, Version 1.0, dvhe.05.06, BL+RPU
  7. Codec ID                                 : V_MPEGH/ISO/HEVC
  8. Duration                                 : 1 h 24 min
  9. Bit rate                                 : 24.9 Mb/s
  10. Width                                    : 3 840 pixels
  11. Height                                   : 2 076 pixels
  12. Display aspect ratio                     : 1.85:1
  13. Frame rate mode                          : Constant
  14. Frame rate                               : 23.976 (24000/1001/189150) FPS
  15. Color space                              : YUV
  16. Chroma subsampling                       : 4:2:0
  17. Bit depth                                : 10 bits
  18. Bits/(Pixel*Frame)                       : 0.130
  19. Stream size                              : 14.7 GiB (93%)
  20. Default                                  : Yes
  21. Forced                                   : No
  22. Audio #1
  23. ID                                       : 2
  24. Format                                   : DTS XLL
  25. Format/Info                              : Digital Theater Systems
  26. Commercial name                          : DTS-HD Master Audio
  27. Codec ID                                 : A_DTS
  28. Duration                                 : 1 h 24 min
  29. Bit rate mode                            : Variable
  30. Bit rate                                 : 1 587 kb/s
  31. Channel(s)                               : 2 channels
  32. Channel layout                           : L R
  33. Sampling rate                            : 48.0 kHz
  34. Frame rate                               : 93.750 FPS (512 SPF)
  35. Bit depth                                : 24 bits
  36. Compression mode                         : Lossless
  37. Delay relative to video                  : 6 ms
  38. Stream size                              : 956 MiB (6%)
  39. Title                                    : DTS-HD MA 2.0
  40. Language                                 : English
  41. Default                                  : Yes
  42. Forced                                   : No
  43. Audio #2
  44. ID                                       : 3
  45. Format                                   : AAC LC
  46. Format/Info                              : Advanced Audio Codec Low Complexity
  47. Codec ID                                 : A_AAC-2
  48. Duration                                 : 1 h 24 min
  49. Bit rate                                 : 123 kb/s
  50. Channel(s)                               : 2 channels
  51. Channel layout                           : L R
  52. Sampling rate                            : 48.0 kHz
  53. Frame rate                               : 46.875 FPS (1024 SPF)
  54. Compression mode                         : Lossy
  55. Stream size                              : 74.1 MiB (0%)
  56. Title                                    : AAC 2.0
  57. Language                                 : English
  58. Default                                  : No
  59. Forced                                   : No
  60. Text #1
  61. ID                                       : 4
  62. Format                                   : UTF-8
  63. Codec ID                                 : S_TEXT/UTF8
  64. Codec ID/Info                            : UTF-8 Plain Text
  65. Duration                                 : 1 h 23 min
  66. Bit rate                                 : 79 b/s
  67. Frame rate                               : 0.375 FPS
  68. Count of elements                        : 1875
  69. Stream size                              : 48.3 KiB (0%)
  70. Title                                    : English CC
  71. Language                                 : English
  72. Default                                  : No
  73. Forced                                   : No
  74. Text #2
  75. ID                                       : 5
  76. Format                                   : UTF-8
  77. Codec ID                                 : S_TEXT/UTF8
  78. Codec ID/Info                            : UTF-8 Plain Text
  79. Duration                                 : 1 h 23 min
  80. Bit rate                                 : 115 b/s
  81. Frame rate                               : 0.231 FPS
  82. Count of elements                        : 1152
  83. Stream size                              : 70.2 KiB (0%)
  84. Title                                    : Bulgarian
  85. Language                                 : Bulgarian
  86. Default                                  : No
  87. Forced                                   : No
  88. Text #3
  89. ID                                       : 6
  90. Format                                   : UTF-8
  91. Codec ID                                 : S_TEXT/UTF8
  92. Codec ID/Info                            : UTF-8 Plain Text
  93. Duration                                 : 1 h 23 min
  94. Bit rate                                 : 124 b/s
  95. Frame rate                               : 0.237 FPS
  96. Count of elements                        : 1181
  97. Stream size                              : 75.6 KiB (0%)
  98. Title                                    : Greek
  99. Language                                 : Greek
  100. Default                                  : No
  101. Forced                                   : No
  102. Text #4
  103. ID                                       : 7
  104. Format                                   : PGS
  105. Muxing mode                              : zlib
  106. Codec ID                                 : S_HDMV/PGS
  107. Codec ID/Info                            : Picture based subtitle format used on BDs/HD-DVDs
  108. Duration                                 : 1 h 21 min
  109. Bit rate                                 : 46.5 kb/s
  110. Frame rate                               : 0.488 FPS
  111. Count of elements                        : 2398
  112. Stream size                              : 27.2 MiB (0%)
  113. Title                                    : SDH
  114. Language                                 : English
  115. Default                                  : No
  116. Forced                                   : No
  117. Text #5
  118. ID                                       : 8
  119. Format                                   : PGS
  120. Muxing mode                              : zlib
  121. Codec ID                                 : S_HDMV/PGS
  122. Codec ID/Info                            : Picture based subtitle format used on BDs/HD-DVDs
  123. Duration                                 : 1 h 23 min
  124. Bit rate                                 : 42.1 kb/s
  125. Frame rate                               : 0.461 FPS
  126. Count of elements                        : 2306
  127. Stream size                              : 25.1 MiB (0%)
  128. Language                                 : French
  129. Default                                  : No
  130. Forced                                   : No
  131. Text #6
  132. ID                                       : 9
  133. Format                                   : PGS
  134. Muxing mode                              : zlib
  135. Codec ID                                 : S_HDMV/PGS
  136. Codec ID/Info                            : Picture based subtitle format used on BDs/HD-DVDs
  137. Duration                                 : 1 h 23 min
  138. Bit rate                                 : 41.8 kb/s
  139. Frame rate                               : 0.457 FPS
  140. Count of elements                        : 2288
  141. Stream size                              : 24.9 MiB (0%)
  142. Language                                 : Spanish
  143. Default                                  : No
  144. Forced                                   : No
  145. Menu
  146. 00:00:00.000                             : en:Chapter 01
  147. 00:08:05.902                             : en:Chapter 02
  148. 00:16:32.826                             : en:Chapter 03
  149. 00:19:57.489                             : en:Chapter 04
  150. 00:23:02.132                             : en:Chapter 05
  151. 00:31:20.547                             : en:Chapter 06
  152. 00:37:38.883                             : en:Chapter 07
  153. 00:42:18.455                             : en:Chapter 08
  154. 00:45:25.308                             : en:Chapter 09
  155. 00:49:29.386                             : en:Chapter 10
  156. 00:55:04.346                             : en:Chapter 11
  157. 01:00:04.854                             : en:Chapter 12
  158. 01:07:02.147                             : en:Chapter 13
  159. 01:10:44.244                             : en:Chapter 14
  160. 01:18:24.037                             : en:Chapter 15
复制代码




                                       
                                       

                                       
                                       
                                       




Airplane.II.The.Sequel.1982.2160p.WEB-DL.DTS-HD.MA.2.0.DV.MKV.x265-DVSUX.torrent (20.29 KB, 下载次数: 0)
回复

使用道具 举报

您需要登录后才可以回帖 登录 | 立即注册

本版积分规则

QQ|Archiver|手机版|小黑屋|蓝光电影网

GMT+8, 2022-8-8 18:38 , Processed in 0.054265 second(s), 28 queries .

Powered by Discuz! X3.4

Copyright © 2001-2020, Tencent Cloud.

快速回复 返回顶部 返回列表