找回密码
 立即注册

QQ登录

只需一步,快速开始

查看: 22|回复: 3

[剧情片] 长津湖之水门桥[国语音轨/简繁字幕].The.Battle.at.Lake.Changjin.II.2022.1080p.BluRay.x264-CTRLHD 13.26GB

[复制链接]

0

精华

0

好友

2

听众

新手上路

Rank: 2

蓝光币
5
发表于 3 天前 | 显示全部楼层 |阅读模式


◎标  题 长津湖之水门桥
◎译  名 水门桥 / 长津湖2 / 三炸水门桥 / 长津湖(下) / The Battle At Lake Changjin II / Watergate Bridge
◎年  代 2022
◎产  地 中国大陆 / 中国香港
◎类  别 剧情 / 历史 / 战争
◎语  言 汉语普通话
◎上映日期 2022-02-01(中国大陆)
◎IMDb评分 5.4/10 (500人评价)
◎IMDb链接 https://www.imdb.com/title/tt16194408/
◎豆瓣评分 7.2/10 (286526人评价)
◎豆瓣链接 https://movie.douban.com/subject/35613853/
◎片  长 149分钟
◎导  演 徐克 Hark Tsui
◎编  剧 兰晓龙 Xiaolong Lan
       黄建新 Jianxin Huang
◎演  员 吴京 Jing Wu
       易烊千玺 Jackson Yee
       朱亚文 Yawen Zhu
       李晨 Chen Li
       韩东君 Elvis Han
       张涵予 Hanyu Zhang
       耿乐 Le Geng
       杜淳 Chun Du
       段奕宏 Yihong Duan
       胡军 Jun Hu
       王丽坤 Likun Wang
       杨一威 Yiwei Yang
       李卓扬 Zhuoyang Li
       何跃飞 Yuefei He
       唐志强 Zhiqiang Tang
       刘治威 Zhiwei Liu
       庄小龙 Xiaolong Zhuang
       辛玉波 Yubo Xin
       张跃 Yue Zhang
       许明虎 Tiger Xu
       王宁 Ning Wang
       王振威 Zhenwei Wang
       陈泽轩 Zexuan Chen
       李小锋 Xiaofeng Li
       詹姆斯·菲尔伯德 James Filbird
       约翰·克鲁兹 John Cruz
       史磊 Lei Shi
       胡学良 Xueliang Hu
       贺广治  Guangzhi He
       黄晓航 Xiaohang Huang
       曹敖日格勒
       章小磊 Xiaolei Zhang
       宋玉臣 Yuechen Song
       张志坤 Zhikun Zhang
       于冬 Dong Yu
       刘绍勇
       黄建新 Jianxin Huang
       陈红 Hong Chen
       施南生 Nansun Shi
       梁凤英 Candy Leung
       陈凯歌 Kaige Chen
       徐克 Hark Tsui
       林超贤 Dante Lam
       蒋德富 Defu Jiang
       曲吉小江 Xiaojiang Quji
       王之一 Zhiyi Wang
       梁皓一
       李野
       罗攀 Pan Luo
       高虎 Hu Gao
       谢忠道 Kenny Tse
       鲍德熹 Peter Pau
       黄永恒 Wing-Hung Wong
       丁豫 Yu Ding
       张和平 Heping Zhang
       霍廷霄 Tingxiao Huo
       陆苇 Wei Lu
       林伟健
       何志恒
       史蒂夫·伯吉斯 Steve Burgess
       王丹戎 Danrong Wang
       林峰 Feng Lin
       董玮 Wai Tung
       杨帅 Shuai Yang
       王树增 Wang Shuzeng
       舞当派 wutungpai
◎简  介
  电影以抗美援朝战争第二次战役中的长津湖战役为背景,讲述了在结束了新兴里和下碣隅里的战斗之后,七连战士们又接到了更艰巨的任务……
  1. ##### MediaInfo ######
  2. General
  3. Unique ID                                : 188000200318870409960521600553370372908 (0x8D6F858348CF226FBDCF45C04CE9CB2C)
  4. Complete name                            : The.Battle.at.Lake.Changjin.II.2022.1080p.BluRay.x264-CTRLHD.mkv
  5. Format                                   : Matroska
  6. Format version                           : Version 1
  7. File size                                : 13.3 GiB
  8. Duration                                 : 2 h 29 min
  9. Overall bit rate                         : 12.7 Mb/s
  10. Encoded date                             : UTC 2022-08-04 03:13:33
  11. Writing application                      : mkvmerge v2.2.0 ('Turn It On Again') built on Mar  4 2008 13:20:25
  12. Writing library                          : libebml v0.7.7 + libmatroska v0.8.1
  13. Attachments                              : MSYH.TTF / MSYH_chscht.ttf / MSYHBD.TTF / tahoma.ttf
  14. Video
  15. ID                                       : 1
  16. Format                                   : AVC
  17. Format/Info                              : Advanced Video Codec
  18. Format profile                           : High@L4.1
  19. Format settings                          : CABAC / 5 Ref Frames
  20. Format settings, CABAC                   : Yes
  21. Format settings, Reference frames        : 5 frames
  22. Codec ID                                 : V_MPEG4/ISO/AVC
  23. Duration                                 : 2 h 29 min
  24. Bit rate                                 : 12.0 Mb/s
  25. Width                                    : 1 920 pixels
  26. Height                                   : 816 pixels
  27. Display aspect ratio                     : 2.35:1
  28. Frame rate mode                          : Constant
  29. Frame rate                               : 24.000 FPS
  30. Color space                              : YUV
  31. Chroma subsampling                       : 4:2:0
  32. Bit depth                                : 8 bits
  33. Scan type                                : Progressive
  34. Bits/(Pixel*Frame)                       : 0.319
  35. Stream size                              : 12.3 GiB (93%)
  36. Writing library                          : x264 core 133 r2334 a3ac64b
  37. Encoding settings                        : cabac=1 / ref=5 / deblock=1:-3:-3 / analyse=0x3:0x113 / me=umh / subme=11 / psy=1 / psy_rd=1.00:0.00 / mixed_ref=1 / me_range=64 / chroma_me=1 / trellis=2 / 8x8dct=1 / cqm=0 / deadzone=21,11 / fast_pskip=1 / chroma_qp_offset=-4 / threads=36 / lookahead_threads=6 / sliced_threads=0 / nr=0 / decimate=0 / interlaced=0 / NTM4NzU= / bluray_compat=0 / constrained_intra=0 / bframes=8 / b_pyramid=2 / b_adapt=2 / b_bias=0 / direct=3 / weightb=1 / open_gop=0 / weightp=2 / keyint=250 / keyint_min=24 / NTM4NzU=uuDQuD2mJt9fsCf / scenecut=40 / intra_refresh=0 / rc=2pass / mbtree=0 / bitrate=12000 / ratetol=1.0 / qcomp=0.60 / qpmin=0 / qpmax=69 / qpstep=4 / cplxblur=20.0 / qblur=0.5 / NTM4NzU=LmsMAP37EqsCpk / ip_ratio=1.40 / pb_ratio=1.30 / aq=1:0.80
  38. Language                                 : English
  39. Default                                  : Yes
  40. Forced                                   : No
  41. Audio
  42. ID                                       : 2
  43. Format                                   : AC-3
  44. Format/Info                              : Audio Coding 3
  45. Commercial name                          : Dolby Digital
  46. Codec ID                                 : A_AC3
  47. Duration                                 : 2 h 29 min
  48. Bit rate mode                            : Constant
  49. Bit rate                                 : 640 kb/s
  50. Channel(s)                               : 6 channels
  51. Channel layout                           : L R C LFE Ls Rs
  52. Sampling rate                            : 48.0 kHz
  53. Frame rate                               : 31.250 FPS (1536 SPF)
  54. Compression mode                         : Lossy
  55. Stream size                              : 685 MiB (5%)
  56. Title                                    : 公映国语
  57. Language                                 : Chinese
  58. Service kind                             : Complete Main
  59. Default                                  : Yes
  60. Forced                                   : No
  61. Text #1
  62. ID                                       : 3
  63. Format                                   : ASS
  64. Codec ID                                 : S_TEXT/ASS
  65. Codec ID/Info                            : Advanced Sub Station Alpha
  66. Compression mode                         : Lossless
  67. Title                                    : cht
  68. Language                                 : Chinese
  69. Default                                  : Yes
  70. Forced                                   : No
  71. Text #2
  72. ID                                       : 4
  73. Format                                   : ASS
  74. Codec ID                                 : S_TEXT/ASS
  75. Codec ID/Info                            : Advanced Sub Station Alpha
  76. Compression mode                         : Lossless
  77. Title                                    : chs
  78. Language                                 : Chinese
  79. Default                                  : No
  80. Forced                                   : No
复制代码

















推荐请使用qBittorrent,utorrent,transmission等标准BT软件下载!以获取最快速度。拜托保种!





长津湖之水门桥[国语音轨 简繁字幕].The.Battle.at.Lake.Changjin.II.2022.1080p.BluR.torrent (34.22 KB, 下载次数: 4)
回复

使用道具 举报

0

精华

0

好友

7

听众

新手上路

Rank: 1

蓝光币
6
发表于 前天 04:28 | 显示全部楼层
感谢分享。。。。。。。。。。。。。
回复

使用道具 举报

0

精华

0

好友

6

听众

新手上路

Rank: 2

蓝光币
35
发表于 前天 08:58 | 显示全部楼层

感谢分享
回复

使用道具 举报

0

精华

0

好友

6

听众

新手上路

Rank: 2

蓝光币
35
发表于 昨天 14:19 | 显示全部楼层


感谢分享
回复

使用道具 举报

您需要登录后才可以回帖 登录 | 立即注册

本版积分规则

QQ|Archiver|手机版|小黑屋|蓝光电影网

GMT+8, 2022-8-8 19:01 , Processed in 0.053915 second(s), 24 queries .

Powered by Discuz! X3.4

Copyright © 2001-2020, Tencent Cloud.

快速回复 返回顶部 返回列表