找回密码
 立即注册

QQ登录

只需一步,快速开始

查看: 19|回复: 0

[其他] 刺猬索尼克2 Sonic.the.Hedgehog.2.2022.2160p.BluRay.x264.8bit.SDR.DTS-HD.MA.TrueHD.7.1.Atmos-SWTYBLZ 35.09GB

[复制链接]

0

精华

0

好友

2

听众

新手上路

Rank: 2

蓝光币
5
发表于 3 天前 | 显示全部楼层 |阅读模式


◎标  题 刺猬索尼克2
◎译  名 超音鼠大电影2(港) / 音速小子2(台)
◎片  名 Sonic the Hedgehog 2
◎年  代 2022
◎产  地 美国 / 日本
◎类  别 喜剧 / 动作 / 科幻 / 动画 / 冒险
◎语  言 英语
◎上映日期 2022(中国大陆) / 2022-04-08(美国)
◎IMDb评分 6.7/10 (27693人评价)
◎IMDb链接 https://www.imdb.com/title/tt12412888/
◎豆瓣链接 https://movie.douban.com/subject/35083986/
◎片  长 122分钟
◎导  演 杰夫·福勒 Jeff Fowler
◎编  剧 帕特里克·凯西 Patrick Casey
       乔什·米勒 Josh Miller
       约翰·惠廷顿 John Whittington
◎演  员 詹姆斯·麦斯登 James Marsden
       金·凯瑞 Jim Carrey
       本·施瓦茨 Ben Schwartz
       提卡·森普特 Tika Sumpter
       伊德里斯·艾尔巴 Idris Elba
       娜塔莎·罗斯韦尔 Natasha Rothwell
       亚当·佩里 Adam Pally
       谢默·摩尔 Shemar Moore
       李·马贾道布 Lee Majdoub
       科琳·欧肖内希 Colleen O'Shaughnessey
       梅洛德·诺西普·尼曼 Melody Nosipho Niemann
       汤姆·巴特勒 Tom Butler
       布拉德·卡利利莫库 Brad Kalilimoku
       杰夫·桑卡 Jeff Sanca
       伊丽莎白·鲍恩 Elizabeth Bowen
       多恩·列夫 Don Lew
       里斯·威廉姆斯 Rhys Williams
       西蒙·钱 Simon Chin
       弗雷泽·科比特 Fraser Corbett
       奎因·厄利 Quinn Early
       马库斯·奥雷里奥 Marcus Aurelio
       尼托·拉里奥萨 Nito Larioza
       迈克·鲁菲诺 Mike Rufino
       詹姆斯·兰索恩 James Ransone
       琼基·XL Junkie XL
◎简  介

  索尼克在绿丘镇安顿下来之后,就急着要证明自己有能力成为一名真正的英雄。当蛋头博士带着全新的搭档纳克鲁斯,又回来寻找一块力量强大足以毁灭人类文明的翡翠的时候,他就面对了另一个严峻的考验。这次索尼克和他自己的跟班塔尔斯携手合作,一起踏上一场环游世界的冒险旅程,希望能在那块翡翠落入坏人手中之前先找到它。
  1. Video
  2. ID                                       : 1
  3. Format                                   : AVC
  4. Format/Info                              : Advanced Video Codec
  5. Format profile                           : [email protected]
  6. Format settings                          : CABAC / 5 Ref Frames
  7. Format settings, CABAC                   : Yes
  8. Format settings, Reference frames        : 5 frames
  9. Codec ID                                 : V_MPEG4/ISO/AVC
  10. Duration                                 : 2 h 2 min
  11. Bit rate                                 : 30.9 Mb/s
  12. Width                                    : 3 840 pixels
  13. Height                                   : 1 608 pixels
  14. Display aspect ratio                     : 2.40:1
  15. Frame rate mode                          : Constant
  16. Frame rate                               : 23.976 (24000/1001/189150) FPS
  17. Color space                              : YUV
  18. Chroma subsampling                       : 4:2:0
  19. Bit depth                                : 8 bits
  20. Scan type                                : Progressive
  21. Bits/(Pixel*Frame)                       : 0.209
  22. Stream size                              : 26.4 GiB (76%)
  23. Writing library                          : x264 core 157 r2935 545de2f
  24. Encoding settings                        : cabac=1 / ref=5 / deblock=1:-1:-1 / analyse=0x3:0x113 / me=umh / subme=10 / psy=1 / psy_rd=1.00:0.15 / mixed_ref=1 / me_range=48 / chroma_me=1 / trellis=2 / 8x8dct=1 / cqm=0 / deadzone=21,11 / fast_pskip=1 / chroma_qp_offset=-3 / threads=48 / lookahead_threads=4 / sliced_threads=0 / nr=0 / decimate=0 / interlaced=0 / bluray_compat=0 / constrained_intra=0 / bframes=3 / b_pyramid=2 / b_adapt=2 / b_bias=0 / direct=3 / weightb=1 / open_gop=0 / weightp=2 / keyint=250 / keyint_min=23 / scenecut=40 / intra_refresh=0 / rc_lookahead=50 / rc=crf / mbtree=1 / crf=18.0 / qcomp=0.60 / qpmin=0 / qpmax=69 / qpstep=4 / ip_ratio=1.40 / aq=1:1.00
  25. Default                                  : Yes
  26. Forced                                   : No
  27. Audio #1
  28. ID                                       : 2
  29. ID in the original source medium         : 4352 (0x1100)
  30. Format                                   : MLP FBA 16-ch
  31. Format/Info                              : Meridian Lossless Packing FBA with 16-channel presentation
  32. Commercial name                          : Dolby TrueHD with Dolby Atmos
  33. Codec ID                                 : A_TRUEHD
  34. Duration                                 : 2 h 2 min
  35. Bit rate mode                            : Variable
  36. Bit rate                                 : 4 873 kb/s
  37. Maximum bit rate                         : 8 142 kb/s
  38. Channel(s)                               : 8 channels
  39. Channel layout                           : L R C LFE Ls Rs Lb Rb
  40. Sampling rate                            : 48.0 kHz
  41. Frame rate                               : 1 200.000 FPS (40 SPF)
  42. Bit depth                                : 24 bits
  43. Compression mode                         : Lossless
  44. Stream size                              : 4.16 GiB (12%)
  45. Title                                    : TrueHD 7.1 Atmos
  46. Language                                 : English
  47. Default                                  : Yes
  48. Forced                                   : No
  49. Original source medium                   : Blu-ray
  50. Number of dynamic objects                : 11
  51. Bed channel count                        : 1 channel
  52. Bed channel configuration                : LFE
  53. Audio #2
  54. ID                                       : 3
  55. Format                                   : DTS XLL
  56. Format/Info                              : Digital Theater Systems
  57. Commercial name                          : DTS-HD Master Audio
  58. Codec ID                                 : A_DTS
  59. Duration                                 : 2 h 2 min
  60. Bit rate mode                            : Variable
  61. Bit rate                                 : 4 282 kb/s
  62. Channel(s)                               : 8 channels
  63. Channel layout                           : C L R LFE Lb Rb Lss Rss
  64. Sampling rate                            : 48.0 kHz
  65. Frame rate                               : 93.750 FPS (512 SPF)
  66. Bit depth                                : 24 bits
  67. Compression mode                         : Lossless
  68. Stream size                              : 3.66 GiB (10%)
  69. Title                                    : DTS-HD MA 7.1
  70. Language                                 : English
  71. Default                                  : No
  72. Forced                                   : No
  73. Audio #3
  74. ID                                       : 4
  75. ID in the original source medium         : 4352 (0x1100)
  76. Format                                   : AC-3
  77. Format/Info                              : Audio Coding 3
  78. Commercial name                          : Dolby Digital
  79. Format settings                          : Dolby Surround EX
  80. Codec ID                                 : A_AC3
  81. Duration                                 : 2 h 2 min
  82. Bit rate mode                            : Constant
  83. Bit rate                                 : 640 kb/s
  84. Channel(s)                               : 6 channels
  85. Channel layout                           : L R C LFE Ls Rs
  86. Sampling rate                            : 48.0 kHz
  87. Frame rate                               : 31.250 FPS (1536 SPF)
  88. Compression mode                         : Lossy
  89. Stream size                              : 560 MiB (2%)
  90. Title                                    : DD 5.1
  91. Language                                 : English
  92. Service kind                             : Complete Main
  93. Default                                  : No
  94. Forced                                   : No
  95. Original source medium                   : Blu-ray
  96. Text #1
  97. ID                                       : 5
  98. Format                                   : UTF-8
  99. Codec ID                                 : S_TEXT/UTF8
  100. Codec ID/Info                            : UTF-8 Plain Text
  101. Duration                                 : 42 min 25 s
  102. Bit rate                                 : 0 b/s
  103. Frame rate                               : 0.003 FPS
  104. Count of elements                        : 7
  105. Stream size                              : 170 Bytes (0%)
  106. Title                                    : FORCED
  107. Language                                 : English
  108. Default                                  : No
  109. Forced                                   : Yes
  110. Text #2
  111. ID                                       : 6
  112. Format                                   : UTF-8
  113. Codec ID                                 : S_TEXT/UTF8
  114. Codec ID/Info                            : UTF-8 Plain Text
  115. Duration                                 : 1 h 52 min
  116. Bit rate                                 : 59 b/s
  117. Frame rate                               : 0.246 FPS
  118. Count of elements                        : 1655
  119. Stream size                              : 48.8 KiB (0%)
  120. Language                                 : English
  121. Default                                  : Yes
  122. Forced                                   : No
  123. Text #3
  124. ID                                       : 7
  125. Format                                   : UTF-8
  126. Codec ID                                 : S_TEXT/UTF8
  127. Codec ID/Info                            : UTF-8 Plain Text
  128. Duration                                 : 1 h 52 min
  129. Bit rate                                 : 67 b/s
  130. Frame rate                               : 0.295 FPS
  131. Count of elements                        : 1985
  132. Stream size                              : 55.7 KiB (0%)
  133. Title                                    : SDH
  134. Language                                 : English
  135. Default                                  : No
  136. Forced                                   : No
  137. Text #4
  138. ID                                       : 8
  139. ID in the original source medium         : 4768 (0x12A0)
  140. Format                                   : PGS
  141. Muxing mode                              : zlib
  142. Codec ID                                 : S_HDMV/PGS
  143. Codec ID/Info                            : Picture based subtitle format used on BDs/HD-DVDs
  144. Duration                                 : 1 h 52 min
  145. Bit rate                                 : 37.3 kb/s
  146. Frame rate                               : 0.407 FPS
  147. Count of elements                        : 2736
  148. Stream size                              : 29.9 MiB (0%)
  149. Language                                 : English
  150. Default                                  : No
  151. Forced                                   : No
  152. Original source medium                   : Blu-ray
  153. Text #5
  154. ID                                       : 9
  155. ID in the original source medium         : 4768 (0x12A0)
  156. Format                                   : PGS
  157. Muxing mode                              : zlib
  158. Codec ID                                 : S_HDMV/PGS
  159. Codec ID/Info                            : Picture based subtitle format used on BDs/HD-DVDs
  160. Duration                                 : 42 min 25 s
  161. Bit rate                                 : 264 b/s
  162. Frame rate                               : 0.006 FPS
  163. Count of elements                        : 14
  164. Stream size                              : 82.2 KiB (0%)
  165. Title                                    : FORCED
  166. Language                                 : English
  167. Default                                  : No
  168. Forced                                   : No
  169. Original source medium                   : Blu-ray
  170. Text #6
  171. ID                                       : 10
  172. ID in the original source medium         : 4769 (0x12A1)
  173. Format                                   : PGS
  174. Muxing mode                              : zlib
  175. Codec ID                                 : S_HDMV/PGS
  176. Codec ID/Info                            : Picture based subtitle format used on BDs/HD-DVDs
  177. Duration                                 : 1 h 52 min
  178. Bit rate                                 : 48.0 kb/s
  179. Frame rate                               : 0.595 FPS
  180. Count of elements                        : 3998
  181. Stream size                              : 38.4 MiB (0%)
  182. Title                                    : SDH
  183. Language                                 : English
  184. Default                                  : No
  185. Forced                                   : No
  186. Original source medium                   : Blu-ray
  187. Text #7
  188. ID                                       : 11
  189. ID in the original source medium         : 4770 (0x12A2)
  190. Format                                   : PGS
  191. Muxing mode                              : zlib
  192. Codec ID                                 : S_HDMV/PGS
  193. Codec ID/Info                            : Picture based subtitle format used on BDs/HD-DVDs
  194. Duration                                 : 2 h 1 min
  195. Bit rate                                 : 29.4 kb/s
  196. Frame rate                               : 0.352 FPS
  197. Count of elements                        : 2564
  198. Stream size                              : 25.5 MiB (0%)
  199. Language                                 : Danish
  200. Default                                  : No
  201. Forced                                   : No
  202. Original source medium                   : Blu-ray
  203. Text #8
  204. ID                                       : 12
  205. ID in the original source medium         : 4771 (0x12A3)
  206. Format                                   : PGS
  207. Muxing mode                              : zlib
  208. Codec ID                                 : S_HDMV/PGS
  209. Codec ID/Info                            : Picture based subtitle format used on BDs/HD-DVDs
  210. Duration                                 : 2 h 1 min
  211. Bit rate                                 : 34.5 kb/s
  212. Frame rate                               : 0.378 FPS
  213. Count of elements                        : 2756
  214. Stream size                              : 29.9 MiB (0%)
  215. Language                                 : Spanish
  216. Default                                  : No
  217. Forced                                   : No
  218. Original source medium                   : Blu-ray
  219. Text #9
  220. ID                                       : 13
  221. ID in the original source medium         : 4772 (0x12A4)
  222. Format                                   : PGS
  223. Muxing mode                              : zlib
  224. Codec ID                                 : S_HDMV/PGS
  225. Codec ID/Info                            : Picture based subtitle format used on BDs/HD-DVDs
  226. Duration                                 : 2 h 1 min
  227. Bit rate                                 : 32.1 kb/s
  228. Frame rate                               : 0.362 FPS
  229. Count of elements                        : 2638
  230. Stream size                              : 27.9 MiB (0%)
  231. Language                                 : Spanish
  232. Default                                  : No
  233. Forced                                   : No
  234. Original source medium                   : Blu-ray
  235. Text #10
  236. ID                                       : 14
  237. ID in the original source medium         : 4773 (0x12A5)
  238. Format                                   : PGS
  239. Muxing mode                              : zlib
  240. Codec ID                                 : S_HDMV/PGS
  241. Codec ID/Info                            : Picture based subtitle format used on BDs/HD-DVDs
  242. Duration                                 : 2 h 1 min
  243. Bit rate                                 : 30.3 kb/s
  244. Frame rate                               : 0.361 FPS
  245. Count of elements                        : 2630
  246. Stream size                              : 26.3 MiB (0%)
  247. Language                                 : French
  248. Default                                  : No
  249. Forced                                   : No
  250. Original source medium                   : Blu-ray
  251. Text #11
  252. ID                                       : 15
  253. ID in the original source medium         : 4774 (0x12A6)
  254. Format                                   : PGS
  255. Muxing mode                              : zlib
  256. Codec ID                                 : S_HDMV/PGS
  257. Codec ID/Info                            : Picture based subtitle format used on BDs/HD-DVDs
  258. Duration                                 : 2 h 1 min
  259. Bit rate                                 : 34.1 kb/s
  260. Frame rate                               : 0.381 FPS
  261. Count of elements                        : 2776
  262. Stream size                              : 29.6 MiB (0%)
  263. Language                                 : French
  264. Default                                  : No
  265. Forced                                   : No
  266. Original source medium                   : Blu-ray
  267. Text #12
  268. ID                                       : 16
  269. ID in the original source medium         : 4775 (0x12A7)
  270. Format                                   : PGS
  271. Muxing mode                              : zlib
  272. Codec ID                                 : S_HDMV/PGS
  273. Codec ID/Info                            : Picture based subtitle format used on BDs/HD-DVDs
  274. Duration                                 : 2 h 1 min
  275. Bit rate                                 : 29.7 kb/s
  276. Frame rate                               : 0.372 FPS
  277. Count of elements                        : 2706
  278. Stream size                              : 25.8 MiB (0%)
  279. Language                                 : Norwegian
  280. Default                                  : No
  281. Forced                                   : No
  282. Original source medium                   : Blu-ray
  283. Text #13
  284. ID                                       : 17
  285. ID in the original source medium         : 4776 (0x12A8)
  286. Format                                   : PGS
  287. Muxing mode                              : zlib
  288. Codec ID                                 : S_HDMV/PGS
  289. Codec ID/Info                            : Picture based subtitle format used on BDs/HD-DVDs
  290. Duration                                 : 2 h 1 min
  291. Bit rate                                 : 27.7 kb/s
  292. Frame rate                               : 0.370 FPS
  293. Count of elements                        : 2698
  294. Stream size                              : 24.1 MiB (0%)
  295. Language                                 : Finnish
  296. Default                                  : No
  297. Forced                                   : No
  298. Original source medium                   : Blu-ray
  299. Text #14
  300. ID                                       : 18
  301. ID in the original source medium         : 4777 (0x12A9)
  302. Format                                   : PGS
  303. Muxing mode                              : zlib
  304. Codec ID                                 : S_HDMV/PGS
  305. Codec ID/Info                            : Picture based subtitle format used on BDs/HD-DVDs
  306. Duration                                 : 2 h 1 min
  307. Bit rate                                 : 30.2 kb/s
  308. Frame rate                               : 0.349 FPS
  309. Count of elements                        : 2542
  310. Stream size                              : 26.3 MiB (0%)
  311. Language                                 : Swedish
  312. Default                                  : No
  313. Forced                                   : No
  314. Original source medium                   : Blu-ray
  315. Menu
  316. 00:00:00.000                             : en:Chapter 01
  317. 00:05:54.187                             : en:Chapter 02
  318. 00:09:59.515                             : en:Chapter 03
  319. 00:16:32.950                             : en:Chapter 04
  320. 00:20:58.715                             : en:Chapter 05
  321. 00:28:05.475                             : en:Chapter 06
  322. 00:34:19.932                             : en:Chapter 07
  323. 00:39:09.889                             : en:Chapter 08
  324. 00:48:24.902                             : en:Chapter 09
  325. 00:58:32.300                             : en:Chapter 10
  326. 01:04:57.685                             : en:Chapter 11
  327. 01:11:02.049                             : en:Chapter 12
  328. 01:16:09.356                             : en:Chapter 13
  329. 01:26:59.672                             : en:Chapter 14
  330. 01:32:31.837                             : en:Chapter 15
  331. 01:40:45.831                             : en:Chapter 16
  332. 01:48:21.661                             : en:Chapter 17
  333. 01:53:56.079                             : en:Chapter 18
复制代码








                                       
                                       

                                       
                                       
                                       




刺猬索尼克2 Sonic.the.Hedgehog.2.2022.2160p.BluRay.x264.8bit.SDR.DTS-HD.MA.TrueHD.7.1.Atmos-SWTYBLZ 35.09GB

Sonic.the.Hedgehog.2.2022.2160p.BluRay.x264.8bit.SDR.DTS-HD.MA.TrueHD.7.1.Atmos-.torrent

44.61 KB, 下载次数: 0, 下载积分: 蓝光币 -2

回复

使用道具 举报

您需要登录后才可以回帖 登录 | 立即注册

本版积分规则

QQ|Archiver|手机版|小黑屋|蓝光电影网

GMT+8, 2022-8-8 18:54 , Processed in 0.056471 second(s), 28 queries .

Powered by Discuz! X3.4

Copyright © 2001-2020, Tencent Cloud.

快速回复 返回顶部 返回列表