找回密码
 立即注册

QQ登录

只需一步,快速开始

查看: 19|回复: 0

[其他] 刺猬索尼克2 Sonic.the.Hedgehog.2.2022.2160p.BluRay.x265.10bit.SDR.DTS-HD.MA.TrueHD.7.1.Atmos-SWTYBLZ 32.01GB

[复制链接]

0

精华

0

好友

2

听众

新手上路

Rank: 2

蓝光币
5
发表于 3 天前 | 显示全部楼层 |阅读模式


◎标  题 刺猬索尼克2
◎译  名 超音鼠大电影2(港) / 音速小子2(台)
◎片  名 Sonic the Hedgehog 2
◎年  代 2022
◎产  地 美国 / 日本
◎类  别 喜剧 / 动作 / 科幻 / 动画 / 冒险
◎语  言 英语
◎上映日期 2022(中国大陆) / 2022-04-08(美国)
◎IMDb评分 6.7/10 (27693人评价)
◎IMDb链接 https://www.imdb.com/title/tt12412888/
◎豆瓣链接 https://movie.douban.com/subject/35083986/
◎片  长 122分钟
◎导  演 杰夫·福勒 Jeff Fowler
◎编  剧 帕特里克·凯西 Patrick Casey
       乔什·米勒 Josh Miller
       约翰·惠廷顿 John Whittington
◎演  员 詹姆斯·麦斯登 James Marsden
       金·凯瑞 Jim Carrey
       本·施瓦茨 Ben Schwartz
       提卡·森普特 Tika Sumpter
       伊德里斯·艾尔巴 Idris Elba
       娜塔莎·罗斯韦尔 Natasha Rothwell
       亚当·佩里 Adam Pally
       谢默·摩尔 Shemar Moore
       李·马贾道布 Lee Majdoub
       科琳·欧肖内希 Colleen O'Shaughnessey
       梅洛德·诺西普·尼曼 Melody Nosipho Niemann
       汤姆·巴特勒 Tom Butler
       布拉德·卡利利莫库 Brad Kalilimoku
       杰夫·桑卡 Jeff Sanca
       伊丽莎白·鲍恩 Elizabeth Bowen
       多恩·列夫 Don Lew
       里斯·威廉姆斯 Rhys Williams
       西蒙·钱 Simon Chin
       弗雷泽·科比特 Fraser Corbett
       奎因·厄利 Quinn Early
       马库斯·奥雷里奥 Marcus Aurelio
       尼托·拉里奥萨 Nito Larioza
       迈克·鲁菲诺 Mike Rufino
       詹姆斯·兰索恩 James Ransone
       琼基·XL Junkie XL
◎简  介

  索尼克在绿丘镇安顿下来之后,就急着要证明自己有能力成为一名真正的英雄。当蛋头博士带着全新的搭档纳克鲁斯,又回来寻找一块力量强大足以毁灭人类文明的翡翠的时候,他就面对了另一个严峻的考验。这次索尼克和他自己的跟班塔尔斯携手合作,一起踏上一场环游世界的冒险旅程,希望能在那块翡翠落入坏人手中之前先找到它。
  1. Video
  2. ID                                       : 1
  3. Format                                   : HEVC
  4. Format/Info                              : High Efficiency Video Coding
  5. Format profile                           : Main [email protected]@High
  6. Codec ID                                 : V_MPEGH/ISO/HEVC
  7. Duration                                 : 2 h 2 min
  8. Bit rate                                 : 27.3 Mb/s
  9. Width                                    : 3 840 pixels
  10. Height                                   : 1 608 pixels
  11. Display aspect ratio                     : 2.40:1
  12. Frame rate mode                          : Constant
  13. Frame rate                               : 23.976 (24000/1001/189150) FPS
  14. Color space                              : YUV
  15. Chroma subsampling                       : 4:2:0
  16. Bit depth                                : 10 bits
  17. Bits/(Pixel*Frame)                       : 0.185
  18. Stream size                              : 23.3 GiB (73%)
  19. Writing library                          : x265 3.0ed72af837053:[Windows][GCC 8.2.0][64 bit] 10bit
  20. Encoding settings                        : cpuid=1111039 / frame-threads=6 / numa-pools=40 / wpp / no-pmode / no-pme / no-psnr / no-ssim / log-level=2 / input-csp=1 / input-res=3840x1608 / interlace=0 / total-frames=175956 / level-idc=51 / high-tier=1 / uhd-bd=0 / ref=3 / no-allow-non-conformance / repeat-headers / annexb / aud / hrd / info / hash=0 / no-temporal-layers / no-open-gop / min-keyint=1 / keyint=24 / gop-lookahead=0 / bframes=4 / b-adapt=2 / b-pyramid / bframe-bias=0 / rc-lookahead=25 / lookahead-slices=4 / scenecut=40 / radl=0 / no-splice / no-intra-refresh / ctu=64 / min-cu-size=8 / no-rect / no-amp / max-tu-size=32 / tu-inter-depth=1 / tu-intra-depth=1 / limit-tu=0 / rdoq-level=0 / dynamic-rd=0.00 / no-ssim-rd / signhide / no-tskip / nr-intra=0 / nr-inter=0 / no-constrained-intra / strong-intra-smoothing / max-merge=2 / limit-refs=3 / no-limit-modes / me=1 / subme=2 / merange=57 / temporal-mvp / weightp / no-weightb / no-analyze-src-pics / deblock=0:0 / no-sao / no-sao-non-deblock / rd=3 / no-early-skip / rskip / no-fast-intra / no-tskip-fast / no-cu-lossless / no-b-intra / no-splitrd-skip / rdpenalty=0 / psy-rd=2.00 / psy-rdoq=0.00 / no-rd-refine / no-lossless / cbqpoffs=0 / crqpoffs=0 / rc=crf / crf=16.0 / qcomp=0.60 / qpstep=4 / stats-write=0 / stats-read=0 / vbv-maxrate=160000 / vbv-bufsize=160000 / vbv-init=0.9 / crf-max=0.0 / crf-min=0.0 / ipratio=1.40 / pbratio=1.30 / aq-mode=1 / aq-strength=1.00 / cutree / zone-count=0 / no-strict-cbr / qg-size=32 / no-rc-grain / qpmax=69 / qpmin=0 / no-const-vbv / sar=1 / overscan=0 / videoformat=5 / range=0 / colorprim=2 / transfer=2 / colormatrix=2 / chromaloc=0 / display-window=0 / max-cll=0,0 / min-luma=0 / max-luma=1023 / log2-max-poc-lsb=8 / vui-timing-info / vui-hrd-info / slices=1 / opt-qp-pps / opt-ref-list-length-pps / no-multi-pass-opt-rps / scenecut-bias=0.05 / no-opt-cu-delta-qp / no-aq-motion / no-hdr / no-hdr-opt / no-dhdr10-opt / no-idr-recovery-sei / analysis-reuse-level=5 / scale-factor=0 / refine-intra=0 / refine-inter=0 / refine-mv=0 / refine-ctu-distortion=0 / no-limit-sao / ctu-info=0 / no-lowpass-dct / refine-analysis-type=0 / copy-pic=1 / max-ausize-factor=1.0 / no-dynamic-refine / no-single-sei / no-hevc-aq / qp-adaptation-range=1.00
  21. Default                                  : Yes
  22. Forced                                   : No
  23. Audio #1
  24. ID                                       : 2
  25. ID in the original source medium         : 4352 (0x1100)
  26. Format                                   : MLP FBA 16-ch
  27. Format/Info                              : Meridian Lossless Packing FBA with 16-channel presentation
  28. Commercial name                          : Dolby TrueHD with Dolby Atmos
  29. Codec ID                                 : A_TRUEHD
  30. Duration                                 : 2 h 2 min
  31. Bit rate mode                            : Variable
  32. Bit rate                                 : 4 873 kb/s
  33. Maximum bit rate                         : 8 142 kb/s
  34. Channel(s)                               : 8 channels
  35. Channel layout                           : L R C LFE Ls Rs Lb Rb
  36. Sampling rate                            : 48.0 kHz
  37. Frame rate                               : 1 200.000 FPS (40 SPF)
  38. Bit depth                                : 24 bits
  39. Compression mode                         : Lossless
  40. Stream size                              : 4.16 GiB (13%)
  41. Title                                    : TrueHD 7.1 Atmos
  42. Language                                 : English
  43. Default                                  : Yes
  44. Forced                                   : No
  45. Original source medium                   : Blu-ray
  46. Number of dynamic objects                : 11
  47. Bed channel count                        : 1 channel
  48. Bed channel configuration                : LFE
  49. Audio #2
  50. ID                                       : 3
  51. Format                                   : DTS XLL
  52. Format/Info                              : Digital Theater Systems
  53. Commercial name                          : DTS-HD Master Audio
  54. Codec ID                                 : A_DTS
  55. Duration                                 : 2 h 2 min
  56. Bit rate mode                            : Variable
  57. Bit rate                                 : 4 282 kb/s
  58. Channel(s)                               : 8 channels
  59. Channel layout                           : C L R LFE Lb Rb Lss Rss
  60. Sampling rate                            : 48.0 kHz
  61. Frame rate                               : 93.750 FPS (512 SPF)
  62. Bit depth                                : 24 bits
  63. Compression mode                         : Lossless
  64. Stream size                              : 3.66 GiB (11%)
  65. Title                                    : DTS-HD MA 7.1
  66. Language                                 : English
  67. Default                                  : No
  68. Forced                                   : No
  69. Audio #3
  70. ID                                       : 4
  71. ID in the original source medium         : 4352 (0x1100)
  72. Format                                   : AC-3
  73. Format/Info                              : Audio Coding 3
  74. Commercial name                          : Dolby Digital
  75. Format settings                          : Dolby Surround EX
  76. Codec ID                                 : A_AC3
  77. Duration                                 : 2 h 2 min
  78. Bit rate mode                            : Constant
  79. Bit rate                                 : 640 kb/s
  80. Channel(s)                               : 6 channels
  81. Channel layout                           : L R C LFE Ls Rs
  82. Sampling rate                            : 48.0 kHz
  83. Frame rate                               : 31.250 FPS (1536 SPF)
  84. Compression mode                         : Lossy
  85. Stream size                              : 560 MiB (2%)
  86. Title                                    : DD 5.1
  87. Language                                 : English
  88. Service kind                             : Complete Main
  89. Default                                  : No
  90. Forced                                   : No
  91. Original source medium                   : Blu-ray
  92. Text #1
  93. ID                                       : 5
  94. Format                                   : UTF-8
  95. Codec ID                                 : S_TEXT/UTF8
  96. Codec ID/Info                            : UTF-8 Plain Text
  97. Duration                                 : 42 min 25 s
  98. Bit rate                                 : 0 b/s
  99. Frame rate                               : 0.003 FPS
  100. Count of elements                        : 7
  101. Stream size                              : 170 Bytes (0%)
  102. Title                                    : FORCED
  103. Language                                 : English
  104. Default                                  : No
  105. Forced                                   : Yes
  106. Text #2
  107. ID                                       : 6
  108. Format                                   : UTF-8
  109. Codec ID                                 : S_TEXT/UTF8
  110. Codec ID/Info                            : UTF-8 Plain Text
  111. Duration                                 : 1 h 52 min
  112. Bit rate                                 : 59 b/s
  113. Frame rate                               : 0.246 FPS
  114. Count of elements                        : 1655
  115. Stream size                              : 48.8 KiB (0%)
  116. Language                                 : English
  117. Default                                  : Yes
  118. Forced                                   : No
  119. Text #3
  120. ID                                       : 7
  121. Format                                   : UTF-8
  122. Codec ID                                 : S_TEXT/UTF8
  123. Codec ID/Info                            : UTF-8 Plain Text
  124. Duration                                 : 1 h 52 min
  125. Bit rate                                 : 67 b/s
  126. Frame rate                               : 0.295 FPS
  127. Count of elements                        : 1985
  128. Stream size                              : 55.7 KiB (0%)
  129. Title                                    : SDH
  130. Language                                 : English
  131. Default                                  : No
  132. Forced                                   : No
  133. Text #4
  134. ID                                       : 8
  135. ID in the original source medium         : 4768 (0x12A0)
  136. Format                                   : PGS
  137. Muxing mode                              : zlib
  138. Codec ID                                 : S_HDMV/PGS
  139. Codec ID/Info                            : Picture based subtitle format used on BDs/HD-DVDs
  140. Duration                                 : 1 h 52 min
  141. Bit rate                                 : 37.3 kb/s
  142. Frame rate                               : 0.407 FPS
  143. Count of elements                        : 2736
  144. Stream size                              : 29.9 MiB (0%)
  145. Language                                 : English
  146. Default                                  : No
  147. Forced                                   : No
  148. Original source medium                   : Blu-ray
  149. Text #5
  150. ID                                       : 9
  151. ID in the original source medium         : 4768 (0x12A0)
  152. Format                                   : PGS
  153. Muxing mode                              : zlib
  154. Codec ID                                 : S_HDMV/PGS
  155. Codec ID/Info                            : Picture based subtitle format used on BDs/HD-DVDs
  156. Duration                                 : 42 min 25 s
  157. Bit rate                                 : 264 b/s
  158. Frame rate                               : 0.006 FPS
  159. Count of elements                        : 14
  160. Stream size                              : 82.2 KiB (0%)
  161. Title                                    : FORCED
  162. Language                                 : English
  163. Default                                  : No
  164. Forced                                   : No
  165. Original source medium                   : Blu-ray
  166. Text #6
  167. ID                                       : 10
  168. ID in the original source medium         : 4769 (0x12A1)
  169. Format                                   : PGS
  170. Muxing mode                              : zlib
  171. Codec ID                                 : S_HDMV/PGS
  172. Codec ID/Info                            : Picture based subtitle format used on BDs/HD-DVDs
  173. Duration                                 : 1 h 52 min
  174. Bit rate                                 : 48.0 kb/s
  175. Frame rate                               : 0.595 FPS
  176. Count of elements                        : 3998
  177. Stream size                              : 38.4 MiB (0%)
  178. Title                                    : SDH
  179. Language                                 : English
  180. Default                                  : No
  181. Forced                                   : No
  182. Original source medium                   : Blu-ray
  183. Text #7
  184. ID                                       : 11
  185. ID in the original source medium         : 4770 (0x12A2)
  186. Format                                   : PGS
  187. Muxing mode                              : zlib
  188. Codec ID                                 : S_HDMV/PGS
  189. Codec ID/Info                            : Picture based subtitle format used on BDs/HD-DVDs
  190. Duration                                 : 2 h 1 min
  191. Bit rate                                 : 29.4 kb/s
  192. Frame rate                               : 0.352 FPS
  193. Count of elements                        : 2564
  194. Stream size                              : 25.5 MiB (0%)
  195. Language                                 : Danish
  196. Default                                  : No
  197. Forced                                   : No
  198. Original source medium                   : Blu-ray
  199. Text #8
  200. ID                                       : 12
  201. ID in the original source medium         : 4771 (0x12A3)
  202. Format                                   : PGS
  203. Muxing mode                              : zlib
  204. Codec ID                                 : S_HDMV/PGS
  205. Codec ID/Info                            : Picture based subtitle format used on BDs/HD-DVDs
  206. Duration                                 : 2 h 1 min
  207. Bit rate                                 : 34.5 kb/s
  208. Frame rate                               : 0.378 FPS
  209. Count of elements                        : 2756
  210. Stream size                              : 29.9 MiB (0%)
  211. Language                                 : Spanish
  212. Default                                  : No
  213. Forced                                   : No
  214. Original source medium                   : Blu-ray
  215. Text #9
  216. ID                                       : 13
  217. ID in the original source medium         : 4772 (0x12A4)
  218. Format                                   : PGS
  219. Muxing mode                              : zlib
  220. Codec ID                                 : S_HDMV/PGS
  221. Codec ID/Info                            : Picture based subtitle format used on BDs/HD-DVDs
  222. Duration                                 : 2 h 1 min
  223. Bit rate                                 : 32.1 kb/s
  224. Frame rate                               : 0.362 FPS
  225. Count of elements                        : 2638
  226. Stream size                              : 27.9 MiB (0%)
  227. Language                                 : Spanish
  228. Default                                  : No
  229. Forced                                   : No
  230. Original source medium                   : Blu-ray
  231. Text #10
  232. ID                                       : 14
  233. ID in the original source medium         : 4773 (0x12A5)
  234. Format                                   : PGS
  235. Muxing mode                              : zlib
  236. Codec ID                                 : S_HDMV/PGS
  237. Codec ID/Info                            : Picture based subtitle format used on BDs/HD-DVDs
  238. Duration                                 : 2 h 1 min
  239. Bit rate                                 : 30.3 kb/s
  240. Frame rate                               : 0.361 FPS
  241. Count of elements                        : 2630
  242. Stream size                              : 26.3 MiB (0%)
  243. Language                                 : French
  244. Default                                  : No
  245. Forced                                   : No
  246. Original source medium                   : Blu-ray
  247. Text #11
  248. ID                                       : 15
  249. ID in the original source medium         : 4774 (0x12A6)
  250. Format                                   : PGS
  251. Muxing mode                              : zlib
  252. Codec ID                                 : S_HDMV/PGS
  253. Codec ID/Info                            : Picture based subtitle format used on BDs/HD-DVDs
  254. Duration                                 : 2 h 1 min
  255. Bit rate                                 : 34.1 kb/s
  256. Frame rate                               : 0.381 FPS
  257. Count of elements                        : 2776
  258. Stream size                              : 29.6 MiB (0%)
  259. Language                                 : French
  260. Default                                  : No
  261. Forced                                   : No
  262. Original source medium                   : Blu-ray
  263. Text #12
  264. ID                                       : 16
  265. ID in the original source medium         : 4775 (0x12A7)
  266. Format                                   : PGS
  267. Muxing mode                              : zlib
  268. Codec ID                                 : S_HDMV/PGS
  269. Codec ID/Info                            : Picture based subtitle format used on BDs/HD-DVDs
  270. Duration                                 : 2 h 1 min
  271. Bit rate                                 : 29.7 kb/s
  272. Frame rate                               : 0.372 FPS
  273. Count of elements                        : 2706
  274. Stream size                              : 25.8 MiB (0%)
  275. Language                                 : Norwegian
  276. Default                                  : No
  277. Forced                                   : No
  278. Original source medium                   : Blu-ray
  279. Text #13
  280. ID                                       : 17
  281. ID in the original source medium         : 4776 (0x12A8)
  282. Format                                   : PGS
  283. Muxing mode                              : zlib
  284. Codec ID                                 : S_HDMV/PGS
  285. Codec ID/Info                            : Picture based subtitle format used on BDs/HD-DVDs
  286. Duration                                 : 2 h 1 min
  287. Bit rate                                 : 27.7 kb/s
  288. Frame rate                               : 0.370 FPS
  289. Count of elements                        : 2698
  290. Stream size                              : 24.1 MiB (0%)
  291. Language                                 : Finnish
  292. Default                                  : No
  293. Forced                                   : No
  294. Original source medium                   : Blu-ray
  295. Text #14
  296. ID                                       : 18
  297. ID in the original source medium         : 4777 (0x12A9)
  298. Format                                   : PGS
  299. Muxing mode                              : zlib
  300. Codec ID                                 : S_HDMV/PGS
  301. Codec ID/Info                            : Picture based subtitle format used on BDs/HD-DVDs
  302. Duration                                 : 2 h 1 min
  303. Bit rate                                 : 30.2 kb/s
  304. Frame rate                               : 0.349 FPS
  305. Count of elements                        : 2542
  306. Stream size                              : 26.3 MiB (0%)
  307. Language                                 : Swedish
  308. Default                                  : No
  309. Forced                                   : No
  310. Original source medium                   : Blu-ray
  311. Menu
  312. 00:00:00.000                             : en:Chapter 01
  313. 00:05:54.187                             : en:Chapter 02
  314. 00:09:59.515                             : en:Chapter 03
  315. 00:16:32.950                             : en:Chapter 04
  316. 00:20:58.715                             : en:Chapter 05
  317. 00:28:05.475                             : en:Chapter 06
  318. 00:34:19.932                             : en:Chapter 07
  319. 00:39:09.889                             : en:Chapter 08
  320. 00:48:24.902                             : en:Chapter 09
  321. 00:58:32.300                             : en:Chapter 10
  322. 01:04:57.685                             : en:Chapter 11
  323. 01:11:02.049                             : en:Chapter 12
  324. 01:16:09.356                             : en:Chapter 13
  325. 01:26:59.672                             : en:Chapter 14
  326. 01:32:31.837                             : en:Chapter 15
  327. 01:40:45.831                             : en:Chapter 16
  328. 01:48:21.661                             : en:Chapter 17
  329. 01:53:56.079                             : en:Chapter 18
复制代码








                                       
                                       

                                       
                                       
                                       




刺猬索尼克2 Sonic.the.Hedgehog.2.2022.2160p.BluRay.x265.10bit.SDR.DTS-HD.MA.TrueHD.7.1.Atmos-SWTYBLZ 32.01GB

Sonic.the.Hedgehog.2.2022.2160p.BluRay.x265.10bit.SDR.DTS-HD.MA.TrueHD.7.1.Atmos.torrent

40.77 KB, 下载次数: 0, 下载积分: 蓝光币 -2

回复

使用道具 举报

您需要登录后才可以回帖 登录 | 立即注册

本版积分规则

QQ|Archiver|手机版|小黑屋|蓝光电影网

GMT+8, 2022-8-8 17:56 , Processed in 0.054164 second(s), 28 queries .

Powered by Discuz! X3.4

Copyright © 2001-2020, Tencent Cloud.

快速回复 返回顶部 返回列表