找回密码
 立即注册

QQ登录

只需一步,快速开始

查看: 22|回复: 0

[其他] 鬼驱人 Poltergeist.2015.EXTENDED.2160p.WEB-DL.x265.10bit.HDR10Plus.DTS-HD.MA.7.1-NOGRP 14.50GB

[复制链接]

0

精华

0

好友

2

听众

新手上路

Rank: 2

蓝光币
5
发表于 3 天前 | 显示全部楼层 |阅读模式


◎标  题 鬼驱人
◎译  名 凶灵入侵 / 鬼哭神嚎:恶灵15(台) / 吵闹鬼
◎片  名 Poltergeist
◎年  代 2015
◎产  地 美国
◎类  别 惊悚 / 恐怖
◎语  言 英语
◎上映日期 2015-05-22(美国)
◎IMDb评分 4.9/10 (57029人评价)
◎IMDb链接 https://www.imdb.com/title/tt1029360/
◎豆瓣评分 5.4/10 (3720人评价)
◎豆瓣链接 https://movie.douban.com/subject/3012031/
◎片  长 93分钟
◎导  演 吉尔·克兰 Gil Kenan
◎编  剧 大卫·林赛-阿贝尔 David Lindsay-Abaire
       史蒂文·斯皮尔伯格 Steven Spielberg
◎演  员 山姆·洛克威尔 Sam Rockwell
       罗丝玛丽·德薇特 Rosemarie DeWitt
       萨克斯·沙比诺 Saxon Sharbino
       凯尔·凯特莱特 Kyle Catlett
       肯尼迪·克莱蒙兹 Kennedi Clements
       杰瑞德·哈里斯 Jared Harris
       简·亚当斯 Jane Adams
       苏珊·海沃德 Susan Heyward
       尼可拉斯·博朗 Nicholas Braun
       凯伦·伊万尼 Karen Ivany
       帕特里克·加洛 Patrick Garrow
       多米妮克·邓恩 Dominique Dunne
       道格·麦克劳德 Doug MacLeod
◎标  签 恐怖 / 美国 / 惊悚 / 灵异 / 2015 / 恐怖片 / 翻拍 / 悬疑
◎简  介

    埃里克·鲍恩先生(山姆·洛克威尔 Sam Rockwell 饰)一家五口搬进一所乡间别墅,却赫然发现这所房子是个幽灵盘据的鬼屋。随着时间的推移,房子里可怕的幽灵也开始对他们展开一系列攻击,甚至俘虏他们的小女儿麦迪逊(肯尼迪·克莱蒙兹 Kennedi Clements 饰 ),让她完全消失在电视机中,女孩心急如焚的父母,最后只好求助于超自然现象专家布洛克·鲍威尔博士(简·亚当斯 Jane Adams 饰),想尽办法要找回心爱的女儿……
  1. Video
  2. ID                                       : 1
  3. Format                                   : HEVC
  4. Format/Info                              : High Efficiency Video Coding
  5. Format profile                           : Main [email protected]@Main
  6. HDR format                               : SMPTE ST 2094 App 4, Version 1, HDR10+ Profile B compatible
  7. Codec ID                                 : V_MPEGH/ISO/HEVC
  8. Duration                                 : 1 h 40 min
  9. Bit rate                                 : 14.8 Mb/s
  10. Width                                    : 3 840 pixels
  11. Height                                   : 1 600 pixels
  12. Display aspect ratio                     : 2.40:1
  13. Frame rate mode                          : Constant
  14. Frame rate                               : 23.976 (24000/1001/189150) FPS
  15. Color space                              : YUV
  16. Chroma subsampling                       : 4:2:0
  17. Bit depth                                : 10 bits
  18. Bits/(Pixel*Frame)                       : 0.101
  19. Stream size                              : 10.4 GiB (72%)
  20. Default                                  : Yes
  21. Forced                                   : No
  22. Color range                              : Limited
  23. Color primaries                          : BT.2020
  24. Transfer characteristics                 : PQ
  25. Matrix coefficients                      : BT.2020 non-constant
  26. Mastering display color primaries        : Display P3
  27. Mastering display luminance              : min: 0.0050 cd/m2, max: 1000 cd/m2
  28. Audio #1
  29. ID                                       : 2
  30. Format                                   : DTS ES XLL
  31. Format/Info                              : Digital Theater Systems
  32. Commercial name                          : DTS-HD Master Audio
  33. Codec ID                                 : A_DTS
  34. Duration                                 : 1 h 40 min
  35. Bit rate mode                            : Variable
  36. Bit rate                                 : 5 111 kb/s
  37. Channel(s)                               : 8 channels
  38. Channel layout                           : C L R Ls Rs LFE Lb Rb
  39. Sampling rate                            : 48.0 kHz
  40. Frame rate                               : 93.750 FPS (512 SPF)
  41. Bit depth                                : 24 bits
  42. Compression mode                         : Lossless
  43. Delay relative to video                  : 2 ms
  44. Stream size                              : 3.60 GiB (25%)
  45. Title                                    : DTS-HD MA 7.1
  46. Language                                 : English
  47. Default                                  : Yes
  48. Forced                                   : No
  49. Audio #2
  50. ID                                       : 3
  51. Format                                   : AC-3
  52. Format/Info                              : Audio Coding 3
  53. Commercial name                          : Dolby Digital
  54. Codec ID                                 : A_AC3
  55. Duration                                 : 1 h 40 min
  56. Bit rate mode                            : Constant
  57. Bit rate                                 : 640 kb/s
  58. Channel(s)                               : 6 channels
  59. Channel layout                           : L R C LFE Ls Rs
  60. Sampling rate                            : 48.0 kHz
  61. Frame rate                               : 31.250 FPS (1536 SPF)
  62. Compression mode                         : Lossy
  63. Stream size                              : 462 MiB (3%)
  64. Title                                    : DD 5.1
  65. Language                                 : English
  66. Service kind                             : Complete Main
  67. Default                                  : No
  68. Forced                                   : No
  69. Text #1
  70. ID                                       : 4
  71. Format                                   : UTF-8
  72. Codec ID                                 : S_TEXT/UTF8
  73. Codec ID/Info                            : UTF-8 Plain Text
  74. Duration                                 : 1 h 34 min
  75. Bit rate                                 : 52 b/s
  76. Frame rate                               : 0.241 FPS
  77. Count of elements                        : 1369
  78. Stream size                              : 36.5 KiB (0%)
  79. Language                                 : English
  80. Default                                  : Yes
  81. Forced                                   : No
  82. Text #2
  83. ID                                       : 5
  84. Format                                   : UTF-8
  85. Codec ID                                 : S_TEXT/UTF8
  86. Codec ID/Info                            : UTF-8 Plain Text
  87. Duration                                 : 1 h 39 min
  88. Bit rate                                 : 56 b/s
  89. Frame rate                               : 0.261 FPS
  90. Count of elements                        : 1556
  91. Stream size                              : 40.8 KiB (0%)
  92. Title                                    : SDH
  93. Language                                 : English
  94. Default                                  : No
  95. Forced                                   : No
  96. Text #3
  97. ID                                       : 6
  98. Format                                   : UTF-8
  99. Codec ID                                 : S_TEXT/UTF8
  100. Codec ID/Info                            : UTF-8 Plain Text
  101. Duration                                 : 1 h 39 min
  102. Bit rate                                 : 48 b/s
  103. Frame rate                               : 0.210 FPS
  104. Count of elements                        : 1251
  105. Stream size                              : 35.2 KiB (0%)
  106. Language                                 : Danish
  107. Default                                  : No
  108. Forced                                   : No
  109. Text #4
  110. ID                                       : 7
  111. Format                                   : UTF-8
  112. Codec ID                                 : S_TEXT/UTF8
  113. Codec ID/Info                            : UTF-8 Plain Text
  114. Duration                                 : 1 h 39 min
  115. Bit rate                                 : 47 b/s
  116. Frame rate                               : 0.210 FPS
  117. Count of elements                        : 1249
  118. Stream size                              : 34.7 KiB (0%)
  119. Language                                 : German
  120. Default                                  : No
  121. Forced                                   : No
  122. Text #5
  123. ID                                       : 8
  124. Format                                   : UTF-8
  125. Codec ID                                 : S_TEXT/UTF8
  126. Codec ID/Info                            : UTF-8 Plain Text
  127. Duration                                 : 1 h 39 min
  128. Bit rate                                 : 48 b/s
  129. Frame rate                               : 0.209 FPS
  130. Count of elements                        : 1243
  131. Stream size                              : 34.9 KiB (0%)
  132. Language                                 : Spanish
  133. Default                                  : No
  134. Forced                                   : No
  135. Text #6
  136. ID                                       : 9
  137. Format                                   : UTF-8
  138. Codec ID                                 : S_TEXT/UTF8
  139. Codec ID/Info                            : UTF-8 Plain Text
  140. Duration                                 : 1 h 39 min
  141. Bit rate                                 : 48 b/s
  142. Frame rate                               : 0.200 FPS
  143. Count of elements                        : 1191
  144. Stream size                              : 35.1 KiB (0%)
  145. Language                                 : Spanish
  146. Default                                  : No
  147. Forced                                   : No
  148. Text #7
  149. ID                                       : 10
  150. Format                                   : UTF-8
  151. Codec ID                                 : S_TEXT/UTF8
  152. Codec ID/Info                            : UTF-8 Plain Text
  153. Duration                                 : 1 h 39 min
  154. Bit rate                                 : 38 b/s
  155. Frame rate                               : 0.207 FPS
  156. Count of elements                        : 1231
  157. Stream size                              : 27.7 KiB (0%)
  158. Language                                 : Finnish
  159. Default                                  : No
  160. Forced                                   : No
  161. Text #8
  162. ID                                       : 11
  163. Format                                   : UTF-8
  164. Codec ID                                 : S_TEXT/UTF8
  165. Codec ID/Info                            : UTF-8 Plain Text
  166. Duration                                 : 1 h 39 min
  167. Bit rate                                 : 39 b/s
  168. Frame rate                               : 0.181 FPS
  169. Count of elements                        : 1079
  170. Stream size                              : 28.4 KiB (0%)
  171. Language                                 : French
  172. Default                                  : No
  173. Forced                                   : No
  174. Text #9
  175. ID                                       : 12
  176. Format                                   : UTF-8
  177. Codec ID                                 : S_TEXT/UTF8
  178. Codec ID/Info                            : UTF-8 Plain Text
  179. Duration                                 : 1 h 39 min
  180. Bit rate                                 : 49 b/s
  181. Frame rate                               : 0.210 FPS
  182. Count of elements                        : 1250
  183. Stream size                              : 35.9 KiB (0%)
  184. Language                                 : French
  185. Default                                  : No
  186. Forced                                   : No
  187. Text #10
  188. ID                                       : 13
  189. Format                                   : UTF-8
  190. Codec ID                                 : S_TEXT/UTF8
  191. Codec ID/Info                            : UTF-8 Plain Text
  192. Duration                                 : 1 h 39 min
  193. Bit rate                                 : 45 b/s
  194. Frame rate                               : 0.210 FPS
  195. Count of elements                        : 1250
  196. Stream size                              : 33.3 KiB (0%)
  197. Language                                 : Italian
  198. Default                                  : No
  199. Forced                                   : No
  200. Text #11
  201. ID                                       : 14
  202. Format                                   : UTF-8
  203. Codec ID                                 : S_TEXT/UTF8
  204. Codec ID/Info                            : UTF-8 Plain Text
  205. Duration                                 : 1 h 39 min
  206. Bit rate                                 : 37 b/s
  207. Frame rate                               : 0.156 FPS
  208. Count of elements                        : 927
  209. Stream size                              : 27.5 KiB (0%)
  210. Language                                 : Dutch
  211. Default                                  : No
  212. Forced                                   : No
  213. Text #12
  214. ID                                       : 15
  215. Format                                   : UTF-8
  216. Codec ID                                 : S_TEXT/UTF8
  217. Codec ID/Info                            : UTF-8 Plain Text
  218. Duration                                 : 1 h 39 min
  219. Bit rate                                 : 42 b/s
  220. Frame rate                               : 0.172 FPS
  221. Count of elements                        : 1024
  222. Stream size                              : 31.0 KiB (0%)
  223. Language                                 : Norwegian
  224. Default                                  : No
  225. Forced                                   : No
  226. Text #13
  227. ID                                       : 16
  228. Format                                   : UTF-8
  229. Codec ID                                 : S_TEXT/UTF8
  230. Codec ID/Info                            : UTF-8 Plain Text
  231. Duration                                 : 1 h 39 min
  232. Bit rate                                 : 42 b/s
  233. Frame rate                               : 0.208 FPS
  234. Count of elements                        : 1235
  235. Stream size                              : 30.7 KiB (0%)
  236. Language                                 : Portuguese
  237. Default                                  : No
  238. Forced                                   : No
  239. Text #14
  240. ID                                       : 17
  241. Format                                   : UTF-8
  242. Codec ID                                 : S_TEXT/UTF8
  243. Codec ID/Info                            : UTF-8 Plain Text
  244. Duration                                 : 1 h 39 min
  245. Bit rate                                 : 41 b/s
  246. Frame rate                               : 0.210 FPS
  247. Count of elements                        : 1251
  248. Stream size                              : 30.3 KiB (0%)
  249. Language                                 : Swedish
  250. Default                                  : No
  251. Forced                                   : No
  252. Text #15
  253. ID                                       : 18
  254. Format                                   : UTF-8
  255. Codec ID                                 : S_TEXT/UTF8
  256. Codec ID/Info                            : UTF-8 Plain Text
  257. Duration                                 : 1 h 39 min
  258. Bit rate                                 : 51 b/s
  259. Frame rate                               : 0.211 FPS
  260. Count of elements                        : 1254
  261. Stream size                              : 37.1 KiB (0%)
  262. Language                                 : Turkish
  263. Default                                  : No
  264. Forced                                   : No
  265. Menu
  266. 00:00:00.000                             : en:00:00:00.000
  267. 00:04:56.338                             : en:00:04:57.339
  268. 00:09:54.928                             : en:00:09:55.929
  269. 00:16:25.443                             : en:00:16:26.444
  270. 00:20:30.729                             : en:00:20:31.730
  271. 00:22:33.227                             : en:00:22:34.228
  272. 00:26:30.005                             : en:00:26:31.006
  273. 00:30:00.882                             : en:00:30:01.883
  274. 00:35:05.353                             : en:00:35:06.354
  275. 00:37:26.661                             : en:00:37:27.662
  276. 00:41:40.623                             : en:00:41:41.624
  277. 00:46:54.103                             : en:00:46:55.104
  278. 00:49:55.617                             : en:00:49:56.618
  279. 00:53:40.133                             : en:00:53:41.134
  280. 01:00:07.479                             : en:01:00:08.480
  281. 01:04:27.322                             : en:01:04:28.323
  282. 01:06:41.497                             : en:01:06:42.498
  283. 01:09:38.591                             : en:01:09:39.592
  284. 01:12:36.352                             : en:01:12:37.353
  285. 01:16:05.185                             : en:01:16:06.186
  286. 01:19:35.562                             : en:01:19:36.563
  287. 01:25:22.075                             : en:01:25:23.076
  288. 01:29:55.557                             : en:01:29:56.558
  289. 01:35:00.778                             : en:01:35:01.779
复制代码




                                       
                                       

                                       
                                       
                                       




Poltergeist.2015.EXTENDED.2160p.WEB-DL.x265.10bit.HDR10Plus.DTS-HD.MA.7.1-NOGRP.torrent (18.81 KB, 下载次数: 0)
回复

使用道具 举报

您需要登录后才可以回帖 登录 | 立即注册

本版积分规则

QQ|Archiver|手机版|小黑屋|蓝光电影网

GMT+8, 2022-8-8 18:57 , Processed in 0.053645 second(s), 28 queries .

Powered by Discuz! X3.4

Copyright © 2001-2020, Tencent Cloud.

快速回复 返回顶部 返回列表