找回密码
 立即注册

QQ登录

只需一步,快速开始

查看: 33|回复: 0

[其他] 光年正传 Lightyear.2022.IMAX.2160p.DSNP.WEB-DL.x265.10bit.HDR.DDP5.1.Atmos-KOGi 12.73GB

[复制链接]

0

精华

0

好友

2

听众

新手上路

Rank: 2

蓝光币
5
发表于 4 天前 | 显示全部楼层 |阅读模式


◎标  题 光年正传
◎译  名 巴斯光年
◎片  名 Lightyear
◎年  代 2022
◎产  地 美国
◎类  别 科幻 / 动画 / 冒险
◎语  言 英语
◎上映日期 2022-06-15(意大利) / 2022-06-17(美国)
◎IMDb评分 5.2/10 (23253人评价)
◎IMDb链接 https://www.imdb.com/title/tt10298810/
◎豆瓣评分 7.3/10 (837人评价)
◎豆瓣链接 https://movie.douban.com/subject/35284168/
◎片  长 110分钟
◎导  演 安格斯·麦克莱恩 Angus MacLane
◎编  剧 安格斯·麦克莱恩 Angus MacLane
       杰森·赫德利 Jason Headley
       马修·奥尔德里奇 Matthew Aldrich
       彼特·道格特 Pete Docter
       安德鲁·斯坦顿 Andrew Stanton
       乔·兰福特 Joe Ranft
       约翰·拉塞特 John Lasseter
◎演  员 克里斯·埃文斯 Chris Evans
       柯柯·帕尔莫 Keke Palmer
       彼得·孙 Peter Sohn
       塔伊加·维迪提 Taika Waititi
       戴尔·索尔斯 Dale Soules
       詹姆斯·布洛林 James Brolin
       乌佐·阿杜巴 Uzo Aduba
       玛丽·麦克唐纳-刘易斯 Mary McDonald-Lewis
       小伊塞亚·维特洛克 Isiah Whitlock Jr.
       安格斯·麦克莱恩 Angus MacLane
       比尔·哈德尔 Bill Hader
       艾弗连·莱米雷斯 Efren Ramirez
       凯拉·海斯顿 Keira Hairston
◎简  介

  皮克斯打造《玩具总动员》系列衍生动画电影《光年正传》,美队Chris Evans配音。讲述巴斯光年人类原型宇航员的起源故事,他从一个年轻的试飞员,变为大家熟知的太空游侠。
  1. Video
  2. ID                                       : 1
  3. Format                                   : HEVC
  4. Format/Info                              : High Efficiency Video Coding
  5. Format profile                           : Main [email protected]@High
  6. HDR format                               : SMPTE ST 2086, HDR10 compatible
  7. Codec ID                                 : V_MPEGH/ISO/HEVC
  8. Duration                                 : 1 h 45 min
  9. Bit rate                                 : 16.6 Mb/s
  10. Width                                    : 3 840 pixels
  11. Height                                   : 2 160 pixels
  12. Display aspect ratio                     : 16:9
  13. Frame rate mode                          : Constant
  14. Frame rate                               : 23.976 (24000/1001/189150) FPS
  15. Color space                              : YUV
  16. Chroma subsampling                       : 4:2:0
  17. Bit depth                                : 10 bits
  18. Bits/(Pixel*Frame)                       : 0.083
  19. Stream size                              : 12.2 GiB (96%)
  20. Language                                 : English
  21. Default                                  : Yes
  22. Forced                                   : No
  23. Color range                              : Limited
  24. Color primaries                          : BT.2020
  25. Transfer characteristics                 : PQ
  26. Matrix coefficients                      : BT.2020 non-constant
  27. Mastering display color primaries        : BT.2020
  28. Mastering display luminance              : min: 0.0000 cd/m2, max: 1000 cd/m2
  29. Audio
  30. ID                                       : 2
  31. Format                                   : E-AC-3 JOC
  32. Format/Info                              : Enhanced AC-3 with Joint Object Coding
  33. Commercial name                          : Dolby Digital Plus with Dolby Atmos
  34. Codec ID                                 : A_EAC3
  35. Duration                                 : 1 h 45 min
  36. Bit rate mode                            : Constant
  37. Bit rate                                 : 768 kb/s
  38. Channel(s)                               : 6 channels
  39. Channel layout                           : L R C LFE Ls Rs
  40. Sampling rate                            : 48.0 kHz
  41. Frame rate                               : 31.250 FPS (1536 SPF)
  42. Compression mode                         : Lossy
  43. Stream size                              : 577 MiB (4%)
  44. Language                                 : English
  45. Service kind                             : Complete Main
  46. Default                                  : Yes
  47. Forced                                   : No
  48. Complexity index                         : 16
  49. Number of dynamic objects                : 15
  50. Bed channel count                        : 1 channel
  51. Bed channel configuration                : LFE
  52. Text #1
  53. ID                                       : 3
  54. Format                                   : UTF-8
  55. Codec ID                                 : S_TEXT/UTF8
  56. Codec ID/Info                            : UTF-8 Plain Text
  57. Duration                                 : 1 h 44 min
  58. Bit rate                                 : 80 b/s
  59. Frame rate                               : 0.330 FPS
  60. Count of elements                        : 2074
  61. Stream size                              : 61.7 KiB (0%)
  62. Title                                    : English (SDH)
  63. Language                                 : English
  64. Default                                  : No
  65. Forced                                   : No
  66. Text #2
  67. ID                                       : 4
  68. Format                                   : UTF-8
  69. Codec ID                                 : S_TEXT/UTF8
  70. Codec ID/Info                            : UTF-8 Plain Text
  71. Duration                                 : 1 h 43 min
  72. Bit rate                                 : 58 b/s
  73. Frame rate                               : 0.256 FPS
  74. Count of elements                        : 1584
  75. Stream size                              : 44.0 KiB (0%)
  76. Title                                    : ?e?tina
  77. Language                                 : Czech
  78. Default                                  : No
  79. Forced                                   : No
  80. Text #3
  81. ID                                       : 5
  82. Format                                   : UTF-8
  83. Codec ID                                 : S_TEXT/UTF8
  84. Codec ID/Info                            : UTF-8 Plain Text
  85. Duration                                 : 1 h 43 min
  86. Bit rate                                 : 57 b/s
  87. Frame rate                               : 0.175 FPS
  88. Count of elements                        : 1081
  89. Stream size                              : 43.7 KiB (0%)
  90. Title                                    : Dansk
  91. Language                                 : Danish
  92. Default                                  : No
  93. Forced                                   : No
  94. Text #4
  95. ID                                       : 6
  96. Format                                   : UTF-8
  97. Codec ID                                 : S_TEXT/UTF8
  98. Codec ID/Info                            : UTF-8 Plain Text
  99. Duration                                 : 1 h 43 min
  100. Bit rate                                 : 59 b/s
  101. Frame rate                               : 0.247 FPS
  102. Count of elements                        : 1529
  103. Stream size                              : 45.2 KiB (0%)
  104. Title                                    : Deutsch
  105. Language                                 : German
  106. Default                                  : No
  107. Forced                                   : No
  108. Text #5
  109. ID                                       : 7
  110. Format                                   : UTF-8
  111. Codec ID                                 : S_TEXT/UTF8
  112. Codec ID/Info                            : UTF-8 Plain Text
  113. Duration                                 : 1 h 43 min
  114. Bit rate                                 : 104 b/s
  115. Frame rate                               : 0.253 FPS
  116. Count of elements                        : 1566
  117. Stream size                              : 79.3 KiB (0%)
  118. Title                                    : Greek
  119. Language                                 : Greek
  120. Default                                  : No
  121. Forced                                   : No
  122. Text #6
  123. ID                                       : 8
  124. Format                                   : UTF-8
  125. Codec ID                                 : S_TEXT/UTF8
  126. Codec ID/Info                            : UTF-8 Plain Text
  127. Duration                                 : 1 h 43 min
  128. Bit rate                                 : 60 b/s
  129. Frame rate                               : 0.254 FPS
  130. Count of elements                        : 1569
  131. Stream size                              : 45.4 KiB (0%)
  132. Title                                    : Espa?ol
  133. Language                                 : Spanish
  134. Default                                  : No
  135. Forced                                   : No
  136. Text #7
  137. ID                                       : 9
  138. Format                                   : UTF-8
  139. Codec ID                                 : S_TEXT/UTF8
  140. Codec ID/Info                            : UTF-8 Plain Text
  141. Duration                                 : 1 h 43 min
  142. Bit rate                                 : 65 b/s
  143. Frame rate                               : 0.255 FPS
  144. Count of elements                        : 1577
  145. Stream size                              : 49.5 KiB (0%)
  146. Title                                    : Espa?ol (Latinoamericano)
  147. Language                                 : Spanish
  148. Default                                  : No
  149. Forced                                   : No
  150. Text #8
  151. ID                                       : 10
  152. Format                                   : UTF-8
  153. Codec ID                                 : S_TEXT/UTF8
  154. Codec ID/Info                            : UTF-8 Plain Text
  155. Duration                                 : 1 h 43 min
  156. Bit rate                                 : 63 b/s
  157. Frame rate                               : 0.255 FPS
  158. Count of elements                        : 1577
  159. Stream size                              : 47.9 KiB (0%)
  160. Title                                    : Suomi
  161. Language                                 : Finnish
  162. Default                                  : No
  163. Forced                                   : No
  164. Text #9
  165. ID                                       : 11
  166. Format                                   : UTF-8
  167. Codec ID                                 : S_TEXT/UTF8
  168. Codec ID/Info                            : UTF-8 Plain Text
  169. Duration                                 : 1 h 43 min
  170. Bit rate                                 : 69 b/s
  171. Frame rate                               : 0.255 FPS
  172. Count of elements                        : 1579
  173. Stream size                              : 52.2 KiB (0%)
  174. Title                                    : Fran?ais (Canadien)
  175. Language                                 : French
  176. Default                                  : No
  177. Forced                                   : No
  178. Text #10
  179. ID                                       : 12
  180. Format                                   : UTF-8
  181. Codec ID                                 : S_TEXT/UTF8
  182. Codec ID/Info                            : UTF-8 Plain Text
  183. Duration                                 : 1 h 43 min
  184. Bit rate                                 : 57 b/s
  185. Frame rate                               : 0.244 FPS
  186. Count of elements                        : 1510
  187. Stream size                              : 43.4 KiB (0%)
  188. Title                                    : Fran?ais
  189. Language                                 : French
  190. Default                                  : No
  191. Forced                                   : No
  192. Text #11
  193. ID                                       : 13
  194. Format                                   : UTF-8
  195. Codec ID                                 : S_TEXT/UTF8
  196. Codec ID/Info                            : UTF-8 Plain Text
  197. Duration                                 : 1 h 43 min
  198. Bit rate                                 : 63 b/s
  199. Frame rate                               : 0.255 FPS
  200. Count of elements                        : 1576
  201. Stream size                              : 48.3 KiB (0%)
  202. Title                                    : Magyar
  203. Language                                 : Hungarian
  204. Default                                  : No
  205. Forced                                   : No
  206. Text #12
  207. ID                                       : 14
  208. Format                                   : UTF-8
  209. Codec ID                                 : S_TEXT/UTF8
  210. Codec ID/Info                            : UTF-8 Plain Text
  211. Duration                                 : 1 h 43 min
  212. Bit rate                                 : 60 b/s
  213. Frame rate                               : 0.255 FPS
  214. Count of elements                        : 1577
  215. Stream size                              : 46.0 KiB (0%)
  216. Title                                    : íslenska
  217. Language                                 : Icelandic
  218. Default                                  : No
  219. Forced                                   : No
  220. Text #13
  221. ID                                       : 15
  222. Format                                   : UTF-8
  223. Codec ID                                 : S_TEXT/UTF8
  224. Codec ID/Info                            : UTF-8 Plain Text
  225. Duration                                 : 1 h 43 min
  226. Bit rate                                 : 59 b/s
  227. Frame rate                               : 0.254 FPS
  228. Count of elements                        : 1572
  229. Stream size                              : 44.8 KiB (0%)
  230. Title                                    : Italiano
  231. Language                                 : Italian
  232. Default                                  : No
  233. Forced                                   : No
  234. Text #14
  235. ID                                       : 16
  236. Format                                   : UTF-8
  237. Codec ID                                 : S_TEXT/UTF8
  238. Codec ID/Info                            : UTF-8 Plain Text
  239. Duration                                 : 1 h 43 min
  240. Bit rate                                 : 45 b/s
  241. Frame rate                               : 0.232 FPS
  242. Count of elements                        : 1433
  243. Stream size                              : 34.6 KiB (0%)
  244. Title                                    : Japanese
  245. Language                                 : Japanese
  246. Default                                  : No
  247. Forced                                   : No
  248. Text #15
  249. ID                                       : 17
  250. Format                                   : UTF-8
  251. Codec ID                                 : S_TEXT/UTF8
  252. Codec ID/Info                            : UTF-8 Plain Text
  253. Duration                                 : 1 h 43 min
  254. Bit rate                                 : 57 b/s
  255. Frame rate                               : 0.254 FPS
  256. Count of elements                        : 1572
  257. Stream size                              : 43.6 KiB (0%)
  258. Title                                    : Korean
  259. Language                                 : Korean
  260. Default                                  : No
  261. Forced                                   : No
  262. Text #16
  263. ID                                       : 18
  264. Format                                   : UTF-8
  265. Codec ID                                 : S_TEXT/UTF8
  266. Codec ID/Info                            : UTF-8 Plain Text
  267. Duration                                 : 1 h 43 min
  268. Bit rate                                 : 50 b/s
  269. Frame rate                               : 0.202 FPS
  270. Count of elements                        : 1249
  271. Stream size                              : 38.0 KiB (0%)
  272. Title                                    : Nederlands
  273. Language                                 : Dutch
  274. Default                                  : No
  275. Forced                                   : No
  276. Text #17
  277. ID                                       : 19
  278. Format                                   : UTF-8
  279. Codec ID                                 : S_TEXT/UTF8
  280. Codec ID/Info                            : UTF-8 Plain Text
  281. Duration                                 : 1 h 43 min
  282. Bit rate                                 : 57 b/s
  283. Frame rate                               : 0.255 FPS
  284. Count of elements                        : 1577
  285. Stream size                              : 43.3 KiB (0%)
  286. Title                                    : Norsk
  287. Language                                 : Norwegian
  288. Default                                  : No
  289. Forced                                   : No
  290. Text #18
  291. ID                                       : 20
  292. Format                                   : UTF-8
  293. Codec ID                                 : S_TEXT/UTF8
  294. Codec ID/Info                            : UTF-8 Plain Text
  295. Duration                                 : 1 h 43 min
  296. Bit rate                                 : 61 b/s
  297. Frame rate                               : 0.252 FPS
  298. Count of elements                        : 1560
  299. Stream size                              : 46.5 KiB (0%)
  300. Title                                    : Polski
  301. Language                                 : Polish
  302. Default                                  : No
  303. Forced                                   : No
  304. Text #19
  305. ID                                       : 21
  306. Format                                   : UTF-8
  307. Codec ID                                 : S_TEXT/UTF8
  308. Codec ID/Info                            : UTF-8 Plain Text
  309. Duration                                 : 1 h 43 min
  310. Bit rate                                 : 62 b/s
  311. Frame rate                               : 0.254 FPS
  312. Count of elements                        : 1572
  313. Stream size                              : 47.4 KiB (0%)
  314. Title                                    : Português (Brasil)
  315. Language                                 : Portuguese
  316. Default                                  : No
  317. Forced                                   : No
  318. Text #20
  319. ID                                       : 22
  320. Format                                   : UTF-8
  321. Codec ID                                 : S_TEXT/UTF8
  322. Codec ID/Info                            : UTF-8 Plain Text
  323. Duration                                 : 1 h 43 min
  324. Bit rate                                 : 63 b/s
  325. Frame rate                               : 0.254 FPS
  326. Count of elements                        : 1569
  327. Stream size                              : 47.8 KiB (0%)
  328. Title                                    : Português
  329. Language                                 : Portuguese
  330. Default                                  : No
  331. Forced                                   : No
  332. Text #21
  333. ID                                       : 23
  334. Format                                   : UTF-8
  335. Codec ID                                 : S_TEXT/UTF8
  336. Codec ID/Info                            : UTF-8 Plain Text
  337. Duration                                 : 1 h 43 min
  338. Bit rate                                 : 62 b/s
  339. Frame rate                               : 0.240 FPS
  340. Count of elements                        : 1483
  341. Stream size                              : 47.2 KiB (0%)
  342. Title                                    : Roman?
  343. Language                                 : Romanian
  344. Default                                  : No
  345. Forced                                   : No
  346. Text #22
  347. ID                                       : 24
  348. Format                                   : UTF-8
  349. Codec ID                                 : S_TEXT/UTF8
  350. Codec ID/Info                            : UTF-8 Plain Text
  351. Duration                                 : 1 h 43 min
  352. Bit rate                                 : 56 b/s
  353. Frame rate                               : 0.254 FPS
  354. Count of elements                        : 1571
  355. Stream size                              : 42.9 KiB (0%)
  356. Title                                    : Sloven?ina
  357. Language                                 : Slovak
  358. Default                                  : No
  359. Forced                                   : No
  360. Text #23
  361. ID                                       : 25
  362. Format                                   : UTF-8
  363. Codec ID                                 : S_TEXT/UTF8
  364. Codec ID/Info                            : UTF-8 Plain Text
  365. Duration                                 : 1 h 43 min
  366. Bit rate                                 : 54 b/s
  367. Frame rate                               : 0.175 FPS
  368. Count of elements                        : 1085
  369. Stream size                              : 41.4 KiB (0%)
  370. Title                                    : Svenska
  371. Language                                 : Swedish
  372. Default                                  : No
  373. Forced                                   : No
  374. Text #24
  375. ID                                       : 26
  376. Format                                   : UTF-8
  377. Codec ID                                 : S_TEXT/UTF8
  378. Codec ID/Info                            : UTF-8 Plain Text
  379. Duration                                 : 1 h 43 min
  380. Bit rate                                 : 60 b/s
  381. Frame rate                               : 0.255 FPS
  382. Count of elements                        : 1578
  383. Stream size                              : 45.5 KiB (0%)
  384. Title                                    : Türk?e
  385. Language                                 : Turkish
  386. Default                                  : No
  387. Forced                                   : No
  388. Text #25
  389. ID                                       : 27
  390. Format                                   : UTF-8
  391. Codec ID                                 : S_TEXT/UTF8
  392. Codec ID/Info                            : UTF-8 Plain Text
  393. Duration                                 : 1 h 43 min
  394. Bit rate                                 : 57 b/s
  395. Frame rate                               : 0.256 FPS
  396. Count of elements                        : 1581
  397. Stream size                              : 43.3 KiB (0%)
  398. Title                                    : Chinese (Simplified)
  399. Language                                 : Chinese
  400. Default                                  : No
  401. Forced                                   : No
  402. Text #26
  403. ID                                       : 28
  404. Format                                   : UTF-8
  405. Codec ID                                 : S_TEXT/UTF8
  406. Codec ID/Info                            : UTF-8 Plain Text
  407. Duration                                 : 1 h 43 min
  408. Bit rate                                 : 48 b/s
  409. Frame rate                               : 0.255 FPS
  410. Count of elements                        : 1579
  411. Stream size                              : 36.9 KiB (0%)
  412. Title                                    : Chinese (Hong Kong)
  413. Language                                 : Chinese
  414. Default                                  : No
  415. Forced                                   : No
  416. Text #27
  417. ID                                       : 29
  418. Format                                   : UTF-8
  419. Codec ID                                 : S_TEXT/UTF8
  420. Codec ID/Info                            : UTF-8 Plain Text
  421. Duration                                 : 1 h 43 min
  422. Bit rate                                 : 48 b/s
  423. Frame rate                               : 0.261 FPS
  424. Count of elements                        : 1615
  425. Stream size                              : 36.3 KiB (0%)
  426. Title                                    : Chinese (Traditional)
  427. Language                                 : Chinese
  428. Default                                  : No
  429. Forced                                   : No
复制代码




                                       
                                       

                                       
                                       
                                       




Lightyear.2022.IMAX.2160p.DSNP.WEB-DL.x265.10bit.HDR.DDP5.1.Atmos-KOGi.torrent (16.61 KB, 下载次数: 1)
回复

使用道具 举报

您需要登录后才可以回帖 登录 | 立即注册

本版积分规则

QQ|Archiver|手机版|小黑屋|蓝光电影网

GMT+8, 2022-8-8 19:01 , Processed in 0.054389 second(s), 28 queries .

Powered by Discuz! X3.4

Copyright © 2001-2020, Tencent Cloud.

快速回复 返回顶部 返回列表