找回密码
 立即注册

QQ登录

只需一步,快速开始

查看: 22|回复: 0

[其他] 光年正传 Lightyear.2022.IMAX.2160p.DSNP.WEB-DL.DDP5.1.Atmos.DV.MP4.x265-DVSUX 12.73GB

[复制链接]

0

精华

0

好友

2

听众

新手上路

Rank: 2

蓝光币
5
发表于 4 天前 | 显示全部楼层 |阅读模式


◎标  题 光年正传
◎译  名 巴斯光年
◎片  名 Lightyear
◎年  代 2022
◎产  地 美国
◎类  别 科幻 / 动画 / 冒险
◎语  言 英语
◎上映日期 2022-06-15(意大利) / 2022-06-17(美国)
◎IMDb评分 5.2/10 (23253人评价)
◎IMDb链接 https://www.imdb.com/title/tt10298810/
◎豆瓣评分 7.3/10 (837人评价)
◎豆瓣链接 https://movie.douban.com/subject/35284168/
◎片  长 110分钟
◎导  演 安格斯·麦克莱恩 Angus MacLane
◎编  剧 安格斯·麦克莱恩 Angus MacLane
       杰森·赫德利 Jason Headley
       马修·奥尔德里奇 Matthew Aldrich
       彼特·道格特 Pete Docter
       安德鲁·斯坦顿 Andrew Stanton
       乔·兰福特 Joe Ranft
       约翰·拉塞特 John Lasseter
◎演  员 克里斯·埃文斯 Chris Evans
       柯柯·帕尔莫 Keke Palmer
       彼得·孙 Peter Sohn
       塔伊加·维迪提 Taika Waititi
       戴尔·索尔斯 Dale Soules
       詹姆斯·布洛林 James Brolin
       乌佐·阿杜巴 Uzo Aduba
       玛丽·麦克唐纳-刘易斯 Mary McDonald-Lewis
       小伊塞亚·维特洛克 Isiah Whitlock Jr.
       安格斯·麦克莱恩 Angus MacLane
       比尔·哈德尔 Bill Hader
       艾弗连·莱米雷斯 Efren Ramirez
       凯拉·海斯顿 Keira Hairston
◎简  介

  皮克斯打造《玩具总动员》系列衍生动画电影《光年正传》,美队Chris Evans配音。讲述巴斯光年人类原型宇航员的起源故事,他从一个年轻的试飞员,变为大家熟知的太空游侠。
  1. Video
  2. ID                                       : 1
  3. Format                                   : HEVC
  4. Format/Info                              : High Efficiency Video Coding
  5. Format profile                           : Main [email protected]@High
  6. HDR format                               : Dolby Vision, Version 1.0, dvhe.05.06, BL+RPU
  7. Codec ID                                 : dvhe
  8. Codec ID/Info                            : High Efficiency Video Coding with Dolby Vision
  9. Duration                                 : 1 h 45 min
  10. Bit rate                                 : 16.6 Mb/s
  11. Width                                    : 3 840 pixels
  12. Height                                   : 2 160 pixels
  13. Display aspect ratio                     : 16:9
  14. Frame rate mode                          : Constant
  15. Frame rate                               : 23.976 (24000/1001/189150) FPS
  16. Color space                              : YUV
  17. Chroma subsampling                       : 4:2:0
  18. Bit depth                                : 10 bits
  19. Bits/(Pixel*Frame)                       : 0.083
  20. Stream size                              : 12.2 GiB (96%)
  21. Default                                  : Yes
  22. Alternate group                          : 1
  23. Color range                              : Full
  24. Codec configuration box                  : hvcC+dvcC
  25. Audio
  26. ID                                       : 2
  27. Format                                   : E-AC-3 JOC
  28. Format/Info                              : Enhanced AC-3 with Joint Object Coding
  29. Commercial name                          : Dolby Digital Plus with Dolby Atmos
  30. Codec ID                                 : ec-3
  31. Duration                                 : 1 h 45 min
  32. Bit rate mode                            : Constant
  33. Bit rate                                 : 768 kb/s
  34. Maximum bit rate                         : 811 kb/s
  35. Channel(s)                               : 6 channels
  36. Channel layout                           : L R C LFE Ls Rs
  37. Sampling rate                            : 48.0 kHz
  38. Frame rate                               : 31.250 FPS (1536 SPF)
  39. Compression mode                         : Lossy
  40. Stream size                              : 577 MiB (4%)
  41. Language                                 : English
  42. Service kind                             : Complete Main
  43. Default                                  : Yes
  44. Alternate group                          : 1
  45. Complexity index                         : Not present / 16
  46. Number of dynamic objects                : 15
  47. Bed channel count                        : 1 channel
  48. Bed channel configuration                : LFE
  49. Text #1
  50. ID                                       : 4
  51. Format                                   : Timed Text
  52. Codec ID                                 : tx3g
  53. Duration                                 : 1 h 43 min
  54. Bit rate mode                            : Variable
  55. Bit rate                                 : 69 b/s
  56. Frame rate                               : 0.535 FPS
  57. Stream size                              : 52.7 KiB (0%)
  58. Language                                 : English
  59. Forced                                   : No
  60. Text #2
  61. ID                                       : 5
  62. Format                                   : Timed Text
  63. Codec ID                                 : tx3g
  64. Duration                                 : 1 h 44 min
  65. Bit rate mode                            : Variable
  66. Bit rate                                 : 85 b/s
  67. Frame rate                               : 0.660 FPS
  68. Stream size                              : 65.0 KiB (0%)
  69. Title                                    : SDH
  70. Language                                 : English
  71. Forced                                   : No
  72. Text #3
  73. ID                                       : 6
  74. Format                                   : Timed Text
  75. Codec ID                                 : tx3g
  76. Duration                                 : 1 h 43 min
  77. Bit rate mode                            : Variable
  78. Bit rate                                 : 61 b/s
  79. Frame rate                               : 0.508 FPS
  80. Stream size                              : 46.6 KiB (0%)
  81. Language                                 : Czech
  82. Forced                                   : No
  83. Text #4
  84. ID                                       : 7
  85. Format                                   : Timed Text
  86. Codec ID                                 : tx3g
  87. Duration                                 : 1 h 43 min
  88. Bit rate mode                            : Variable
  89. Bit rate                                 : 60 b/s
  90. Frame rate                               : 0.347 FPS
  91. Stream size                              : 45.9 KiB (0%)
  92. Language                                 : Danish
  93. Forced                                   : No
  94. Text #5
  95. ID                                       : 8
  96. Format                                   : Timed Text
  97. Codec ID                                 : tx3g
  98. Duration                                 : 1 h 43 min
  99. Bit rate mode                            : Variable
  100. Bit rate                                 : 63 b/s
  101. Frame rate                               : 0.491 FPS
  102. Stream size                              : 47.6 KiB (0%)
  103. Language                                 : German
  104. Forced                                   : No
  105. Text #6
  106. ID                                       : 9
  107. Format                                   : Timed Text
  108. Codec ID                                 : tx3g
  109. Duration                                 : 1 h 44 min
  110. Bit rate mode                            : Variable
  111. Bit rate                                 : 76 b/s
  112. Frame rate                               : 0.490 FPS
  113. Stream size                              : 58.6 KiB (0%)
  114. Title                                    : SDH
  115. Language                                 : German
  116. Forced                                   : No
  117. Text #7
  118. ID                                       : 10
  119. Format                                   : Timed Text
  120. Codec ID                                 : tx3g
  121. Duration                                 : 1 h 43 min
  122. Bit rate mode                            : Variable
  123. Bit rate                                 : 107 b/s
  124. Frame rate                               : 0.503 FPS
  125. Stream size                              : 81.7 KiB (0%)
  126. Language                                 : Greek
  127. Forced                                   : No
  128. Text #8
  129. ID                                       : 11
  130. Format                                   : Timed Text
  131. Codec ID                                 : tx3g
  132. Duration                                 : 1 h 43 min
  133. Bit rate mode                            : Variable
  134. Bit rate                                 : 68 b/s
  135. Frame rate                               : 0.506 FPS
  136. Stream size                              : 51.8 KiB (0%)
  137. Title                                    : Latin American
  138. Language                                 : Spanish
  139. Forced                                   : No
  140. Text #9
  141. ID                                       : 12
  142. Format                                   : Timed Text
  143. Codec ID                                 : tx3g
  144. Duration                                 : 1 h 44 min
  145. Bit rate mode                            : Variable
  146. Bit rate                                 : 79 b/s
  147. Frame rate                               : 0.540 FPS
  148. Stream size                              : 60.9 KiB (0%)
  149. Title                                    : Latin American (SDH)
  150. Language                                 : Spanish
  151. Forced                                   : No
  152. Text #10
  153. ID                                       : 13
  154. Format                                   : Timed Text
  155. Codec ID                                 : tx3g
  156. Duration                                 : 1 h 43 min
  157. Bit rate mode                            : Variable
  158. Bit rate                                 : 63 b/s
  159. Frame rate                               : 0.504 FPS
  160. Stream size                              : 47.8 KiB (0%)
  161. Language                                 : Spanish
  162. Forced                                   : No
  163. Text #11
  164. ID                                       : 14
  165. Format                                   : Timed Text
  166. Codec ID                                 : tx3g
  167. Duration                                 : 1 h 43 min
  168. Bit rate mode                            : Variable
  169. Bit rate                                 : 66 b/s
  170. Frame rate                               : 0.506 FPS
  171. Stream size                              : 50.4 KiB (0%)
  172. Language                                 : Finnish
  173. Forced                                   : No
  174. Text #12
  175. ID                                       : 15
  176. Format                                   : Timed Text
  177. Codec ID                                 : tx3g
  178. Duration                                 : 1 h 43 min
  179. Bit rate mode                            : Variable
  180. Bit rate                                 : 71 b/s
  181. Frame rate                               : 0.507 FPS
  182. Stream size                              : 54.0 KiB (0%)
  183. Title                                    : Canadian
  184. Language                                 : French
  185. Forced                                   : No
  186. Text #13
  187. ID                                       : 16
  188. Format                                   : Timed Text
  189. Codec ID                                 : tx3g
  190. Duration                                 : 1 h 44 min
  191. Bit rate mode                            : Variable
  192. Bit rate                                 : 96 b/s
  193. Frame rate                               : 0.708 FPS
  194. Stream size                              : 73.6 KiB (0%)
  195. Title                                    : Canadian (SDH)
  196. Language                                 : French
  197. Forced                                   : No
  198. Text #14
  199. ID                                       : 17
  200. Format                                   : Timed Text
  201. Codec ID                                 : tx3g
  202. Duration                                 : 1 h 43 min
  203. Bit rate mode                            : Variable
  204. Bit rate                                 : 60 b/s
  205. Frame rate                               : 0.485 FPS
  206. Stream size                              : 45.8 KiB (0%)
  207. Language                                 : French
  208. Forced                                   : No
  209. Text #15
  210. ID                                       : 18
  211. Format                                   : Timed Text
  212. Codec ID                                 : tx3g
  213. Duration                                 : 1 h 44 min
  214. Bit rate mode                            : Variable
  215. Bit rate                                 : 73 b/s
  216. Frame rate                               : 0.513 FPS
  217. Stream size                              : 55.7 KiB (0%)
  218. Title                                    : SDH
  219. Language                                 : French
  220. Forced                                   : No
  221. Text #16
  222. ID                                       : 19
  223. Format                                   : Timed Text
  224. Codec ID                                 : tx3g
  225. Duration                                 : 1 h 43 min
  226. Bit rate mode                            : Variable
  227. Bit rate                                 : 66 b/s
  228. Frame rate                               : 0.506 FPS
  229. Stream size                              : 50.5 KiB (0%)
  230. Language                                 : Hungarian
  231. Forced                                   : No
  232. Text #17
  233. ID                                       : 20
  234. Format                                   : Timed Text
  235. Codec ID                                 : tx3g
  236. Duration                                 : 1 h 43 min
  237. Bit rate mode                            : Variable
  238. Bit rate                                 : 63 b/s
  239. Frame rate                               : 0.506 FPS
  240. Stream size                              : 48.3 KiB (0%)
  241. Language                                 : Icelandic
  242. Forced                                   : No
  243. Text #18
  244. ID                                       : 21
  245. Format                                   : Timed Text
  246. Codec ID                                 : tx3g
  247. Duration                                 : 1 h 43 min
  248. Bit rate mode                            : Variable
  249. Bit rate                                 : 62 b/s
  250. Frame rate                               : 0.504 FPS
  251. Stream size                              : 47.2 KiB (0%)
  252. Language                                 : Italian
  253. Forced                                   : No
  254. Text #19
  255. ID                                       : 22
  256. Format                                   : Timed Text
  257. Codec ID                                 : tx3g
  258. Duration                                 : 1 h 43 min
  259. Bit rate mode                            : Variable
  260. Bit rate                                 : 50 b/s
  261. Frame rate                               : 0.459 FPS
  262. Stream size                              : 38.0 KiB (0%)
  263. Language                                 : Japanese
  264. Forced                                   : No
  265. Text #20
  266. ID                                       : 23
  267. Format                                   : Timed Text
  268. Codec ID                                 : tx3g
  269. Duration                                 : 1 h 43 min
  270. Bit rate mode                            : Variable
  271. Bit rate                                 : 64 b/s
  272. Frame rate                               : 0.504 FPS
  273. Stream size                              : 49.1 KiB (0%)
  274. Language                                 : Korean
  275. Forced                                   : No
  276. Text #21
  277. ID                                       : 24
  278. Format                                   : Timed Text
  279. Codec ID                                 : tx3g
  280. Duration                                 : 1 h 43 min
  281. Bit rate mode                            : Variable
  282. Bit rate                                 : 56 b/s
  283. Frame rate                               : 0.401 FPS
  284. Stream size                              : 42.3 KiB (0%)
  285. Language                                 : Dutch
  286. Forced                                   : No
  287. Text #22
  288. ID                                       : 25
  289. Format                                   : Timed Text
  290. Codec ID                                 : tx3g
  291. Duration                                 : 1 h 43 min
  292. Bit rate mode                            : Variable
  293. Bit rate                                 : 59 b/s
  294. Frame rate                               : 0.506 FPS
  295. Stream size                              : 44.9 KiB (0%)
  296. Language                                 : Norwegian
  297. Forced                                   : No
  298. Text #23
  299. ID                                       : 26
  300. Format                                   : Timed Text
  301. Codec ID                                 : tx3g
  302. Duration                                 : 1 h 43 min
  303. Bit rate mode                            : Variable
  304. Bit rate                                 : 64 b/s
  305. Frame rate                               : 0.501 FPS
  306. Stream size                              : 48.9 KiB (0%)
  307. Language                                 : Polish
  308. Forced                                   : No
  309. Text #24
  310. ID                                       : 27
  311. Format                                   : Timed Text
  312. Codec ID                                 : tx3g
  313. Duration                                 : 1 h 43 min
  314. Bit rate mode                            : Variable
  315. Bit rate                                 : 65 b/s
  316. Frame rate                               : 0.504 FPS
  317. Stream size                              : 49.2 KiB (0%)
  318. Title                                    : Brazilian
  319. Language                                 : Portuguese
  320. Forced                                   : No
  321. Text #25
  322. ID                                       : 28
  323. Format                                   : Timed Text
  324. Codec ID                                 : tx3g
  325. Duration                                 : 1 h 44 min
  326. Bit rate mode                            : Variable
  327. Bit rate                                 : 81 b/s
  328. Frame rate                               : 0.581 FPS
  329. Stream size                              : 62.4 KiB (0%)
  330. Title                                    : Brazilian (SDH)
  331. Language                                 : Portuguese
  332. Forced                                   : No
  333. Text #26
  334. ID                                       : 29
  335. Format                                   : Timed Text
  336. Codec ID                                 : tx3g
  337. Duration                                 : 1 h 43 min
  338. Bit rate mode                            : Variable
  339. Bit rate                                 : 65 b/s
  340. Frame rate                               : 0.504 FPS
  341. Stream size                              : 49.7 KiB (0%)
  342. Language                                 : Portuguese
  343. Forced                                   : No
  344. Text #27
  345. ID                                       : 30
  346. Format                                   : Timed Text
  347. Codec ID                                 : tx3g
  348. Duration                                 : 1 h 43 min
  349. Bit rate mode                            : Variable
  350. Bit rate                                 : 68 b/s
  351. Frame rate                               : 0.476 FPS
  352. Stream size                              : 51.6 KiB (0%)
  353. Language                                 : Romanian
  354. Forced                                   : No
  355. Text #28
  356. ID                                       : 31
  357. Format                                   : Timed Text
  358. Codec ID                                 : tx3g
  359. Duration                                 : 1 h 43 min
  360. Bit rate mode                            : Variable
  361. Bit rate                                 : 60 b/s
  362. Frame rate                               : 0.504 FPS
  363. Stream size                              : 45.5 KiB (0%)
  364. Language                                 : Slovak
  365. Forced                                   : No
  366. Text #29
  367. ID                                       : 32
  368. Format                                   : Timed Text
  369. Codec ID                                 : tx3g
  370. Duration                                 : 1 h 43 min
  371. Bit rate mode                            : Variable
  372. Bit rate                                 : 58 b/s
  373. Frame rate                               : 0.348 FPS
  374. Stream size                              : 43.9 KiB (0%)
  375. Language                                 : Swedish
  376. Forced                                   : No
  377. Text #30
  378. ID                                       : 33
  379. Format                                   : Timed Text
  380. Codec ID                                 : tx3g
  381. Duration                                 : 1 h 43 min
  382. Bit rate mode                            : Variable
  383. Bit rate                                 : 65 b/s
  384. Frame rate                               : 0.506 FPS
  385. Stream size                              : 49.8 KiB (0%)
  386. Language                                 : Turkish
  387. Forced                                   : No
  388. Text #31
  389. ID                                       : 34
  390. Format                                   : Timed Text
  391. Codec ID                                 : tx3g
  392. Duration                                 : 1 h 43 min
  393. Bit rate mode                            : Variable
  394. Bit rate                                 : 56 b/s
  395. Frame rate                               : 0.506 FPS
  396. Stream size                              : 42.8 KiB (0%)
  397. Title                                    : Hong Kong
  398. Language                                 : Chinese
  399. Forced                                   : No
  400. Text #32
  401. ID                                       : 35
  402. Format                                   : Timed Text
  403. Codec ID                                 : tx3g
  404. Duration                                 : 1 h 43 min
  405. Bit rate mode                            : Variable
  406. Bit rate                                 : 61 b/s
  407. Frame rate                               : 0.507 FPS
  408. Stream size                              : 46.1 KiB (0%)
  409. Title                                    : Simplified
  410. Language                                 : Chinese
  411. Forced                                   : No
  412. Text #33
  413. ID                                       : 36
  414. Format                                   : Timed Text
  415. Codec ID                                 : tx3g
  416. Duration                                 : 1 h 43 min
  417. Bit rate mode                            : Variable
  418. Bit rate                                 : 56 b/s
  419. Frame rate                               : 0.518 FPS
  420. Stream size                              : 42.6 KiB (0%)
  421. Title                                    : Traditional
  422. Language                                 : Chinese
  423. Forced                                   : No
  424. Menu
  425. 01:33:47.211                             : Credits
  426. 01:35:51.668                             : Post-Credits Scene 1
  427. 01:43:36.425                             : Post-Credits Scene 2
  428. 01:44:44.493                             : Post-Credits Scene 3
复制代码







                                       
                                       

                                       
                                       
                                       




Lightyear.2022.IMAX.2160p.DSNP.WEB-DL.DDP5.1.Atmos.DV.MP4.x265-DVSUX.torrent (16.57 KB, 下载次数: 0)
回复

使用道具 举报

您需要登录后才可以回帖 登录 | 立即注册

本版积分规则

QQ|Archiver|手机版|小黑屋|蓝光电影网

GMT+8, 2022-8-8 18:01 , Processed in 0.055486 second(s), 28 queries .

Powered by Discuz! X3.4

Copyright © 2001-2020, Tencent Cloud.

快速回复 返回顶部 返回列表