找回密码
 立即注册

QQ登录

只需一步,快速开始

查看: 22|回复: 0

[其他] 光年正传 Lightyear.2022.IMAX.2160p.DSNP.WEB-DL.DDP5.1.Atmos.DV.MKV.x265-SMURF 12.73GB

[复制链接]

0

精华

0

好友

2

听众

新手上路

Rank: 2

蓝光币
5
发表于 4 天前 | 显示全部楼层 |阅读模式


◎标  题 光年正传
◎译  名 巴斯光年
◎片  名 Lightyear
◎年  代 2022
◎产  地 美国
◎类  别 科幻 / 动画 / 冒险
◎语  言 英语
◎上映日期 2022-06-15(意大利) / 2022-06-17(美国)
◎IMDb评分 5.2/10 (23253人评价)
◎IMDb链接 https://www.imdb.com/title/tt10298810/
◎豆瓣评分 7.3/10 (837人评价)
◎豆瓣链接 https://movie.douban.com/subject/35284168/
◎片  长 110分钟
◎导  演 安格斯·麦克莱恩 Angus MacLane
◎编  剧 安格斯·麦克莱恩 Angus MacLane
       杰森·赫德利 Jason Headley
       马修·奥尔德里奇 Matthew Aldrich
       彼特·道格特 Pete Docter
       安德鲁·斯坦顿 Andrew Stanton
       乔·兰福特 Joe Ranft
       约翰·拉塞特 John Lasseter
◎演  员 克里斯·埃文斯 Chris Evans
       柯柯·帕尔莫 Keke Palmer
       彼得·孙 Peter Sohn
       塔伊加·维迪提 Taika Waititi
       戴尔·索尔斯 Dale Soules
       詹姆斯·布洛林 James Brolin
       乌佐·阿杜巴 Uzo Aduba
       玛丽·麦克唐纳-刘易斯 Mary McDonald-Lewis
       小伊塞亚·维特洛克 Isiah Whitlock Jr.
       安格斯·麦克莱恩 Angus MacLane
       比尔·哈德尔 Bill Hader
       艾弗连·莱米雷斯 Efren Ramirez
       凯拉·海斯顿 Keira Hairston
◎简  介

  皮克斯打造《玩具总动员》系列衍生动画电影《光年正传》,美队Chris Evans配音。讲述巴斯光年人类原型宇航员的起源故事,他从一个年轻的试飞员,变为大家熟知的太空游侠。
  1. Video
  2. ID                                       : 1
  3. Format                                   : HEVC
  4. Format/Info                              : High Efficiency Video Coding
  5. Format profile                           : Main [email protected]@High
  6. HDR format                               : Dolby Vision, Version 1.0, dvhe.05.06, BL+RPU
  7. Codec ID                                 : V_MPEGH/ISO/HEVC
  8. Duration                                 : 1 h 45 min
  9. Bit rate                                 : 16.6 Mb/s
  10. Width                                    : 3 840 pixels
  11. Height                                   : 2 160 pixels
  12. Display aspect ratio                     : 16:9
  13. Frame rate mode                          : Constant
  14. Frame rate                               : 23.976 (24000/1001/189150) FPS
  15. Color space                              : YUV
  16. Chroma subsampling                       : 4:2:0
  17. Bit depth                                : 10 bits
  18. Bits/(Pixel*Frame)                       : 0.083
  19. Stream size                              : 12.2 GiB (96%)
  20. Language                                 : English
  21. Default                                  : Yes
  22. Forced                                   : No
  23. Color range                              : Full
  24. Audio
  25. ID                                       : 2
  26. Format                                   : E-AC-3 JOC
  27. Format/Info                              : Enhanced AC-3 with Joint Object Coding
  28. Commercial name                          : Dolby Digital Plus with Dolby Atmos
  29. Codec ID                                 : A_EAC3
  30. Duration                                 : 1 h 45 min
  31. Bit rate mode                            : Constant
  32. Bit rate                                 : 768 kb/s
  33. Channel(s)                               : 6 channels
  34. Channel layout                           : L R C LFE Ls Rs
  35. Sampling rate                            : 48.0 kHz
  36. Frame rate                               : 31.250 FPS (1536 SPF)
  37. Compression mode                         : Lossy
  38. Stream size                              : 577 MiB (4%)
  39. Language                                 : English
  40. Service kind                             : Complete Main
  41. Default                                  : Yes
  42. Forced                                   : No
  43. Complexity index                         : 16
  44. Number of dynamic objects                : 15
  45. Bed channel count                        : 1 channel
  46. Bed channel configuration                : LFE
  47. Text #1
  48. ID                                       : 3
  49. Format                                   : UTF-8
  50. Codec ID                                 : S_TEXT/UTF8
  51. Codec ID/Info                            : UTF-8 Plain Text
  52. Duration                                 : 1 h 42 min
  53. Bit rate                                 : 63 b/s
  54. Frame rate                               : 0.272 FPS
  55. Count of elements                        : 1667
  56. Stream size                              : 47.5 KiB (0%)
  57. Language                                 : English
  58. Default                                  : No
  59. Forced                                   : No
  60. Text #2
  61. ID                                       : 4
  62. Format                                   : UTF-8
  63. Codec ID                                 : S_TEXT/UTF8
  64. Codec ID/Info                            : UTF-8 Plain Text
  65. Duration                                 : 1 h 44 min
  66. Bit rate                                 : 76 b/s
  67. Frame rate                               : 0.330 FPS
  68. Count of elements                        : 2076
  69. Stream size                              : 58.3 KiB (0%)
  70. Title                                    : SDH
  71. Language                                 : English
  72. Default                                  : No
  73. Forced                                   : No
  74. Text #3
  75. ID                                       : 5
  76. Format                                   : UTF-8
  77. Codec ID                                 : S_TEXT/UTF8
  78. Codec ID/Info                            : UTF-8 Plain Text
  79. Duration                                 : 1 h 43 min
  80. Bit rate                                 : 53 b/s
  81. Frame rate                               : 0.256 FPS
  82. Count of elements                        : 1584
  83. Stream size                              : 40.7 KiB (0%)
  84. Language                                 : Czech
  85. Default                                  : No
  86. Forced                                   : No
  87. Text #4
  88. ID                                       : 6
  89. Format                                   : UTF-8
  90. Codec ID                                 : S_TEXT/UTF8
  91. Codec ID/Info                            : UTF-8 Plain Text
  92. Duration                                 : 1 h 43 min
  93. Bit rate                                 : 56 b/s
  94. Frame rate                               : 0.175 FPS
  95. Count of elements                        : 1081
  96. Stream size                              : 42.3 KiB (0%)
  97. Language                                 : Danish
  98. Default                                  : No
  99. Forced                                   : No
  100. Text #5
  101. ID                                       : 7
  102. Format                                   : UTF-8
  103. Codec ID                                 : S_TEXT/UTF8
  104. Codec ID/Info                            : UTF-8 Plain Text
  105. Duration                                 : 1 h 43 min
  106. Bit rate                                 : 55 b/s
  107. Frame rate                               : 0.247 FPS
  108. Count of elements                        : 1529
  109. Stream size                              : 41.9 KiB (0%)
  110. Language                                 : German
  111. Default                                  : No
  112. Forced                                   : No
  113. Text #6
  114. ID                                       : 8
  115. Format                                   : UTF-8
  116. Codec ID                                 : S_TEXT/UTF8
  117. Codec ID/Info                            : UTF-8 Plain Text
  118. Duration                                 : 1 h 44 min
  119. Bit rate                                 : 69 b/s
  120. Frame rate                               : 0.245 FPS
  121. Count of elements                        : 1541
  122. Stream size                              : 53.5 KiB (0%)
  123. Title                                    : SDH
  124. Language                                 : German
  125. Default                                  : No
  126. Forced                                   : No
  127. Text #7
  128. ID                                       : 9
  129. Format                                   : UTF-8
  130. Codec ID                                 : S_TEXT/UTF8
  131. Codec ID/Info                            : UTF-8 Plain Text
  132. Duration                                 : 1 h 43 min
  133. Bit rate                                 : 100 b/s
  134. Frame rate                               : 0.253 FPS
  135. Count of elements                        : 1566
  136. Stream size                              : 75.9 KiB (0%)
  137. Language                                 : Greek
  138. Default                                  : No
  139. Forced                                   : No
  140. Text #8
  141. ID                                       : 10
  142. Format                                   : UTF-8
  143. Codec ID                                 : S_TEXT/UTF8
  144. Codec ID/Info                            : UTF-8 Plain Text
  145. Duration                                 : 1 h 43 min
  146. Bit rate                                 : 60 b/s
  147. Frame rate                               : 0.255 FPS
  148. Count of elements                        : 1577
  149. Stream size                              : 46.0 KiB (0%)
  150. Title                                    : Latin American
  151. Language                                 : Spanish
  152. Default                                  : No
  153. Forced                                   : No
  154. Text #9
  155. ID                                       : 11
  156. Format                                   : UTF-8
  157. Codec ID                                 : S_TEXT/UTF8
  158. Codec ID/Info                            : UTF-8 Plain Text
  159. Duration                                 : 1 h 44 min
  160. Bit rate                                 : 71 b/s
  161. Frame rate                               : 0.270 FPS
  162. Count of elements                        : 1699
  163. Stream size                              : 54.9 KiB (0%)
  164. Title                                    : Latin American (SDH)
  165. Language                                 : Spanish
  166. Default                                  : No
  167. Forced                                   : No
  168. Text #10
  169. ID                                       : 12
  170. Format                                   : UTF-8
  171. Codec ID                                 : S_TEXT/UTF8
  172. Codec ID/Info                            : UTF-8 Plain Text
  173. Duration                                 : 1 h 43 min
  174. Bit rate                                 : 55 b/s
  175. Frame rate                               : 0.254 FPS
  176. Count of elements                        : 1569
  177. Stream size                              : 42.0 KiB (0%)
  178. Language                                 : Spanish
  179. Default                                  : No
  180. Forced                                   : No
  181. Text #11
  182. ID                                       : 13
  183. Format                                   : UTF-8
  184. Codec ID                                 : S_TEXT/UTF8
  185. Codec ID/Info                            : UTF-8 Plain Text
  186. Duration                                 : 1 h 43 min
  187. Bit rate                                 : 59 b/s
  188. Frame rate                               : 0.255 FPS
  189. Count of elements                        : 1577
  190. Stream size                              : 44.6 KiB (0%)
  191. Language                                 : Finnish
  192. Default                                  : No
  193. Forced                                   : No
  194. Text #12
  195. ID                                       : 14
  196. Format                                   : UTF-8
  197. Codec ID                                 : S_TEXT/UTF8
  198. Codec ID/Info                            : UTF-8 Plain Text
  199. Duration                                 : 1 h 43 min
  200. Bit rate                                 : 64 b/s
  201. Frame rate                               : 0.255 FPS
  202. Count of elements                        : 1579
  203. Stream size                              : 48.4 KiB (0%)
  204. Title                                    : Canadian
  205. Language                                 : French
  206. Default                                  : No
  207. Forced                                   : No
  208. Text #13
  209. ID                                       : 15
  210. Format                                   : UTF-8
  211. Codec ID                                 : S_TEXT/UTF8
  212. Codec ID/Info                            : UTF-8 Plain Text
  213. Duration                                 : 1 h 44 min
  214. Bit rate                                 : 86 b/s
  215. Frame rate                               : 0.355 FPS
  216. Count of elements                        : 2228
  217. Stream size                              : 66.0 KiB (0%)
  218. Title                                    : Canadian (SDH)
  219. Language                                 : French
  220. Default                                  : No
  221. Forced                                   : No
  222. Text #14
  223. ID                                       : 16
  224. Format                                   : UTF-8
  225. Codec ID                                 : S_TEXT/UTF8
  226. Codec ID/Info                            : UTF-8 Plain Text
  227. Duration                                 : 1 h 43 min
  228. Bit rate                                 : 53 b/s
  229. Frame rate                               : 0.244 FPS
  230. Count of elements                        : 1510
  231. Stream size                              : 40.1 KiB (0%)
  232. Language                                 : French
  233. Default                                  : No
  234. Forced                                   : No
  235. Text #15
  236. ID                                       : 17
  237. Format                                   : UTF-8
  238. Codec ID                                 : S_TEXT/UTF8
  239. Codec ID/Info                            : UTF-8 Plain Text
  240. Duration                                 : 1 h 44 min
  241. Bit rate                                 : 65 b/s
  242. Frame rate                               : 0.256 FPS
  243. Count of elements                        : 1611
  244. Stream size                              : 50.1 KiB (0%)
  245. Title                                    : SDH
  246. Language                                 : French
  247. Default                                  : No
  248. Forced                                   : No
  249. Text #16
  250. ID                                       : 18
  251. Format                                   : UTF-8
  252. Codec ID                                 : S_TEXT/UTF8
  253. Codec ID/Info                            : UTF-8 Plain Text
  254. Duration                                 : 1 h 43 min
  255. Bit rate                                 : 59 b/s
  256. Frame rate                               : 0.255 FPS
  257. Count of elements                        : 1576
  258. Stream size                              : 44.8 KiB (0%)
  259. Language                                 : Hungarian
  260. Default                                  : No
  261. Forced                                   : No
  262. Text #17
  263. ID                                       : 19
  264. Format                                   : UTF-8
  265. Codec ID                                 : S_TEXT/UTF8
  266. Codec ID/Info                            : UTF-8 Plain Text
  267. Duration                                 : 1 h 43 min
  268. Bit rate                                 : 56 b/s
  269. Frame rate                               : 0.255 FPS
  270. Count of elements                        : 1577
  271. Stream size                              : 42.5 KiB (0%)
  272. Language                                 : Icelandic
  273. Default                                  : No
  274. Forced                                   : No
  275. Text #18
  276. ID                                       : 20
  277. Format                                   : UTF-8
  278. Codec ID                                 : S_TEXT/UTF8
  279. Codec ID/Info                            : UTF-8 Plain Text
  280. Duration                                 : 1 h 43 min
  281. Bit rate                                 : 54 b/s
  282. Frame rate                               : 0.254 FPS
  283. Count of elements                        : 1572
  284. Stream size                              : 41.4 KiB (0%)
  285. Language                                 : Italian
  286. Default                                  : No
  287. Forced                                   : No
  288. Text #19
  289. ID                                       : 21
  290. Format                                   : UTF-8
  291. Codec ID                                 : S_TEXT/UTF8
  292. Codec ID/Info                            : UTF-8 Plain Text
  293. Duration                                 : 1 h 43 min
  294. Bit rate                                 : 43 b/s
  295. Frame rate                               : 0.231 FPS
  296. Count of elements                        : 1432
  297. Stream size                              : 32.6 KiB (0%)
  298. Language                                 : Japanese
  299. Default                                  : No
  300. Forced                                   : No
  301. Text #20
  302. ID                                       : 22
  303. Format                                   : UTF-8
  304. Codec ID                                 : S_TEXT/UTF8
  305. Codec ID/Info                            : UTF-8 Plain Text
  306. Duration                                 : 1 h 43 min
  307. Bit rate                                 : 57 b/s
  308. Frame rate                               : 0.254 FPS
  309. Count of elements                        : 1572
  310. Stream size                              : 43.6 KiB (0%)
  311. Language                                 : Korean
  312. Default                                  : No
  313. Forced                                   : No
  314. Text #21
  315. ID                                       : 23
  316. Format                                   : UTF-8
  317. Codec ID                                 : S_TEXT/UTF8
  318. Codec ID/Info                            : UTF-8 Plain Text
  319. Duration                                 : 1 h 43 min
  320. Bit rate                                 : 50 b/s
  321. Frame rate                               : 0.202 FPS
  322. Count of elements                        : 1249
  323. Stream size                              : 38.0 KiB (0%)
  324. Language                                 : Dutch
  325. Default                                  : No
  326. Forced                                   : No
  327. Text #22
  328. ID                                       : 24
  329. Format                                   : UTF-8
  330. Codec ID                                 : S_TEXT/UTF8
  331. Codec ID/Info                            : UTF-8 Plain Text
  332. Duration                                 : 1 h 43 min
  333. Bit rate                                 : 52 b/s
  334. Frame rate                               : 0.255 FPS
  335. Count of elements                        : 1577
  336. Stream size                              : 39.4 KiB (0%)
  337. Language                                 : Norwegian
  338. Default                                  : No
  339. Forced                                   : No
  340. Text #23
  341. ID                                       : 25
  342. Format                                   : UTF-8
  343. Codec ID                                 : S_TEXT/UTF8
  344. Codec ID/Info                            : UTF-8 Plain Text
  345. Duration                                 : 1 h 43 min
  346. Bit rate                                 : 57 b/s
  347. Frame rate                               : 0.252 FPS
  348. Count of elements                        : 1560
  349. Stream size                              : 43.1 KiB (0%)
  350. Language                                 : Polish
  351. Default                                  : No
  352. Forced                                   : No
  353. Text #24
  354. ID                                       : 26
  355. Format                                   : UTF-8
  356. Codec ID                                 : S_TEXT/UTF8
  357. Codec ID/Info                            : UTF-8 Plain Text
  358. Duration                                 : 1 h 43 min
  359. Bit rate                                 : 57 b/s
  360. Frame rate                               : 0.254 FPS
  361. Count of elements                        : 1572
  362. Stream size                              : 43.6 KiB (0%)
  363. Title                                    : Brazilian
  364. Language                                 : Portuguese
  365. Default                                  : No
  366. Forced                                   : No
  367. Text #25
  368. ID                                       : 27
  369. Format                                   : UTF-8
  370. Codec ID                                 : S_TEXT/UTF8
  371. Codec ID/Info                            : UTF-8 Plain Text
  372. Duration                                 : 1 h 44 min
  373. Bit rate                                 : 72 b/s
  374. Frame rate                               : 0.290 FPS
  375. Count of elements                        : 1827
  376. Stream size                              : 55.9 KiB (0%)
  377. Title                                    : Brazilian (SDH)
  378. Language                                 : Portuguese
  379. Default                                  : No
  380. Forced                                   : No
  381. Text #26
  382. ID                                       : 28
  383. Format                                   : UTF-8
  384. Codec ID                                 : S_TEXT/UTF8
  385. Codec ID/Info                            : UTF-8 Plain Text
  386. Duration                                 : 1 h 43 min
  387. Bit rate                                 : 58 b/s
  388. Frame rate                               : 0.254 FPS
  389. Count of elements                        : 1569
  390. Stream size                              : 44.0 KiB (0%)
  391. Language                                 : Portuguese
  392. Default                                  : No
  393. Forced                                   : No
  394. Text #27
  395. ID                                       : 29
  396. Format                                   : UTF-8
  397. Codec ID                                 : S_TEXT/UTF8
  398. Codec ID/Info                            : UTF-8 Plain Text
  399. Duration                                 : 1 h 43 min
  400. Bit rate                                 : 61 b/s
  401. Frame rate                               : 0.240 FPS
  402. Count of elements                        : 1483
  403. Stream size                              : 46.3 KiB (0%)
  404. Language                                 : Romanian
  405. Default                                  : No
  406. Forced                                   : No
  407. Text #28
  408. ID                                       : 30
  409. Format                                   : UTF-8
  410. Codec ID                                 : S_TEXT/UTF8
  411. Codec ID/Info                            : UTF-8 Plain Text
  412. Duration                                 : 1 h 43 min
  413. Bit rate                                 : 52 b/s
  414. Frame rate                               : 0.254 FPS
  415. Count of elements                        : 1571
  416. Stream size                              : 39.6 KiB (0%)
  417. Language                                 : Slovak
  418. Default                                  : No
  419. Forced                                   : No
  420. Text #29
  421. ID                                       : 31
  422. Format                                   : UTF-8
  423. Codec ID                                 : S_TEXT/UTF8
  424. Codec ID/Info                            : UTF-8 Plain Text
  425. Duration                                 : 1 h 43 min
  426. Bit rate                                 : 53 b/s
  427. Frame rate                               : 0.175 FPS
  428. Count of elements                        : 1085
  429. Stream size                              : 40.2 KiB (0%)
  430. Language                                 : Swedish
  431. Default                                  : No
  432. Forced                                   : No
  433. Text #30
  434. ID                                       : 32
  435. Format                                   : UTF-8
  436. Codec ID                                 : S_TEXT/UTF8
  437. Codec ID/Info                            : UTF-8 Plain Text
  438. Duration                                 : 1 h 43 min
  439. Bit rate                                 : 58 b/s
  440. Frame rate                               : 0.255 FPS
  441. Count of elements                        : 1578
  442. Stream size                              : 44.0 KiB (0%)
  443. Language                                 : Turkish
  444. Default                                  : No
  445. Forced                                   : No
  446. Text #31
  447. ID                                       : 33
  448. Format                                   : UTF-8
  449. Codec ID                                 : S_TEXT/UTF8
  450. Codec ID/Info                            : UTF-8 Plain Text
  451. Duration                                 : 1 h 43 min
  452. Bit rate                                 : 48 b/s
  453. Frame rate                               : 0.255 FPS
  454. Count of elements                        : 1578
  455. Stream size                              : 36.9 KiB (0%)
  456. Title                                    : Hong Kong
  457. Language                                 : Chinese
  458. Default                                  : No
  459. Forced                                   : No
  460. Text #32
  461. ID                                       : 34
  462. Format                                   : UTF-8
  463. Codec ID                                 : S_TEXT/UTF8
  464. Codec ID/Info                            : UTF-8 Plain Text
  465. Duration                                 : 1 h 43 min
  466. Bit rate                                 : 53 b/s
  467. Frame rate                               : 0.256 FPS
  468. Count of elements                        : 1581
  469. Stream size                              : 40.2 KiB (0%)
  470. Title                                    : Simplified
  471. Language                                 : Chinese
  472. Default                                  : No
  473. Forced                                   : No
  474. Text #33
  475. ID                                       : 35
  476. Format                                   : UTF-8
  477. Codec ID                                 : S_TEXT/UTF8
  478. Codec ID/Info                            : UTF-8 Plain Text
  479. Duration                                 : 1 h 43 min
  480. Bit rate                                 : 48 b/s
  481. Frame rate                               : 0.261 FPS
  482. Count of elements                        : 1615
  483. Stream size                              : 36.3 KiB (0%)
  484. Title                                    : Traditional
  485. Language                                 : Chinese
  486. Default                                  : No
  487. Forced                                   : No
  488. Menu
  489. 01:33:47.211                             : en:Credits
  490. 01:35:51.668                             : en:Post-Credits Scene 1
  491. 01:43:36.425                             : en:Post-Credits Scene 2
  492. 01:44:44.493                             : en:Post-Credits Scene 3
复制代码







                                       
                                       

                                       
                                       
                                       




Lightyear.2022.IMAX.2160p.DSNP.WEB-DL.DDP5.1.Atmos.DV.MKV.x265-SMURF.torrent (16.57 KB, 下载次数: 0)
回复

使用道具 举报

您需要登录后才可以回帖 登录 | 立即注册

本版积分规则

QQ|Archiver|手机版|小黑屋|蓝光电影网

GMT+8, 2022-8-8 17:45 , Processed in 0.057664 second(s), 28 queries .

Powered by Discuz! X3.4

Copyright © 2001-2020, Tencent Cloud.

快速回复 返回顶部 返回列表