找回密码
 立即注册

QQ登录

只需一步,快速开始

查看: 18|回复: 0

[UHD.HEVC] 刺猬索尼克2 Sonic.the.Hedgehog.2.2022.2160p.BluRay.REMUX.HEVC.DTS-HD.MA.TrueHD.7.1.Atmos-FGT 50.65GB

[复制链接]

0

精华

0

好友

2

听众

新手上路

Rank: 2

蓝光币
5
发表于 4 天前 | 显示全部楼层 |阅读模式


◎标  题 刺猬索尼克2
◎译  名 超音鼠大电影2(港) / 音速小子2(台)
◎片  名 Sonic the Hedgehog 2
◎年  代 2022
◎产  地 美国 / 日本
◎类  别 喜剧 / 动作 / 科幻 / 动画 / 冒险
◎语  言 英语
◎上映日期 2022(中国大陆) / 2022-04-08(美国)
◎IMDb评分 6.7/10 (27693人评价)
◎IMDb链接 https://www.imdb.com/title/tt12412888/
◎豆瓣链接 https://movie.douban.com/subject/35083986/
◎片  长 122分钟
◎导  演 杰夫·福勒 Jeff Fowler
◎编  剧 帕特里克·凯西 Patrick Casey
       乔什·米勒 Josh Miller
       约翰·惠廷顿 John Whittington
◎演  员 詹姆斯·麦斯登 James Marsden
       金·凯瑞 Jim Carrey
       本·施瓦茨 Ben Schwartz
       提卡·森普特 Tika Sumpter
       伊德里斯·艾尔巴 Idris Elba
       娜塔莎·罗斯韦尔 Natasha Rothwell
       亚当·佩里 Adam Pally
       谢默·摩尔 Shemar Moore
       李·马贾道布 Lee Majdoub
       科琳·欧肖内希 Colleen O'Shaughnessey
       梅洛德·诺西普·尼曼 Melody Nosipho Niemann
       汤姆·巴特勒 Tom Butler
       布拉德·卡利利莫库 Brad Kalilimoku
       杰夫·桑卡 Jeff Sanca
       伊丽莎白·鲍恩 Elizabeth Bowen
       多恩·列夫 Don Lew
       里斯·威廉姆斯 Rhys Williams
       西蒙·钱 Simon Chin
       弗雷泽·科比特 Fraser Corbett
       奎因·厄利 Quinn Early
       马库斯·奥雷里奥 Marcus Aurelio
       尼托·拉里奥萨 Nito Larioza
       迈克·鲁菲诺 Mike Rufino
       詹姆斯·兰索恩 James Ransone
       琼基·XL Junkie XL
◎简  介

  索尼克在绿丘镇安顿下来之后,就急着要证明自己有能力成为一名真正的英雄。当蛋头博士带着全新的搭档纳克鲁斯,又回来寻找一块力量强大足以毁灭人类文明的翡翠的时候,他就面对了另一个严峻的考验。这次索尼克和他自己的跟班塔尔斯携手合作,一起踏上一场环游世界的冒险旅程,希望能在那块翡翠落入坏人手中之前先找到它。
  1. Video
  2. ID                                       : 1
  3. ID in the original source medium         : 4113 (0x1011)
  4. Format                                   : HEVC
  5. Format/Info                              : High Efficiency Video Coding
  6. Format profile                           : Main [email protected]@High
  7. HDR format                               : Dolby Vision, Version 1.0, dvhe.07.06, BL+EL+RPU, Blu-ray compatible / SMPTE ST 2086, HDR10 compatible
  8. Codec ID                                 : V_MPEGH/ISO/HEVC
  9. Duration                                 : 2 h 2 min
  10. Bit rate                                 : 45.7 Mb/s
  11. Width                                    : 3 840 pixels
  12. Height                                   : 2 160 pixels
  13. Display aspect ratio                     : 16:9
  14. Frame rate mode                          : Constant
  15. Frame rate                               : 23.976 (24000/1001/189150) FPS
  16. Color space                              : YUV
  17. Chroma subsampling                       : 4:2:0 (Type 2)
  18. Bit depth                                : 10 bits
  19. Bits/(Pixel*Frame)                       : 0.230
  20. Stream size                              : 39.0 GiB (77%)
  21. Language                                 : English
  22. Default                                  : No
  23. Forced                                   : No
  24. Color range                              : Limited
  25. Color primaries                          : BT.2020
  26. Transfer characteristics                 : PQ
  27. Matrix coefficients                      : BT.2020 non-constant
  28. Mastering display color primaries        : Display P3
  29. Mastering display luminance              : min: 0.0001 cd/m2, max: 1000 cd/m2
  30. Maximum Content Light Level              : 2144 cd/m2
  31. Maximum Frame-Average Light Level        : 294 cd/m2
  32. Original source medium                   : Blu-ray
  33. Audio #1
  34. ID                                       : 2
  35. ID in the original source medium         : 4352 (0x1100)
  36. Format                                   : MLP FBA 16-ch
  37. Format/Info                              : Meridian Lossless Packing FBA with 16-channel presentation
  38. Commercial name                          : Dolby TrueHD with Dolby Atmos
  39. Codec ID                                 : A_TRUEHD
  40. Duration                                 : 2 h 2 min
  41. Bit rate mode                            : Variable
  42. Bit rate                                 : 4 873 kb/s
  43. Maximum bit rate                         : 8 142 kb/s
  44. Channel(s)                               : 8 channels
  45. Channel layout                           : L R C LFE Ls Rs Lb Rb
  46. Sampling rate                            : 48.0 kHz
  47. Frame rate                               : 1 200.000 FPS (40 SPF)
  48. Bit depth                                : 24 bits
  49. Compression mode                         : Lossless
  50. Stream size                              : 4.16 GiB (8%)
  51. Title                                    : TrueHD 7.1 Atmos
  52. Language                                 : English
  53. Default                                  : Yes
  54. Forced                                   : No
  55. Original source medium                   : Blu-ray
  56. Number of dynamic objects                : 11
  57. Bed channel count                        : 1 channel
  58. Bed channel configuration                : LFE
  59. Audio #2
  60. ID                                       : 3
  61. Format                                   : DTS XLL
  62. Format/Info                              : Digital Theater Systems
  63. Commercial name                          : DTS-HD Master Audio
  64. Codec ID                                 : A_DTS
  65. Duration                                 : 2 h 2 min
  66. Bit rate mode                            : Variable
  67. Bit rate                                 : 4 282 kb/s
  68. Channel(s)                               : 8 channels
  69. Channel layout                           : C L R LFE Lb Rb Lss Rss
  70. Sampling rate                            : 48.0 kHz
  71. Frame rate                               : 93.750 FPS (512 SPF)
  72. Bit depth                                : 24 bits
  73. Compression mode                         : Lossless
  74. Stream size                              : 3.66 GiB (7%)
  75. Title                                    : DTS-HD MA 7.1
  76. Language                                 : English
  77. Default                                  : No
  78. Forced                                   : No
  79. Audio #3
  80. ID                                       : 4
  81. ID in the original source medium         : 4352 (0x1100)
  82. Format                                   : AC-3
  83. Format/Info                              : Audio Coding 3
  84. Commercial name                          : Dolby Digital
  85. Format settings                          : Dolby Surround EX
  86. Codec ID                                 : A_AC3
  87. Duration                                 : 2 h 2 min
  88. Bit rate mode                            : Constant
  89. Bit rate                                 : 640 kb/s
  90. Channel(s)                               : 6 channels
  91. Channel layout                           : L R C LFE Ls Rs
  92. Sampling rate                            : 48.0 kHz
  93. Frame rate                               : 31.250 FPS (1536 SPF)
  94. Compression mode                         : Lossy
  95. Stream size                              : 560 MiB (1%)
  96. Title                                    : DD 5.1
  97. Language                                 : English
  98. Service kind                             : Complete Main
  99. Default                                  : No
  100. Forced                                   : No
  101. Original source medium                   : Blu-ray
  102. Audio #4
  103. ID                                       : 5
  104. ID in the original source medium         : 4353 (0x1101)
  105. Format                                   : AC-3
  106. Format/Info                              : Audio Coding 3
  107. Commercial name                          : Dolby Digital
  108. Codec ID                                 : A_AC3
  109. Duration                                 : 2 h 2 min
  110. Bit rate mode                            : Constant
  111. Bit rate                                 : 640 kb/s
  112. Channel(s)                               : 6 channels
  113. Channel layout                           : L R C LFE Ls Rs
  114. Sampling rate                            : 48.0 kHz
  115. Frame rate                               : 31.250 FPS (1536 SPF)
  116. Compression mode                         : Lossy
  117. Stream size                              : 560 MiB (1%)
  118. Title                                    : DD 5.1
  119. Language                                 : English
  120. Service kind                             : Complete Main
  121. Default                                  : No
  122. Forced                                   : No
  123. Original source medium                   : Blu-ray
  124. Audio #5
  125. ID                                       : 6
  126. ID in the original source medium         : 4354 (0x1102)
  127. Format                                   : AC-3
  128. Format/Info                              : Audio Coding 3
  129. Commercial name                          : Dolby Digital
  130. Codec ID                                 : A_AC3
  131. Duration                                 : 2 h 2 min
  132. Bit rate mode                            : Constant
  133. Bit rate                                 : 640 kb/s
  134. Channel(s)                               : 6 channels
  135. Channel layout                           : L R C LFE Ls Rs
  136. Sampling rate                            : 48.0 kHz
  137. Frame rate                               : 31.250 FPS (1536 SPF)
  138. Compression mode                         : Lossy
  139. Stream size                              : 560 MiB (1%)
  140. Title                                    : DD 5.1
  141. Language                                 : Spanish
  142. Service kind                             : Complete Main
  143. Default                                  : No
  144. Forced                                   : No
  145. Original source medium                   : Blu-ray
  146. Audio #6
  147. ID                                       : 7
  148. ID in the original source medium         : 4355 (0x1103)
  149. Format                                   : AC-3
  150. Format/Info                              : Audio Coding 3
  151. Commercial name                          : Dolby Digital
  152. Codec ID                                 : A_AC3
  153. Duration                                 : 2 h 2 min
  154. Bit rate mode                            : Constant
  155. Bit rate                                 : 640 kb/s
  156. Channel(s)                               : 6 channels
  157. Channel layout                           : L R C LFE Ls Rs
  158. Sampling rate                            : 48.0 kHz
  159. Frame rate                               : 31.250 FPS (1536 SPF)
  160. Compression mode                         : Lossy
  161. Stream size                              : 560 MiB (1%)
  162. Title                                    : DD 5.1
  163. Language                                 : Spanish
  164. Service kind                             : Complete Main
  165. Default                                  : No
  166. Forced                                   : No
  167. Original source medium                   : Blu-ray
  168. Audio #7
  169. ID                                       : 8
  170. ID in the original source medium         : 4356 (0x1104)
  171. Format                                   : AC-3
  172. Format/Info                              : Audio Coding 3
  173. Commercial name                          : Dolby Digital
  174. Codec ID                                 : A_AC3
  175. Duration                                 : 2 h 2 min
  176. Bit rate mode                            : Constant
  177. Bit rate                                 : 640 kb/s
  178. Channel(s)                               : 6 channels
  179. Channel layout                           : L R C LFE Ls Rs
  180. Sampling rate                            : 48.0 kHz
  181. Frame rate                               : 31.250 FPS (1536 SPF)
  182. Compression mode                         : Lossy
  183. Stream size                              : 560 MiB (1%)
  184. Title                                    : DD 5.1
  185. Language                                 : French
  186. Service kind                             : Complete Main
  187. Default                                  : No
  188. Forced                                   : No
  189. Original source medium                   : Blu-ray
  190. Audio #8
  191. ID                                       : 9
  192. ID in the original source medium         : 4357 (0x1105)
  193. Format                                   : AC-3
  194. Format/Info                              : Audio Coding 3
  195. Commercial name                          : Dolby Digital
  196. Codec ID                                 : A_AC3
  197. Duration                                 : 2 h 2 min
  198. Bit rate mode                            : Constant
  199. Bit rate                                 : 640 kb/s
  200. Channel(s)                               : 6 channels
  201. Channel layout                           : L R C LFE Ls Rs
  202. Sampling rate                            : 48.0 kHz
  203. Frame rate                               : 31.250 FPS (1536 SPF)
  204. Compression mode                         : Lossy
  205. Stream size                              : 560 MiB (1%)
  206. Title                                    : DD 5.1
  207. Language                                 : French
  208. Service kind                             : Complete Main
  209. Default                                  : No
  210. Forced                                   : No
  211. Original source medium                   : Blu-ray
  212. Audio #9
  213. ID                                       : 10
  214. ID in the original source medium         : 4358 (0x1106)
  215. Format                                   : AC-3
  216. Format/Info                              : Audio Coding 3
  217. Commercial name                          : Dolby Digital
  218. Codec ID                                 : A_AC3
  219. Duration                                 : 2 h 2 min
  220. Bit rate mode                            : Constant
  221. Bit rate                                 : 224 kb/s
  222. Channel(s)                               : 2 channels
  223. Channel layout                           : L R
  224. Sampling rate                            : 48.0 kHz
  225. Frame rate                               : 31.250 FPS (1536 SPF)
  226. Compression mode                         : Lossy
  227. Stream size                              : 196 MiB (0%)
  228. Title                                    : DD 2.0
  229. Language                                 : English
  230. Service kind                             : Complete Main
  231. Default                                  : No
  232. Forced                                   : No
  233. Original source medium                   : Blu-ray
  234. Text #1
  235. ID                                       : 11
  236. Format                                   : UTF-8
  237. Codec ID                                 : S_TEXT/UTF8
  238. Codec ID/Info                            : UTF-8 Plain Text
  239. Duration                                 : 42 min 25 s
  240. Bit rate                                 : 0 b/s
  241. Frame rate                               : 0.003 FPS
  242. Count of elements                        : 7
  243. Stream size                              : 170 Bytes (0%)
  244. Title                                    : FORCED
  245. Language                                 : English
  246. Default                                  : No
  247. Forced                                   : Yes
  248. Text #2
  249. ID                                       : 12
  250. Format                                   : UTF-8
  251. Codec ID                                 : S_TEXT/UTF8
  252. Codec ID/Info                            : UTF-8 Plain Text
  253. Duration                                 : 1 h 52 min
  254. Bit rate                                 : 59 b/s
  255. Frame rate                               : 0.246 FPS
  256. Count of elements                        : 1655
  257. Stream size                              : 48.8 KiB (0%)
  258. Language                                 : English
  259. Default                                  : Yes
  260. Forced                                   : No
  261. Text #3
  262. ID                                       : 13
  263. Format                                   : UTF-8
  264. Codec ID                                 : S_TEXT/UTF8
  265. Codec ID/Info                            : UTF-8 Plain Text
  266. Duration                                 : 1 h 52 min
  267. Bit rate                                 : 67 b/s
  268. Frame rate                               : 0.295 FPS
  269. Count of elements                        : 1985
  270. Stream size                              : 55.7 KiB (0%)
  271. Title                                    : SDH
  272. Language                                 : English
  273. Default                                  : No
  274. Forced                                   : No
  275. Text #4
  276. ID                                       : 14
  277. ID in the original source medium         : 4768 (0x12A0)
  278. Format                                   : PGS
  279. Muxing mode                              : zlib
  280. Codec ID                                 : S_HDMV/PGS
  281. Codec ID/Info                            : Picture based subtitle format used on BDs/HD-DVDs
  282. Duration                                 : 1 h 52 min
  283. Bit rate                                 : 37.3 kb/s
  284. Frame rate                               : 0.407 FPS
  285. Count of elements                        : 2736
  286. Stream size                              : 29.9 MiB (0%)
  287. Language                                 : English
  288. Default                                  : No
  289. Forced                                   : No
  290. Original source medium                   : Blu-ray
  291. Text #5
  292. ID                                       : 15
  293. ID in the original source medium         : 4768 (0x12A0)
  294. Format                                   : PGS
  295. Muxing mode                              : zlib
  296. Codec ID                                 : S_HDMV/PGS
  297. Codec ID/Info                            : Picture based subtitle format used on BDs/HD-DVDs
  298. Duration                                 : 42 min 25 s
  299. Bit rate                                 : 264 b/s
  300. Frame rate                               : 0.006 FPS
  301. Count of elements                        : 14
  302. Stream size                              : 82.2 KiB (0%)
  303. Title                                    : FORCED
  304. Language                                 : English
  305. Default                                  : No
  306. Forced                                   : No
  307. Original source medium                   : Blu-ray
  308. Text #6
  309. ID                                       : 16
  310. ID in the original source medium         : 4769 (0x12A1)
  311. Format                                   : PGS
  312. Muxing mode                              : zlib
  313. Codec ID                                 : S_HDMV/PGS
  314. Codec ID/Info                            : Picture based subtitle format used on BDs/HD-DVDs
  315. Duration                                 : 1 h 52 min
  316. Bit rate                                 : 48.0 kb/s
  317. Frame rate                               : 0.595 FPS
  318. Count of elements                        : 3998
  319. Stream size                              : 38.4 MiB (0%)
  320. Title                                    : SDH
  321. Language                                 : English
  322. Default                                  : No
  323. Forced                                   : No
  324. Original source medium                   : Blu-ray
  325. Text #7
  326. ID                                       : 17
  327. ID in the original source medium         : 4770 (0x12A2)
  328. Format                                   : PGS
  329. Muxing mode                              : zlib
  330. Codec ID                                 : S_HDMV/PGS
  331. Codec ID/Info                            : Picture based subtitle format used on BDs/HD-DVDs
  332. Duration                                 : 2 h 1 min
  333. Bit rate                                 : 29.4 kb/s
  334. Frame rate                               : 0.352 FPS
  335. Count of elements                        : 2564
  336. Stream size                              : 25.5 MiB (0%)
  337. Language                                 : Danish
  338. Default                                  : No
  339. Forced                                   : No
  340. Original source medium                   : Blu-ray
  341. Text #8
  342. ID                                       : 18
  343. ID in the original source medium         : 4771 (0x12A3)
  344. Format                                   : PGS
  345. Muxing mode                              : zlib
  346. Codec ID                                 : S_HDMV/PGS
  347. Codec ID/Info                            : Picture based subtitle format used on BDs/HD-DVDs
  348. Duration                                 : 2 h 1 min
  349. Bit rate                                 : 34.5 kb/s
  350. Frame rate                               : 0.378 FPS
  351. Count of elements                        : 2756
  352. Stream size                              : 29.9 MiB (0%)
  353. Language                                 : Spanish
  354. Default                                  : No
  355. Forced                                   : No
  356. Original source medium                   : Blu-ray
  357. Text #9
  358. ID                                       : 19
  359. ID in the original source medium         : 4771 (0x12A3)
  360. Format                                   : PGS
  361. Muxing mode                              : zlib
  362. Codec ID                                 : S_HDMV/PGS
  363. Codec ID/Info                            : Picture based subtitle format used on BDs/HD-DVDs
  364. Duration                                 : 2 h 1 min
  365. Bit rate                                 : 494 b/s
  366. Frame rate                               : 0.008 FPS
  367. Count of elements                        : 58
  368. Stream size                              : 440 KiB (0%)
  369. Title                                    : FORCED
  370. Language                                 : Spanish
  371. Default                                  : No
  372. Forced                                   : No
  373. Original source medium                   : Blu-ray
  374. Text #10
  375. ID                                       : 20
  376. ID in the original source medium         : 4772 (0x12A4)
  377. Format                                   : PGS
  378. Muxing mode                              : zlib
  379. Codec ID                                 : S_HDMV/PGS
  380. Codec ID/Info                            : Picture based subtitle format used on BDs/HD-DVDs
  381. Duration                                 : 2 h 1 min
  382. Bit rate                                 : 32.1 kb/s
  383. Frame rate                               : 0.362 FPS
  384. Count of elements                        : 2638
  385. Stream size                              : 27.9 MiB (0%)
  386. Language                                 : Spanish
  387. Default                                  : No
  388. Forced                                   : No
  389. Original source medium                   : Blu-ray
  390. Text #11
  391. ID                                       : 21
  392. ID in the original source medium         : 4772 (0x12A4)
  393. Format                                   : PGS
  394. Muxing mode                              : zlib
  395. Codec ID                                 : S_HDMV/PGS
  396. Codec ID/Info                            : Picture based subtitle format used on BDs/HD-DVDs
  397. Duration                                 : 2 h 1 min
  398. Bit rate                                 : 422 b/s
  399. Frame rate                               : 0.007 FPS
  400. Count of elements                        : 50
  401. Stream size                              : 376 KiB (0%)
  402. Title                                    : FORCED
  403. Language                                 : Spanish
  404. Default                                  : No
  405. Forced                                   : No
  406. Original source medium                   : Blu-ray
  407. Text #12
  408. ID                                       : 22
  409. ID in the original source medium         : 4773 (0x12A5)
  410. Format                                   : PGS
  411. Muxing mode                              : zlib
  412. Codec ID                                 : S_HDMV/PGS
  413. Codec ID/Info                            : Picture based subtitle format used on BDs/HD-DVDs
  414. Duration                                 : 2 h 1 min
  415. Bit rate                                 : 30.3 kb/s
  416. Frame rate                               : 0.361 FPS
  417. Count of elements                        : 2630
  418. Stream size                              : 26.3 MiB (0%)
  419. Language                                 : French
  420. Default                                  : No
  421. Forced                                   : No
  422. Original source medium                   : Blu-ray
  423. Text #13
  424. ID                                       : 23
  425. ID in the original source medium         : 4773 (0x12A5)
  426. Format                                   : PGS
  427. Muxing mode                              : zlib
  428. Codec ID                                 : S_HDMV/PGS
  429. Codec ID/Info                            : Picture based subtitle format used on BDs/HD-DVDs
  430. Duration                                 : 2 h 1 min
  431. Bit rate                                 : 373 b/s
  432. Frame rate                               : 0.007 FPS
  433. Count of elements                        : 48
  434. Stream size                              : 332 KiB (0%)
  435. Title                                    : FORCED
  436. Language                                 : French
  437. Default                                  : No
  438. Forced                                   : No
  439. Original source medium                   : Blu-ray
  440. Text #14
  441. ID                                       : 24
  442. ID in the original source medium         : 4774 (0x12A6)
  443. Format                                   : PGS
  444. Muxing mode                              : zlib
  445. Codec ID                                 : S_HDMV/PGS
  446. Codec ID/Info                            : Picture based subtitle format used on BDs/HD-DVDs
  447. Duration                                 : 2 h 1 min
  448. Bit rate                                 : 34.1 kb/s
  449. Frame rate                               : 0.381 FPS
  450. Count of elements                        : 2776
  451. Stream size                              : 29.6 MiB (0%)
  452. Language                                 : French
  453. Default                                  : No
  454. Forced                                   : No
  455. Original source medium                   : Blu-ray
  456. Text #15
  457. ID                                       : 25
  458. ID in the original source medium         : 4774 (0x12A6)
  459. Format                                   : PGS
  460. Muxing mode                              : zlib
  461. Codec ID                                 : S_HDMV/PGS
  462. Codec ID/Info                            : Picture based subtitle format used on BDs/HD-DVDs
  463. Duration                                 : 2 h 1 min
  464. Bit rate                                 : 487 b/s
  465. Frame rate                               : 0.007 FPS
  466. Count of elements                        : 54
  467. Stream size                              : 433 KiB (0%)
  468. Title                                    : FORCED
  469. Language                                 : French
  470. Default                                  : No
  471. Forced                                   : No
  472. Original source medium                   : Blu-ray
  473. Text #16
  474. ID                                       : 26
  475. ID in the original source medium         : 4775 (0x12A7)
  476. Format                                   : PGS
  477. Muxing mode                              : zlib
  478. Codec ID                                 : S_HDMV/PGS
  479. Codec ID/Info                            : Picture based subtitle format used on BDs/HD-DVDs
  480. Duration                                 : 2 h 1 min
  481. Bit rate                                 : 29.7 kb/s
  482. Frame rate                               : 0.372 FPS
  483. Count of elements                        : 2706
  484. Stream size                              : 25.8 MiB (0%)
  485. Language                                 : Norwegian
  486. Default                                  : No
  487. Forced                                   : No
  488. Original source medium                   : Blu-ray
  489. Text #17
  490. ID                                       : 27
  491. ID in the original source medium         : 4776 (0x12A8)
  492. Format                                   : PGS
  493. Muxing mode                              : zlib
  494. Codec ID                                 : S_HDMV/PGS
  495. Codec ID/Info                            : Picture based subtitle format used on BDs/HD-DVDs
  496. Duration                                 : 2 h 1 min
  497. Bit rate                                 : 27.7 kb/s
  498. Frame rate                               : 0.370 FPS
  499. Count of elements                        : 2698
  500. Stream size                              : 24.1 MiB (0%)
  501. Language                                 : Finnish
  502. Default                                  : No
  503. Forced                                   : No
  504. Original source medium                   : Blu-ray
  505. Text #18
  506. ID                                       : 28
  507. ID in the original source medium         : 4777 (0x12A9)
  508. Format                                   : PGS
  509. Muxing mode                              : zlib
  510. Codec ID                                 : S_HDMV/PGS
  511. Codec ID/Info                            : Picture based subtitle format used on BDs/HD-DVDs
  512. Duration                                 : 2 h 1 min
  513. Bit rate                                 : 30.2 kb/s
  514. Frame rate                               : 0.349 FPS
  515. Count of elements                        : 2542
  516. Stream size                              : 26.3 MiB (0%)
  517. Language                                 : Swedish
  518. Default                                  : No
  519. Forced                                   : No
  520. Original source medium                   : Blu-ray
  521. Text #19
  522. ID                                       : 29
  523. ID in the original source medium         : 4778 (0x12AA)
  524. Format                                   : PGS
  525. Muxing mode                              : zlib
  526. Codec ID                                 : S_HDMV/PGS
  527. Codec ID/Info                            : Picture based subtitle format used on BDs/HD-DVDs
  528. Duration                                 : 2 h 2 min
  529. Bit rate                                 : 84.5 kb/s
  530. Frame rate                               : 0.684 FPS
  531. Count of elements                        : 5007
  532. Stream size                              : 73.8 MiB (0%)
  533. Title                                    : COMMENTARY
  534. Language                                 : English
  535. Default                                  : No
  536. Forced                                   : No
  537. Original source medium                   : Blu-ray
  538. Text #20
  539. ID                                       : 30
  540. ID in the original source medium         : 4779 (0x12AB)
  541. Format                                   : PGS
  542. Muxing mode                              : zlib
  543. Codec ID                                 : S_HDMV/PGS
  544. Codec ID/Info                            : Picture based subtitle format used on BDs/HD-DVDs
  545. Duration                                 : 2 h 2 min
  546. Bit rate                                 : 56.3 kb/s
  547. Frame rate                               : 0.623 FPS
  548. Count of elements                        : 4567
  549. Stream size                              : 49.2 MiB (0%)
  550. Title                                    : COMMENTARY
  551. Language                                 : Spanish
  552. Default                                  : No
  553. Forced                                   : No
  554. Original source medium                   : Blu-ray
  555. Text #21
  556. ID                                       : 31
  557. ID in the original source medium         : 4780 (0x12AC)
  558. Format                                   : PGS
  559. Muxing mode                              : zlib
  560. Codec ID                                 : S_HDMV/PGS
  561. Codec ID/Info                            : Picture based subtitle format used on BDs/HD-DVDs
  562. Duration                                 : 2 h 2 min
  563. Bit rate                                 : 65.7 kb/s
  564. Frame rate                               : 0.603 FPS
  565. Count of elements                        : 4423
  566. Stream size                              : 57.4 MiB (0%)
  567. Title                                    : COMMENTARY
  568. Language                                 : Spanish
  569. Default                                  : No
  570. Forced                                   : No
  571. Original source medium                   : Blu-ray
  572. Text #22
  573. ID                                       : 32
  574. ID in the original source medium         : 4781 (0x12AD)
  575. Format                                   : PGS
  576. Muxing mode                              : zlib
  577. Codec ID                                 : S_HDMV/PGS
  578. Codec ID/Info                            : Picture based subtitle format used on BDs/HD-DVDs
  579. Duration                                 : 2 h 2 min
  580. Bit rate                                 : 57.1 kb/s
  581. Frame rate                               : 0.676 FPS
  582. Count of elements                        : 4955
  583. Stream size                              : 49.9 MiB (0%)
  584. Title                                    : COMMENTARY
  585. Language                                 : French
  586. Default                                  : No
  587. Forced                                   : No
  588. Original source medium                   : Blu-ray
  589. Text #23
  590. ID                                       : 33
  591. ID in the original source medium         : 4782 (0x12AE)
  592. Format                                   : PGS
  593. Muxing mode                              : zlib
  594. Codec ID                                 : S_HDMV/PGS
  595. Codec ID/Info                            : Picture based subtitle format used on BDs/HD-DVDs
  596. Duration                                 : 2 h 2 min
  597. Bit rate                                 : 71.5 kb/s
  598. Frame rate                               : 0.669 FPS
  599. Count of elements                        : 4906
  600. Stream size                              : 62.5 MiB (0%)
  601. Title                                    : COMMENTARY
  602. Language                                 : French
  603. Default                                  : No
  604. Forced                                   : No
  605. Original source medium                   : Blu-ray
  606. Menu
  607. 00:00:00.000                             : en:Chapter 01
  608. 00:05:54.187                             : en:Chapter 02
  609. 00:09:59.515                             : en:Chapter 03
  610. 00:16:32.950                             : en:Chapter 04
  611. 00:20:58.715                             : en:Chapter 05
  612. 00:28:05.475                             : en:Chapter 06
  613. 00:34:19.932                             : en:Chapter 07
  614. 00:39:09.889                             : en:Chapter 08
  615. 00:48:24.902                             : en:Chapter 09
  616. 00:58:32.300                             : en:Chapter 10
  617. 01:04:57.685                             : en:Chapter 11
  618. 01:11:02.049                             : en:Chapter 12
  619. 01:16:09.356                             : en:Chapter 13
  620. 01:26:59.672                             : en:Chapter 14
  621. 01:32:31.837                             : en:Chapter 15
  622. 01:40:45.831                             : en:Chapter 16
  623. 01:48:21.661                             : en:Chapter 17
  624. 01:53:56.079                             : en:Chapter 18
复制代码




                                       
                                       

                                       
                                       
                                       




Sonic.the.Hedgehog.2.2022.2160p.BluRay.REMUX.HEVC.DTS-HD.MA.TrueHD.7.1.Atmos-FGT.torrent (64 KB, 下载次数: 1)
回复

使用道具 举报

您需要登录后才可以回帖 登录 | 立即注册

本版积分规则

QQ|Archiver|手机版|小黑屋|蓝光电影网

GMT+8, 2022-8-8 18:49 , Processed in 0.054225 second(s), 28 queries .

Powered by Discuz! X3.4

Copyright © 2001-2020, Tencent Cloud.

快速回复 返回顶部 返回列表