找回密码
 立即注册

QQ登录

只需一步,快速开始

查看: 27|回复: 0

[2160p-WEB] 狄仁杰之九龙玄棺[国语配音/中文字幕].Di.Ren.Jie.Zhi.Jiu.Long.Xuan.Guan.2022.2160p.WEB-DL.H265.AAC-MOMOWEB 1.23GB

[复制链接]

0

精华

0

好友

2

听众

新手上路

Rank: 2

蓝光币
5
发表于 4 天前 | 显示全部楼层 |阅读模式


◎标  题 狄仁杰之九龙玄棺
◎年  代 2022
◎产  地 中国大陆
◎类  别 动作 / 悬疑 / 奇幻
◎语  言 汉语普通话
◎IMDb链接 https://www.imdb.com/title//
◎豆瓣链接 https://movie.douban.com/subject/35197637/
◎片  长 70分钟
◎演  员 魏巍 Wei Wei
       黎真安 Zhen'an Li
       叶璇 Michelle Ye
       张皓承 Haocheng Zhang
       楼学贤 Jackson Lau Hok-Yin
       常铖 Cheng Chang
◎简  介
  仪凤年间,一伙盗墓贼掘出一具神秘食人棺,盘棺金龙冲棺而起,食人棺飞入皇宫大殿,染蛊丧尸破棺而出刺杀帝后,御前侍卫李凌薇舍命救驾有惊无险。大理寺狄仁杰受命展开调查,发现嗜食人肉不惧刀兵的丧尸与二十年前被流放岭南的王皇后一族有关。恰逢龙凤出游赏花灯之夜,诡异的笛声飘荡在长安城上空,丧尸倾巢而出,被咬伤的百姓纷纷染蛊,狄仁杰李凌薇率军拼死抵杀,城内将士却越来越少,蛊人大军却越来越壮大,唯有等到破晓之时,蛊人自焚于太阳底下,可是他们能撑住吗?
  1. ##### MediaInfo ######
  2. General
  3. Unique ID                                : 32907031340844399907141853772488196502 (0x18C1A9E881BD59AFF7D54B47DDE14196)
  4. Complete name                            : Di.Ren.Jie.Zhi.Jiu.Long.Xuan.Guan.2022.2160p.WEB-DL.H265.AAC-MOMOWEB.mkv
  5. Format                                   : Matroska
  6. Format version                           : Version 4
  7. File size                                : 1.23 GiB
  8. Duration                                 : 1 h 9 min
  9. Overall bit rate                         : 2 522 kb/s
  10. Encoded date                             : UTC 2022-07-30 23:27:58
  11. Writing application                      : mkvmerge v58.0.0 ('Supper's Ready') 64-bit
  12. Writing library                          : libebml v1.4.2 + libmatroska v1.6.4
  13. Video
  14. ID                                       : 1
  15. Format                                   : HEVC
  16. Format/Info                              : High Efficiency Video Coding
  17. Format profile                           : Main@L5@Main
  18. Codec ID                                 : V_MPEGH/ISO/HEVC
  19. Duration                                 : 1 h 9 min
  20. Bit rate                                 : 2 334 kb/s
  21. Width                                    : 3 840 pixels
  22. Height                                   : 1 632 pixels
  23. Display aspect ratio                     : 2.35:1
  24. Frame rate mode                          : Variable
  25. Frame rate                               : 23.920 FPS
  26. Original frame rate                      : 24.000 FPS
  27. Color space                              : YUV
  28. Chroma subsampling                       : 4:2:0
  29. Bit depth                                : 8 bits
  30. Bits/(Pixel*Frame)                       : 0.016
  31. Stream size                              : 1.14 GiB (93%)
  32. Language                                 : Chinese
  33. Default                                  : Yes
  34. Forced                                   : No
  35. Audio
  36. ID                                       : 2
  37. Format                                   : AAC LC
  38. Format/Info                              : Advanced Audio Codec Low Complexity
  39. Codec ID                                 : A_AAC-2
  40. Duration                                 : 1 h 9 min
  41. Bit rate                                 : 187 kb/s
  42. Channel(s)                               : 2 channels
  43. Channel layout                           : L R
  44. Sampling rate                            : 44.1 kHz
  45. Frame rate                               : 43.066 FPS (1024 SPF)
  46. Compression mode                         : Lossy
  47. Stream size                              : 92.9 MiB (7%)
  48. Language                                 : Chinese
  49. Default                                  : Yes
  50. Forced                                   : No
复制代码

















推荐请使用qBittorrent,utorrent,transmission等标准BT软件下载!以获取最快速度。拜托保种!





狄仁杰之九龙玄棺[国语配音 中文字幕].Di.Ren.Jie.Zhi.Jiu.Long.Xuan.Guan.2022.2160p.torrent (4.07 KB, 下载次数: 0)
回复

使用道具 举报

您需要登录后才可以回帖 登录 | 立即注册

本版积分规则

QQ|Archiver|手机版|小黑屋|蓝光电影网

GMT+8, 2022-8-8 18:21 , Processed in 0.051724 second(s), 24 queries .

Powered by Discuz! X3.4

Copyright © 2001-2020, Tencent Cloud.

快速回复 返回顶部 返回列表