找回密码
 立即注册

QQ登录

只需一步,快速开始

查看: 14|回复: 0

[2160p-WEB] 中华英雄之浴火修罗[国语配音/中文字幕].A.Man.Called.Hero.2022.2160p.WEB-DL.H265.AAC-MOMOWEB 2.31GB

[复制链接]

0

精华

0

好友

2

听众

新手上路

Rank: 2

蓝光币
5
发表于 4 天前 | 显示全部楼层 |阅读模式


◎标  题 中华英雄之浴火修罗
◎年  代 2022
◎产  地 中国大陆
◎类  别 动作 / 武侠
◎语  言 汉语普通话
◎上映日期 2022-08-02(中国大陆网络)
◎IMDb链接 https://www.imdb.com/title//
◎豆瓣链接 https://movie.douban.com/subject/36025441/
◎片  长 80分钟
◎导  演 郝昭赫 Zhaohe Hao
◎演  员 袁福福 Fufu Yuan
       张陆 Lu Zhang
       余澜 Lan Yu
       刘浩骏龙 Haojunlong Liu
       孙蛟龙 Jiaolong Sun
       王翀 Chong Wang
       李宣 Xuan Li
◎简  介
  “天煞孤星”华英雄战胜日本武士无敌后隐世,此期间中华土地上的敌寇愈发猖狂,日本邪恶组织罗修门与西方列强相互勾结,肆意迫害华人同胞,敌寇之首金太保为争天下第一,以吸食童子精血修练邪功,残忍至极。而一直苦于无法突破自身禁制练功的英雄之子华剑雄,偶然间在梦中得高人指点,最终突破极阳体质练就神功。当百姓处于水深火热之时,华英雄出现,英雄父子联手抵御外敌,再现中华傲诀,护华人同胞。
  1. ##### MediaInfo ######
  2. General
  3. Unique ID                                : 168876470678150861061493800684563291703 (0x7F0C6CD879A23F070403B9BC22315E37)
  4. Complete name                            : A.Man.Called.Hero.2022.2160p.WEB-DL.H265.AAC-MOMOWEB.mkv
  5. Format                                   : Matroska
  6. Format version                           : Version 4
  7. File size                                : 2.31 GiB
  8. Duration                                 : 1 h 20 min
  9. Overall bit rate                         : 4 130 kb/s
  10. Encoded date                             : UTC 2022-08-02 02:43:34
  11. Writing application                      : mkvmerge v58.0.0 ('Supper's Ready') 64-bit
  12. Writing library                          : libebml v1.4.2 + libmatroska v1.6.4
  13. Video
  14. ID                                       : 1
  15. Format                                   : HEVC
  16. Format/Info                              : High Efficiency Video Coding
  17. Format profile                           : Main@L5@Main
  18. Codec ID                                 : V_MPEGH/ISO/HEVC
  19. Duration                                 : 1 h 20 min
  20. Bit rate                                 : 3 941 kb/s
  21. Width                                    : 3 840 pixels
  22. Height                                   : 1 440 pixels
  23. Display aspect ratio                     : 2.667
  24. Frame rate mode                          : Variable
  25. Frame rate                               : 24.921 FPS
  26. Original frame rate                      : 25.000 FPS
  27. Color space                              : YUV
  28. Chroma subsampling                       : 4:2:0
  29. Bit depth                                : 8 bits
  30. Bits/(Pixel*Frame)                       : 0.029
  31. Stream size                              : 2.21 GiB (95%)
  32. Language                                 : Chinese
  33. Default                                  : Yes
  34. Forced                                   : No
  35. Audio
  36. ID                                       : 2
  37. Format                                   : AAC LC
  38. Format/Info                              : Advanced Audio Codec Low Complexity
  39. Codec ID                                 : A_AAC-2
  40. Duration                                 : 1 h 20 min
  41. Bit rate                                 : 187 kb/s
  42. Channel(s)                               : 2 channels
  43. Channel layout                           : L R
  44. Sampling rate                            : 44.1 kHz
  45. Frame rate                               : 43.066 FPS (1024 SPF)
  46. Compression mode                         : Lossy
  47. Stream size                              : 107 MiB (5%)
  48. Language                                 : Chinese
  49. Default                                  : Yes
  50. Forced                                   : No
复制代码

















推荐请使用qBittorrent,utorrent,transmission等标准BT软件下载!以获取最快速度。拜托保种!





中华英雄之浴火修罗[国语配音 中文字幕].A.Man.Called.Hero.2022.2160p.WEB-DL.H265.A.torrent (6.73 KB, 下载次数: 0)
回复

使用道具 举报

您需要登录后才可以回帖 登录 | 立即注册

本版积分规则

QQ|Archiver|手机版|小黑屋|蓝光电影网

GMT+8, 2022-8-8 19:25 , Processed in 0.052826 second(s), 24 queries .

Powered by Discuz! X3.4

Copyright © 2001-2020, Tencent Cloud.

快速回复 返回顶部 返回列表