找回密码
 立即注册

QQ登录

只需一步,快速开始

查看: 23|回复: 0

[其他] 找到卡特 Get.Carter.1971.2160p.BluRay.x265.10bit.SDR.LPCM.1.0-SWTYBLZ 58.26GB

[复制链接]

0

精华

0

好友

2

听众

新手上路

Rank: 2

蓝光币
5
发表于 5 天前 | 显示全部楼层 |阅读模式


◎标  题 找到卡特
◎译  名 黑街正义心 / 江湖大决斗 / 杀手卡特 / 复仇威龙
◎片  名 Get Carter
◎年  代 1971
◎产  地 英国
◎类  别 剧情 / 惊悚 / 犯罪
◎语  言 英语
◎上映日期 1971-03-18
◎IMDb评分 7.4/10 (32223人评价)
◎IMDb链接 https://www.imdb.com/title/tt0067128/
◎豆瓣评分 7.3/10 (317人评价)
◎豆瓣链接 https://movie.douban.com/subject/1306370/
◎片  长 112 分钟 / West Germany: 103 分钟(cut version)
◎导  演 迈克·霍奇斯 Mike Hodges
◎编  剧 迈克·霍奇斯 Mike Hodges
       Ted Lewis Ted Lewis
◎演  员 迈克尔·凯恩 Michael Caine
       伊恩·亨德里 Ian Hendry
       布里特·艾克拉诺 Britt Ekland
       约翰·奥斯本 John Osborne
       Rosemarie Dunham Rosemarie Dunham
       伯纳德·赫普顿 Bernard Hepton
       Geraldine Moffat Geraldine Moffat
       乔治·休厄尔 George Sewell
       戈弗雷·奎格利 Godfrey Quigley
       Geraldine Sherman Geraldine Sherman
       格林·爱德华兹 Glynn Edwards
       托尼·贝克利 Tony Beckley
       特伦斯·里格比 Terence Rigby
       裴特拉·马克汉姆 Petra Markham
       布莱恩·莫斯利 Bryan Mosley
       Ben Aris Ben Aris
       John Bindon John Bindon
       艾伦·阿姆斯特朗 Alun Armstrong
◎标  签 英国 / 犯罪 / 英国电影 / 1971 / 黑色幽默 / 黑帮 / 剧情 / 欧洲
◎简  介

    杰克-卡特(迈克尔凯恩饰)一直以为人讨债、做代理为生。他能力超群,总是喜欢一人独居。但当他的兄弟在一桩“意外事件”中遇难后,他回到了那个被他遗弃的“卡特”家----去偿还那永远也还不清的“债”,解开那萦绕在他心灵中的兄弟遇害之谜。                                                                      对于杰克来说,回到西雅图的家是一次弥补过失的机会。他联系上了他兄弟的妻子格洛里亚(米兰达-理查森饰)和她十多岁的女儿多琳(雷切尔-利-库克饰)。她们对他的这一举动很感疑惑。但当他发现兄弟的死整个是个谋杀时,他回来的目的很快从赎罪转向了复仇。                                                                      杰克终于与多琳达成了和解,多琳也开始帮他,带他深入到城里的那些阴暗角落,到一个充满了欺骗性、到处漂溢着虚假的世界。卡特曾想向那些罪恶伸张正义,但是他越深入了解到事件的真相,越对自己的动机开始怀疑。他非但没有复仇,反而起了宽仁之心,直到最终又开始了赎罪。
  1. Video
  2. ID                                       : 1
  3. Format                                   : HEVC
  4. Format/Info                              : High Efficiency Video Coding
  5. Format profile                           : Main [email protected]@High
  6. Codec ID                                 : V_MPEGH/ISO/HEVC
  7. Duration                                 : 1 h 51 min
  8. Bit rate                                 : 72.5 Mb/s
  9. Width                                    : 3 840 pixels
  10. Height                                   : 2 076 pixels
  11. Display aspect ratio                     : 1.85:1
  12. Frame rate mode                          : Constant
  13. Frame rate                               : 24.000 FPS
  14. Color space                              : YUV
  15. Chroma subsampling                       : 4:2:0
  16. Bit depth                                : 10 bits
  17. Bits/(Pixel*Frame)                       : 0.379
  18. Stream size                              : 56.5 GiB (98%)
  19. Writing library                          : x265 3.0ed72af837053:[Windows][GCC 8.2.0][64 bit] 10bit
  20. Encoding settings                        : cpuid=1111039 / frame-threads=6 / numa-pools=40 / wpp / no-pmode / no-pme / no-psnr / no-ssim / log-level=2 / input-csp=1 / input-res=3840x2076 / interlace=0 / total-frames=160748 / level-idc=51 / high-tier=1 / uhd-bd=0 / ref=3 / no-allow-non-conformance / repeat-headers / annexb / aud / hrd / info / hash=0 / no-temporal-layers / no-open-gop / min-keyint=1 / keyint=24 / gop-lookahead=0 / bframes=4 / b-adapt=2 / b-pyramid / bframe-bias=0 / rc-lookahead=25 / lookahead-slices=4 / scenecut=40 / radl=0 / no-splice / no-intra-refresh / ctu=64 / min-cu-size=8 / no-rect / no-amp / max-tu-size=32 / tu-inter-depth=1 / tu-intra-depth=1 / limit-tu=0 / rdoq-level=0 / dynamic-rd=0.00 / no-ssim-rd / signhide / no-tskip / nr-intra=0 / nr-inter=0 / no-constrained-intra / strong-intra-smoothing / max-merge=2 / limit-refs=3 / no-limit-modes / me=1 / subme=2 / merange=57 / temporal-mvp / weightp / no-weightb / no-analyze-src-pics / deblock=0:0 / no-sao / no-sao-non-deblock / rd=3 / no-early-skip / rskip / no-fast-intra / no-tskip-fast / no-cu-lossless / no-b-intra / no-splitrd-skip / rdpenalty=0 / psy-rd=2.00 / psy-rdoq=0.00 / no-rd-refine / no-lossless / cbqpoffs=0 / crqpoffs=0 / rc=crf / crf=17.0 / qcomp=0.60 / qpstep=4 / stats-write=0 / stats-read=0 / vbv-maxrate=160000 / vbv-bufsize=160000 / vbv-init=0.9 / crf-max=0.0 / crf-min=0.0 / ipratio=1.40 / pbratio=1.30 / aq-mode=1 / aq-strength=1.00 / cutree / zone-count=0 / no-strict-cbr / qg-size=32 / no-rc-grain / qpmax=69 / qpmin=0 / no-const-vbv / sar=1 / overscan=0 / videoformat=5 / range=0 / colorprim=2 / transfer=2 / colormatrix=2 / chromaloc=0 / display-window=0 / max-cll=0,0 / min-luma=0 / max-luma=1023 / log2-max-poc-lsb=8 / vui-timing-info / vui-hrd-info / slices=1 / opt-qp-pps / opt-ref-list-length-pps / no-multi-pass-opt-rps / scenecut-bias=0.05 / no-opt-cu-delta-qp / no-aq-motion / no-hdr / no-hdr-opt / no-dhdr10-opt / no-idr-recovery-sei / analysis-reuse-level=5 / scale-factor=0 / refine-intra=0 / refine-inter=0 / refine-mv=0 / refine-ctu-distortion=0 / no-limit-sao / ctu-info=0 / no-lowpass-dct / refine-analysis-type=0 / copy-pic=1 / max-ausize-factor=1.0 / no-dynamic-refine / no-single-sei / no-hevc-aq / qp-adaptation-range=1.00
  21. Default                                  : Yes
  22. Forced                                   : No
  23. Audio #1
  24. ID                                       : 2
  25. ID in the original source medium         : 4352 (0x1100)
  26. Format                                   : PCM
  27. Format settings                          : Little / Signed
  28. Codec ID                                 : A_PCM/INT/LIT
  29. Duration                                 : 1 h 51 min
  30. Bit rate mode                            : Constant
  31. Bit rate                                 : 1 152 kb/s
  32. Channel(s)                               : 1 channel
  33. Sampling rate                            : 48.0 kHz
  34. Frame rate                               : 30.000 FPS (1600 SPF)
  35. Bit depth                                : 24 bits
  36. Stream size                              : 920 MiB (2%)
  37. Title                                    : LPCM 1.0
  38. Language                                 : English
  39. Default                                  : Yes
  40. Forced                                   : No
  41. Original source medium                   : Blu-ray
  42. Audio #2
  43. ID                                       : 3
  44. Format                                   : AC-3
  45. Format/Info                              : Audio Coding 3
  46. Commercial name                          : Dolby Digital
  47. Codec ID                                 : A_AC3
  48. Duration                                 : 1 h 51 min
  49. Bit rate mode                            : Constant
  50. Bit rate                                 : 640 kb/s
  51. Channel(s)                               : 1 channel
  52. Channel layout                           : C
  53. Sampling rate                            : 48.0 kHz
  54. Frame rate                               : 31.250 FPS (1536 SPF)
  55. Compression mode                         : Lossy
  56. Stream size                              : 511 MiB (1%)
  57. Title                                    : DD 1.0
  58. Language                                 : English
  59. Service kind                             : Complete Main
  60. Default                                  : No
  61. Forced                                   : No
  62. Text #1
  63. ID                                       : 4
  64. Format                                   : UTF-8
  65. Codec ID                                 : S_TEXT/UTF8
  66. Codec ID/Info                            : UTF-8 Plain Text
  67. Duration                                 : 1 h 47 min
  68. Bit rate                                 : 37 b/s
  69. Frame rate                               : 0.137 FPS
  70. Count of elements                        : 886
  71. Stream size                              : 29.8 KiB (0%)
  72. Language                                 : English
  73. Default                                  : Yes
  74. Forced                                   : No
  75. Text #2
  76. ID                                       : 5
  77. Format                                   : UTF-8
  78. Codec ID                                 : S_TEXT/UTF8
  79. Codec ID/Info                            : UTF-8 Plain Text
  80. Duration                                 : 1 h 50 min
  81. Bit rate                                 : 40 b/s
  82. Frame rate                               : 0.148 FPS
  83. Count of elements                        : 986
  84. Stream size                              : 32.8 KiB (0%)
  85. Title                                    : SDH
  86. Language                                 : English
  87. Default                                  : No
  88. Forced                                   : No
  89. Text #3
  90. ID                                       : 6
  91. ID in the original source medium         : 4768 (0x12A0)
  92. Format                                   : PGS
  93. Muxing mode                              : zlib
  94. Codec ID                                 : S_HDMV/PGS
  95. Codec ID/Info                            : Picture based subtitle format used on BDs/HD-DVDs
  96. Duration                                 : 1 h 50 min
  97. Bit rate                                 : 24.5 kb/s
  98. Frame rate                               : 0.298 FPS
  99. Count of elements                        : 1982
  100. Stream size                              : 19.4 MiB (0%)
  101. Language                                 : English
  102. Default                                  : No
  103. Forced                                   : No
  104. Original source medium                   : Blu-ray
  105. Menu
  106. 00:00:00.000                             : en:Chapter 01
  107. 00:08:41.375                             : en:Chapter 02
  108. 00:18:56.666                             : en:Chapter 03
  109. 00:25:08.833                             : en:Chapter 04
  110. 00:37:37.708                             : en:Chapter 05
  111. 00:44:39.208                             : en:Chapter 06
  112. 00:53:30.416                             : en:Chapter 07
  113. 01:01:39.125                             : en:Chapter 08
  114. 01:14:30.750                             : en:Chapter 09
  115. 01:23:32.250                             : en:Chapter 10
  116. 01:34:25.416                             : en:Chapter 11
  117. 01:41:54.833                             : en:Chapter 12
复制代码





                                       
                                       

                                       
                                       
                                       




Get.Carter.1971.2160p.BluRay.x265.10bit.SDR.LPCM.1.0-SWTYBLZ.torrent (73.52 KB, 下载次数: 0)
回复

使用道具 举报

您需要登录后才可以回帖 登录 | 立即注册

本版积分规则

QQ|Archiver|手机版|小黑屋|蓝光电影网

GMT+8, 2022-8-8 18:24 , Processed in 0.056630 second(s), 28 queries .

Powered by Discuz! X3.4

Copyright © 2001-2020, Tencent Cloud.

快速回复 返回顶部 返回列表