找回密码
 立即注册

QQ登录

只需一步,快速开始

查看: 17|回复: 0

[其他] 暖暖内含光 Eternal.Sunshine.of.the.Spotless.Mind.2004.2160p.BluRay.x264.8bit.SDR.DTS-HD.MA.5.1-SWTYBLZ 42.32GB

[复制链接]

0

精华

0

好友

2

听众

新手上路

Rank: 2

蓝光币
5
发表于 5 天前 | 显示全部楼层 |阅读模式


◎标  题 暖暖内含光
◎译  名 暧暧内含光 / 美丽心灵的永恒阳光 / 纯洁心灵的永恒阳光 / 无瑕心灵的永恒阳光 / 无痛失恋(港) / 王牌冤家(台) / 灵光乍现 / 忘记你我做不到(豆友译名)
◎片  名 Eternal Sunshine of the Spotless Mind
◎年  代 2004
◎产  地 美国
◎类  别 剧情 / 爱情 / 科幻
◎语  言 英语
◎上映日期 2004-03-19(美国)
◎IMDb评分 8.3/10 (957331人评价)
◎IMDb链接 https://www.imdb.com/title/tt0338013/
◎豆瓣链接 https://movie.douban.com/subject/1308777/
◎片  长 108分钟
◎标  签 爱情 / 美国 / 文艺 / 奇幻 / 心理 / 剧情 / 失忆 / 浪漫
◎简  介

    内向沉稳的约尔•巴瑞斯(金•凯瑞 饰)在一次聚会中认识了率真随性的克莱门汀•克罗斯基(凯特•温丝莱特 饰),二人成为情侣。和普通的情侣一样,他们的日子也在甜蜜和争吵中度过。                                                                      2004年情人节前夕,当约尔精心准备好礼物,为不久前一次争吵找到克莱门汀道歉时,他惊讶地发现,克莱门汀根本都不记得他了。原来冲动的克莱门汀受不了二人交往中争吵的痛苦,到“忘情诊所”,把关于约尔的记忆删除得一干二净。                                                                      约尔无法原谅克莱门汀的任性,也无法忍受失去她的痛苦,所以他也到了“忘情诊所”,请求医生霍华德博士(汤姆•维尔金森 饰)消除关于克莱门汀的记忆。                                                                      记忆清除程序开始启动,约尔在自己的记忆中游走,他发现和克莱斯汀一起度过的那些时光,无论是痛苦还是甜蜜,都弥足珍贵,他并不想忘记这个自己深爱的女人。但是,程序一旦启动就无法逆转,约尔只能想尽办法把克莱斯汀藏到记忆最深的地方,那些现实中克莱斯汀本来没有出现过的时间角落,以保存这份爱情……
  1. Video
  2. ID                                       : 1
  3. Format                                   : AVC
  4. Format/Info                              : Advanced Video Codec
  5. Format profile                           : [email protected]
  6. Format settings                          : CABAC / 5 Ref Frames
  7. Format settings, CABAC                   : Yes
  8. Format settings, Reference frames        : 5 frames
  9. Codec ID                                 : V_MPEG4/ISO/AVC
  10. Duration                                 : 1 h 47 min
  11. Bit rate                                 : 51.7 Mb/s
  12. Width                                    : 3 840 pixels
  13. Height                                   : 2 076 pixels
  14. Display aspect ratio                     : 1.85:1
  15. Frame rate mode                          : Constant
  16. Frame rate                               : 24.000 FPS
  17. Color space                              : YUV
  18. Chroma subsampling                       : 4:2:0
  19. Bit depth                                : 8 bits
  20. Scan type                                : Progressive
  21. Bits/(Pixel*Frame)                       : 0.270
  22. Stream size                              : 38.9 GiB (92%)
  23. Writing library                          : x264 core 157 r2935 545de2f
  24. Encoding settings                        : cabac=1 / ref=5 / deblock=1:-1:-1 / analyse=0x3:0x113 / me=umh / subme=10 / psy=1 / psy_rd=1.00:0.15 / mixed_ref=1 / me_range=48 / chroma_me=1 / trellis=2 / 8x8dct=1 / cqm=0 / deadzone=21,11 / fast_pskip=1 / chroma_qp_offset=-3 / threads=36 / lookahead_threads=3 / sliced_threads=0 / nr=0 / decimate=0 / interlaced=0 / bluray_compat=0 / constrained_intra=0 / bframes=3 / b_pyramid=2 / b_adapt=2 / b_bias=0 / direct=3 / weightb=1 / open_gop=0 / weightp=2 / keyint=250 / keyint_min=24 / scenecut=40 / intra_refresh=0 / rc_lookahead=50 / rc=crf / mbtree=1 / crf=18.0 / qcomp=0.60 / qpmin=0 / qpmax=69 / qpstep=4 / ip_ratio=1.40 / aq=1:1.00
  25. Default                                  : Yes
  26. Forced                                   : No

  27. Audio #1
  28. ID                                       : 2
  29. ID in the original source medium         : 4352 (0x1100)
  30. Format                                   : DTS XLL
  31. Format/Info                              : Digital Theater Systems
  32. Commercial name                          : DTS-HD Master Audio
  33. Codec ID                                 : A_DTS
  34. Duration                                 : 1 h 47 min
  35. Bit rate mode                            : Variable
  36. Bit rate                                 : 3 595 kb/s
  37. Channel(s)                               : 6 channels
  38. Channel layout                           : C L R Ls Rs LFE
  39. Sampling rate                            : 48.0 kHz
  40. Frame rate                               : 93.750 FPS (512 SPF)
  41. Bit depth                                : 24 bits
  42. Compression mode                         : Lossless
  43. Stream size                              : 2.71 GiB (6%)
  44. Title                                    : DTS-HD MA 5.1
  45. Language                                 : English
  46. Default                                  : Yes
  47. Forced                                   : No
  48. Original source medium                   : Blu-ray

  49. Audio #2
  50. ID                                       : 3
  51. Format                                   : AC-3
  52. Format/Info                              : Audio Coding 3
  53. Commercial name                          : Dolby Digital
  54. Codec ID                                 : A_AC3
  55. Duration                                 : 1 h 47 min
  56. Bit rate mode                            : Constant
  57. Bit rate                                 : 640 kb/s
  58. Channel(s)                               : 6 channels
  59. Channel layout                           : L R C LFE Ls Rs
  60. Sampling rate                            : 48.0 kHz
  61. Frame rate                               : 31.250 FPS (1536 SPF)
  62. Compression mode                         : Lossy
  63. Stream size                              : 493 MiB (1%)
  64. Title                                    : DD 5.1
  65. Language                                 : English
  66. Service kind                             : Complete Main
  67. Default                                  : No
  68. Forced                                   : No

  69. Text #1
  70. ID                                       : 4
  71. Format                                   : UTF-8
  72. Codec ID                                 : S_TEXT/UTF8
  73. Codec ID/Info                            : UTF-8 Plain Text
  74. Duration                                 : 1 h 45 min
  75. Bit rate                                 : 68 b/s
  76. Frame rate                               : 0.262 FPS
  77. Count of elements                        : 1661
  78. Stream size                              : 52.7 KiB (0%)
  79. Language                                 : English
  80. Default                                  : Yes
  81. Forced                                   : No

  82. Text #2
  83. ID                                       : 5
  84. Format                                   : UTF-8
  85. Codec ID                                 : S_TEXT/UTF8
  86. Codec ID/Info                            : UTF-8 Plain Text
  87. Duration                                 : 1 h 46 min
  88. Bit rate                                 : 77 b/s
  89. Frame rate                               : 0.276 FPS
  90. Count of elements                        : 1772
  91. Stream size                              : 60.7 KiB (0%)
  92. Title                                    : SDH
  93. Language                                 : English
  94. Default                                  : No
  95. Forced                                   : No

  96. Text #3
  97. ID                                       : 6
  98. ID in the original source medium         : 4768 (0x12A0)
  99. Format                                   : PGS
  100. Muxing mode                              : zlib
  101. Codec ID                                 : S_HDMV/PGS
  102. Codec ID/Info                            : Picture based subtitle format used on BDs/HD-DVDs
  103. Duration                                 : 1 h 46 min
  104. Bit rate                                 : 46.7 kb/s
  105. Frame rate                               : 0.556 FPS
  106. Count of elements                        : 3566
  107. Stream size                              : 35.7 MiB (0%)
  108. Language                                 : English
  109. Default                                  : No
  110. Forced                                   : No
  111. Original source medium                   : Blu-ray

  112. Menu
  113. 00:00:00.000                             : en:Chapter 01
  114. 00:10:32.125                             : en:Chapter 02
  115. 00:23:42.625                             : en:Chapter 03
  116. 00:35:12.833                             : en:Chapter 04
  117. 00:47:59.416                             : en:Chapter 05
  118. 00:59:22.416                             : en:Chapter 06
  119. 01:08:04.416                             : en:Chapter 07
  120. 01:18:35.416                             : en:Chapter 08
  121. 01:26:31.416                             : en:Chapter 09
  122. 01:36:49.750                             : en:Chapter 10
复制代码




                                       
                                       

                                       
                                       
                                       




暖暖内含光 Eternal.Sunshine.of.the.Spotless.Mind.2004.2160p.BluRay.x264.8bit.SDR.DTS-HD.MA.5.1-SWTYBLZ 42.32GB

Eternal.Sunshine.of.the.Spotless.Mind.2004.2160p.BluRay.x264.8bit.SDR.DTS-HD.MA..torrent

53.67 KB, 下载次数: 0, 下载积分: 蓝光币 -2

回复

使用道具 举报

您需要登录后才可以回帖 登录 | 立即注册

本版积分规则

QQ|Archiver|手机版|小黑屋|蓝光电影网

GMT+8, 2022-8-8 17:25 , Processed in 0.056520 second(s), 28 queries .

Powered by Discuz! X3.4

Copyright © 2001-2020, Tencent Cloud.

快速回复 返回顶部 返回列表