找回密码
 立即注册

QQ登录

只需一步,快速开始

查看: 17|回复: 0

[其他] 暖暖内含光 Eternal.Sunshine.of.the.Spotless.Mind.2004.2160p.BluRay.x265.10bit.SDR.DTS-HD.MA.5.1-SWTYBLZ 36.17GB

[复制链接]

0

精华

0

好友

2

听众

新手上路

Rank: 2

蓝光币
5
发表于 5 天前 | 显示全部楼层 |阅读模式


◎标  题 暖暖内含光
◎译  名 暧暧内含光 / 美丽心灵的永恒阳光 / 纯洁心灵的永恒阳光 / 无瑕心灵的永恒阳光 / 无痛失恋(港) / 王牌冤家(台) / 灵光乍现 / 忘记你我做不到(豆友译名)
◎片  名 Eternal Sunshine of the Spotless Mind
◎年  代 2004
◎产  地 美国
◎类  别 剧情 / 爱情 / 科幻
◎语  言 英语
◎上映日期 2004-03-19(美国)
◎IMDb评分 8.3/10 (957331人评价)
◎IMDb链接 https://www.imdb.com/title/tt0338013/
◎豆瓣链接 https://movie.douban.com/subject/1308777/
◎片  长 108分钟
◎标  签 爱情 / 美国 / 文艺 / 奇幻 / 心理 / 剧情 / 失忆 / 浪漫
◎简  介

    内向沉稳的约尔•巴瑞斯(金•凯瑞 饰)在一次聚会中认识了率真随性的克莱门汀•克罗斯基(凯特•温丝莱特 饰),二人成为情侣。和普通的情侣一样,他们的日子也在甜蜜和争吵中度过。                                                                      2004年情人节前夕,当约尔精心准备好礼物,为不久前一次争吵找到克莱门汀道歉时,他惊讶地发现,克莱门汀根本都不记得他了。原来冲动的克莱门汀受不了二人交往中争吵的痛苦,到“忘情诊所”,把关于约尔的记忆删除得一干二净。                                                                      约尔无法原谅克莱门汀的任性,也无法忍受失去她的痛苦,所以他也到了“忘情诊所”,请求医生霍华德博士(汤姆•维尔金森 饰)消除关于克莱门汀的记忆。                                                                      记忆清除程序开始启动,约尔在自己的记忆中游走,他发现和克莱斯汀一起度过的那些时光,无论是痛苦还是甜蜜,都弥足珍贵,他并不想忘记这个自己深爱的女人。但是,程序一旦启动就无法逆转,约尔只能想尽办法把克莱斯汀藏到记忆最深的地方,那些现实中克莱斯汀本来没有出现过的时间角落,以保存这份爱情……
  1. Video
  2. ID                                       : 1
  3. Format                                   : HEVC
  4. Format/Info                              : High Efficiency Video Coding
  5. Format profile                           : Main [email protected]@High
  6. Codec ID                                 : V_MPEGH/ISO/HEVC
  7. Duration                                 : 1 h 47 min
  8. Bit rate                                 : 43.6 Mb/s
  9. Width                                    : 3 840 pixels
  10. Height                                   : 2 076 pixels
  11. Display aspect ratio                     : 1.85:1
  12. Frame rate mode                          : Constant
  13. Frame rate                               : 24.000 FPS
  14. Color space                              : YUV
  15. Chroma subsampling                       : 4:2:0
  16. Bit depth                                : 10 bits
  17. Bits/(Pixel*Frame)                       : 0.228
  18. Stream size                              : 32.8 GiB (91%)
  19. Writing library                          : x265 3.0ed72af837053:[Windows][GCC 8.2.0][64 bit] 10bit
  20. Encoding settings                        : cpuid=1111039 / frame-threads=6 / numa-pools=40 / wpp / no-pmode / no-pme / no-psnr / no-ssim / log-level=2 / input-csp=1 / input-res=3840x2076 / interlace=0 / total-frames=155177 / level-idc=51 / high-tier=1 / uhd-bd=0 / ref=3 / no-allow-non-conformance / repeat-headers / annexb / aud / hrd / info / hash=0 / no-temporal-layers / no-open-gop / min-keyint=1 / keyint=24 / gop-lookahead=0 / bframes=4 / b-adapt=2 / b-pyramid / bframe-bias=0 / rc-lookahead=25 / lookahead-slices=4 / scenecut=40 / radl=0 / no-splice / no-intra-refresh / ctu=64 / min-cu-size=8 / no-rect / no-amp / max-tu-size=32 / tu-inter-depth=1 / tu-intra-depth=1 / limit-tu=0 / rdoq-level=0 / dynamic-rd=0.00 / no-ssim-rd / signhide / no-tskip / nr-intra=0 / nr-inter=0 / no-constrained-intra / strong-intra-smoothing / max-merge=2 / limit-refs=3 / no-limit-modes / me=1 / subme=2 / merange=57 / temporal-mvp / weightp / no-weightb / no-analyze-src-pics / deblock=0:0 / no-sao / no-sao-non-deblock / rd=3 / no-early-skip / rskip / no-fast-intra / no-tskip-fast / no-cu-lossless / no-b-intra / no-splitrd-skip / rdpenalty=0 / psy-rd=2.00 / psy-rdoq=0.00 / no-rd-refine / no-lossless / cbqpoffs=0 / crqpoffs=0 / rc=crf / crf=16.0 / qcomp=0.60 / qpstep=4 / stats-write=0 / stats-read=0 / vbv-maxrate=160000 / vbv-bufsize=160000 / vbv-init=0.9 / crf-max=0.0 / crf-min=0.0 / ipratio=1.40 / pbratio=1.30 / aq-mode=1 / aq-strength=1.00 / cutree / zone-count=0 / no-strict-cbr / qg-size=32 / no-rc-grain / qpmax=69 / qpmin=0 / no-const-vbv / sar=1 / overscan=0 / videoformat=5 / range=0 / colorprim=2 / transfer=2 / colormatrix=2 / chromaloc=0 / display-window=0 / max-cll=0,0 / min-luma=0 / max-luma=1023 / log2-max-poc-lsb=8 / vui-timing-info / vui-hrd-info / slices=1 / opt-qp-pps / opt-ref-list-length-pps / no-multi-pass-opt-rps / scenecut-bias=0.05 / no-opt-cu-delta-qp / no-aq-motion / no-hdr / no-hdr-opt / no-dhdr10-opt / no-idr-recovery-sei / analysis-reuse-level=5 / scale-factor=0 / refine-intra=0 / refine-inter=0 / refine-mv=0 / refine-ctu-distortion=0 / no-limit-sao / ctu-info=0 / no-lowpass-dct / refine-analysis-type=0 / copy-pic=1 / max-ausize-factor=1.0 / no-dynamic-refine / no-single-sei / no-hevc-aq / qp-adaptation-range=1.00
  21. Default                                  : Yes
  22. Forced                                   : No

  23. Audio #1
  24. ID                                       : 2
  25. ID in the original source medium         : 4352 (0x1100)
  26. Format                                   : DTS XLL
  27. Format/Info                              : Digital Theater Systems
  28. Commercial name                          : DTS-HD Master Audio
  29. Codec ID                                 : A_DTS
  30. Duration                                 : 1 h 47 min
  31. Bit rate mode                            : Variable
  32. Bit rate                                 : 3 595 kb/s
  33. Channel(s)                               : 6 channels
  34. Channel layout                           : C L R Ls Rs LFE
  35. Sampling rate                            : 48.0 kHz
  36. Frame rate                               : 93.750 FPS (512 SPF)
  37. Bit depth                                : 24 bits
  38. Compression mode                         : Lossless
  39. Stream size                              : 2.71 GiB (8%)
  40. Title                                    : DTS-HD MA 5.1
  41. Language                                 : English
  42. Default                                  : Yes
  43. Forced                                   : No
  44. Original source medium                   : Blu-ray

  45. Audio #2
  46. ID                                       : 3
  47. Format                                   : AC-3
  48. Format/Info                              : Audio Coding 3
  49. Commercial name                          : Dolby Digital
  50. Codec ID                                 : A_AC3
  51. Duration                                 : 1 h 47 min
  52. Bit rate mode                            : Constant
  53. Bit rate                                 : 640 kb/s
  54. Channel(s)                               : 6 channels
  55. Channel layout                           : L R C LFE Ls Rs
  56. Sampling rate                            : 48.0 kHz
  57. Frame rate                               : 31.250 FPS (1536 SPF)
  58. Compression mode                         : Lossy
  59. Stream size                              : 493 MiB (1%)
  60. Title                                    : DD 5.1
  61. Language                                 : English
  62. Service kind                             : Complete Main
  63. Default                                  : No
  64. Forced                                   : No

  65. Text #1
  66. ID                                       : 4
  67. Format                                   : UTF-8
  68. Codec ID                                 : S_TEXT/UTF8
  69. Codec ID/Info                            : UTF-8 Plain Text
  70. Duration                                 : 1 h 45 min
  71. Bit rate                                 : 68 b/s
  72. Frame rate                               : 0.262 FPS
  73. Count of elements                        : 1661
  74. Stream size                              : 52.7 KiB (0%)
  75. Language                                 : English
  76. Default                                  : Yes
  77. Forced                                   : No

  78. Text #2
  79. ID                                       : 5
  80. Format                                   : UTF-8
  81. Codec ID                                 : S_TEXT/UTF8
  82. Codec ID/Info                            : UTF-8 Plain Text
  83. Duration                                 : 1 h 46 min
  84. Bit rate                                 : 77 b/s
  85. Frame rate                               : 0.276 FPS
  86. Count of elements                        : 1772
  87. Stream size                              : 60.7 KiB (0%)
  88. Title                                    : SDH
  89. Language                                 : English
  90. Default                                  : No
  91. Forced                                   : No

  92. Text #3
  93. ID                                       : 6
  94. ID in the original source medium         : 4768 (0x12A0)
  95. Format                                   : PGS
  96. Muxing mode                              : zlib
  97. Codec ID                                 : S_HDMV/PGS
  98. Codec ID/Info                            : Picture based subtitle format used on BDs/HD-DVDs
  99. Duration                                 : 1 h 46 min
  100. Bit rate                                 : 46.7 kb/s
  101. Frame rate                               : 0.556 FPS
  102. Count of elements                        : 3566
  103. Stream size                              : 35.7 MiB (0%)
  104. Language                                 : English
  105. Default                                  : No
  106. Forced                                   : No
  107. Original source medium                   : Blu-ray

  108. Menu
  109. 00:00:00.000                             : en:Chapter 01
  110. 00:10:32.125                             : en:Chapter 02
  111. 00:23:42.625                             : en:Chapter 03
  112. 00:35:12.833                             : en:Chapter 04
  113. 00:47:59.416                             : en:Chapter 05
  114. 00:59:22.416                             : en:Chapter 06
  115. 01:08:04.416                             : en:Chapter 07
  116. 01:18:35.416                             : en:Chapter 08
  117. 01:26:31.416                             : en:Chapter 09
  118. 01:36:49.750                             : en:Chapter 10
复制代码










                                       
                                       

                                       
                                       
                                       




Eternal.Sunshine.of.the.Spotless.Mind.2004.REMASTERED.1080p.BluRay.x264-PiGNUS.torrent (19.89 KB, 下载次数: 0)
回复

使用道具 举报

您需要登录后才可以回帖 登录 | 立即注册

本版积分规则

QQ|Archiver|手机版|小黑屋|蓝光电影网

GMT+8, 2022-8-8 19:16 , Processed in 0.062274 second(s), 28 queries .

Powered by Discuz! X3.4

Copyright © 2001-2020, Tencent Cloud.

快速回复 返回顶部 返回列表