找回密码
 立即注册

QQ登录

只需一步,快速开始

查看: 21|回复: 0

[其他] 找到卡特 Get.Carter.1971.2160p.BluRay.x264.8bit.SDR.LPCM.1.0-SWTYBLZ 71.09GB

[复制链接]

0

精华

0

好友

2

听众

新手上路

Rank: 2

蓝光币
5
发表于 5 天前 | 显示全部楼层 |阅读模式


◎标  题 找到卡特
◎译  名 黑街正义心 / 江湖大决斗 / 杀手卡特 / 复仇威龙
◎片  名 Get Carter
◎年  代 1971
◎产  地 英国
◎类  别 剧情 / 惊悚 / 犯罪
◎语  言 英语
◎上映日期 1971-03-18
◎IMDb评分 7.4/10 (32223人评价)
◎IMDb链接 https://www.imdb.com/title/tt0067128/
◎豆瓣评分 7.3/10 (317人评价)
◎豆瓣链接 https://movie.douban.com/subject/1306370/
◎片  长 112 分钟 / West Germany: 103 分钟(cut version)
◎导  演 迈克·霍奇斯 Mike Hodges
◎编  剧 迈克·霍奇斯 Mike Hodges
       Ted Lewis Ted Lewis
◎演  员 迈克尔·凯恩 Michael Caine
       伊恩·亨德里 Ian Hendry
       布里特·艾克拉诺 Britt Ekland
       约翰·奥斯本 John Osborne
       Rosemarie Dunham Rosemarie Dunham
       伯纳德·赫普顿 Bernard Hepton
       Geraldine Moffat Geraldine Moffat
       乔治·休厄尔 George Sewell
       戈弗雷·奎格利 Godfrey Quigley
       Geraldine Sherman Geraldine Sherman
       格林·爱德华兹 Glynn Edwards
       托尼·贝克利 Tony Beckley
       特伦斯·里格比 Terence Rigby
       裴特拉·马克汉姆 Petra Markham
       布莱恩·莫斯利 Bryan Mosley
       Ben Aris Ben Aris
       John Bindon John Bindon
       艾伦·阿姆斯特朗 Alun Armstrong
◎标  签 英国 / 犯罪 / 英国电影 / 1971 / 黑色幽默 / 黑帮 / 剧情 / 欧洲
◎简  介

    杰克-卡特(迈克尔凯恩饰)一直以为人讨债、做代理为生。他能力超群,总是喜欢一人独居。但当他的兄弟在一桩“意外事件”中遇难后,他回到了那个被他遗弃的“卡特”家----去偿还那永远也还不清的“债”,解开那萦绕在他心灵中的兄弟遇害之谜。                                                                      对于杰克来说,回到西雅图的家是一次弥补过失的机会。他联系上了他兄弟的妻子格洛里亚(米兰达-理查森饰)和她十多岁的女儿多琳(雷切尔-利-库克饰)。她们对他的这一举动很感疑惑。但当他发现兄弟的死整个是个谋杀时,他回来的目的很快从赎罪转向了复仇。                                                                      杰克终于与多琳达成了和解,多琳也开始帮他,带他深入到城里的那些阴暗角落,到一个充满了欺骗性、到处漂溢着虚假的世界。卡特曾想向那些罪恶伸张正义,但是他越深入了解到事件的真相,越对自己的动机开始怀疑。他非但没有复仇,反而起了宽仁之心,直到最终又开始了赎罪。
  1. Video
  2. ID                                       : 1
  3. Format                                   : AVC
  4. Format/Info                              : Advanced Video Codec
  5. Format profile                           : [email protected]
  6. Format settings                          : CABAC / 5 Ref Frames
  7. Format settings, CABAC                   : Yes
  8. Format settings, Reference frames        : 5 frames
  9. Codec ID                                 : V_MPEG4/ISO/AVC
  10. Duration                                 : 1 h 51 min
  11. Bit rate                                 : 88.8 Mb/s
  12. Width                                    : 3 840 pixels
  13. Height                                   : 2 076 pixels
  14. Display aspect ratio                     : 1.85:1
  15. Frame rate mode                          : Constant
  16. Frame rate                               : 24.000 FPS
  17. Color space                              : YUV
  18. Chroma subsampling                       : 4:2:0
  19. Bit depth                                : 8 bits
  20. Scan type                                : Progressive
  21. Bits/(Pixel*Frame)                       : 0.464
  22. Stream size                              : 69.3 GiB (98%)
  23. Writing library                          : x264 core 157 r2935 545de2f
  24. Encoding settings                        : cabac=1 / ref=5 / deblock=1:-1:-1 / analyse=0x3:0x113 / me=umh / subme=10 / psy=1 / psy_rd=1.00:0.15 / mixed_ref=1 / me_range=48 / chroma_me=1 / trellis=2 / 8x8dct=1 / cqm=0 / deadzone=21,11 / fast_pskip=1 / chroma_qp_offset=-3 / threads=48 / lookahead_threads=4 / sliced_threads=0 / nr=0 / decimate=0 / interlaced=0 / bluray_compat=0 / constrained_intra=0 / bframes=3 / b_pyramid=2 / b_adapt=2 / b_bias=0 / direct=3 / weightb=1 / open_gop=0 / weightp=2 / keyint=250 / keyint_min=24 / scenecut=40 / intra_refresh=0 / rc_lookahead=50 / rc=crf / mbtree=1 / crf=19.0 / qcomp=0.60 / qpmin=0 / qpmax=69 / qpstep=4 / ip_ratio=1.40 / aq=1:1.00
  25. Default                                  : Yes
  26. Forced                                   : No
  27. Audio #1
  28. ID                                       : 2
  29. ID in the original source medium         : 4352 (0x1100)
  30. Format                                   : PCM
  31. Format settings                          : Little / Signed
  32. Codec ID                                 : A_PCM/INT/LIT
  33. Duration                                 : 1 h 51 min
  34. Bit rate mode                            : Constant
  35. Bit rate                                 : 1 152 kb/s
  36. Channel(s)                               : 1 channel
  37. Sampling rate                            : 48.0 kHz
  38. Frame rate                               : 30.000 FPS (1600 SPF)
  39. Bit depth                                : 24 bits
  40. Stream size                              : 920 MiB (1%)
  41. Title                                    : LPCM 1.0
  42. Language                                 : English
  43. Default                                  : Yes
  44. Forced                                   : No
  45. Original source medium                   : Blu-ray
  46. Audio #2
  47. ID                                       : 3
  48. Format                                   : AC-3
  49. Format/Info                              : Audio Coding 3
  50. Commercial name                          : Dolby Digital
  51. Codec ID                                 : A_AC3
  52. Duration                                 : 1 h 51 min
  53. Bit rate mode                            : Constant
  54. Bit rate                                 : 640 kb/s
  55. Channel(s)                               : 1 channel
  56. Channel layout                           : C
  57. Sampling rate                            : 48.0 kHz
  58. Frame rate                               : 31.250 FPS (1536 SPF)
  59. Compression mode                         : Lossy
  60. Stream size                              : 511 MiB (1%)
  61. Title                                    : DD 1.0
  62. Language                                 : English
  63. Service kind                             : Complete Main
  64. Default                                  : No
  65. Forced                                   : No
  66. Text #1
  67. ID                                       : 4
  68. Format                                   : UTF-8
  69. Codec ID                                 : S_TEXT/UTF8
  70. Codec ID/Info                            : UTF-8 Plain Text
  71. Duration                                 : 1 h 47 min
  72. Bit rate                                 : 37 b/s
  73. Frame rate                               : 0.137 FPS
  74. Count of elements                        : 886
  75. Stream size                              : 29.8 KiB (0%)
  76. Language                                 : English
  77. Default                                  : Yes
  78. Forced                                   : No
  79. Text #2
  80. ID                                       : 5
  81. Format                                   : UTF-8
  82. Codec ID                                 : S_TEXT/UTF8
  83. Codec ID/Info                            : UTF-8 Plain Text
  84. Duration                                 : 1 h 50 min
  85. Bit rate                                 : 40 b/s
  86. Frame rate                               : 0.148 FPS
  87. Count of elements                        : 986
  88. Stream size                              : 32.8 KiB (0%)
  89. Title                                    : SDH
  90. Language                                 : English
  91. Default                                  : No
  92. Forced                                   : No
  93. Text #3
  94. ID                                       : 6
  95. ID in the original source medium         : 4768 (0x12A0)
  96. Format                                   : PGS
  97. Muxing mode                              : zlib
  98. Codec ID                                 : S_HDMV/PGS
  99. Codec ID/Info                            : Picture based subtitle format used on BDs/HD-DVDs
  100. Duration                                 : 1 h 50 min
  101. Bit rate                                 : 24.5 kb/s
  102. Frame rate                               : 0.298 FPS
  103. Count of elements                        : 1982
  104. Stream size                              : 19.4 MiB (0%)
  105. Language                                 : English
  106. Default                                  : No
  107. Forced                                   : No
  108. Original source medium                   : Blu-ray
  109. Menu
  110. 00:00:00.000                             : en:Chapter 01
  111. 00:08:41.375                             : en:Chapter 02
  112. 00:18:56.666                             : en:Chapter 03
  113. 00:25:08.833                             : en:Chapter 04
  114. 00:37:37.708                             : en:Chapter 05
  115. 00:44:39.208                             : en:Chapter 06
  116. 00:53:30.416                             : en:Chapter 07
  117. 01:01:39.125                             : en:Chapter 08
  118. 01:14:30.750                             : en:Chapter 09
  119. 01:23:32.250                             : en:Chapter 10
  120. 01:34:25.416                             : en:Chapter 11
  121. 01:41:54.833                             : en:Chapter 12
复制代码








                                       
                                       

                                       
                                       
                                       




Get.Carter.1971.2160p.BluRay.x264.8bit.SDR.LPCM.1.0-SWTYBLZ.torrent (89.56 KB, 下载次数: 0)
回复

使用道具 举报

您需要登录后才可以回帖 登录 | 立即注册

本版积分规则

QQ|Archiver|手机版|小黑屋|蓝光电影网

GMT+8, 2022-8-8 18:12 , Processed in 0.062900 second(s), 28 queries .

Powered by Discuz! X3.4

Copyright © 2001-2020, Tencent Cloud.

快速回复 返回顶部 返回列表