找回密码
 立即注册

QQ登录

只需一步,快速开始

查看: 24|回复: 0

[其他] 哈里斯夫人去巴黎 Mrs.Harris.Goes.to.Paris.2022.2160p.AMZN.WEB-DL.x265.8bit.SDR.DDP5.1-CM 11.71GB

[复制链接]

0

精华

0

好友

2

听众

新手上路

Rank: 2

蓝光币
5
发表于 5 天前 | 显示全部楼层 |阅读模式


◎标  题 哈里斯夫人去巴黎
◎片  名 Mrs Harris Goes to Paris
◎年  代 2022
◎产  地 匈牙利 / 英国 / 加拿大 / 法国 / 美国 / 比利时
◎类  别 剧情 / 喜剧
◎语  言 英语
◎上映日期 2022-07-15(美国)
◎IMDb评分 7.6/10 (1037人评价)
◎IMDb链接 https://www.imdb.com/title/tt5151570/
◎豆瓣链接 https://movie.douban.com/subject/35220828/
◎片  长 115分钟
◎导  演 安东尼·法比安 Anthony Fabian
◎编  剧 安东尼·法比安 Anthony Fabian
       卡罗尔·卡特赖特 Carroll Cartwright
       基思·汤普森 Keith Thompson
       奥莉薇亚·黑特理德 Olivia Hetreed
       保罗·加利科 Paul Gallico
◎演  员 詹森·艾萨克 Jason Isaacs
       莱丝利·曼维尔 Lesley Manville
       安娜·钱斯勒 Anna Chancellor
       罗斯·威廉姆斯 Rose Williams
       阿尔芭·巴普蒂斯塔 Alba Baptista
       卢卡斯·布哈沃 Lucas Bravo
       伊莎贝尔·于佩尔 Isabelle Huppert
       弗莱迪·福克斯 Freddie Fox
       朗贝尔·维尔森 Lambert Wilson
       罗珊妮·杜兰 Roxane Duran
       克里斯蒂安·麦凯 Christian McKay
       艾伦·托马斯 Ellen Thomas
       德尔罗伊·阿特金森 Delroy Atkinson
       杰瑞米·惠勒 Jeremy Wheeler
       莎拉·里克曼 Sarah Rickman
       本·阿迪斯 Ben Addis
       吉莱纳·隆代 Guilaine Londez
       巴纳巴斯·雷蒂 Barnabás Réti
       文森特·马丁 Vincent Martin
       伊戈尔·萨斯兹 Igor Szasz
       佐尔特·帕尔 Zsolt Páll
       彼得·维赫 Péter Végh
       巴尔·瓦斯维尔斯 Balázs Veres
       珍妮·碧万 Jenny Beavan
◎简  介

  影片改编自保罗·加利科同名畅销小说。讲述1950年代的伦敦,一个寡居的清洁女工(莱丝利·曼维尔 饰)疯狂地爱上了一件迪奥的高级定制的裙子,并决定要有一件属于她自己的。在经历了工作、挨饿和赌博筹集资金以追求自己的梦想之后,她开始了前往巴黎的冒险之旅,这不仅将改变她的前景,还会让这座标志性时尚之都的未来焕然一新。
  1. Video
  2. ID                                       : 1
  3. Format                                   : HEVC
  4. Format/Info                              : High Efficiency Video Coding
  5. Format profile                           : [email protected]@Main
  6. Codec ID                                 : V_MPEGH/ISO/HEVC
  7. Duration                                 : 1 h 55 min
  8. Bit rate                                 : 13.8 Mb/s
  9. Width                                    : 3 840 pixels
  10. Height                                   : 1 600 pixels
  11. Display aspect ratio                     : 2.40:1
  12. Frame rate mode                          : Constant
  13. Frame rate                               : 23.976 (24000/1001/189150) FPS
  14. Standard                                 : NTSC
  15. Color space                              : YUV
  16. Chroma subsampling                       : 4:2:0
  17. Bit depth                                : 8 bits
  18. Bits/(Pixel*Frame)                       : 0.094
  19. Stream size                              : 11.2 GiB (96%)
  20. Writing library                          : x265 2.9_elemental9e0607aa5b6f:[Linux][GCC 4.8.5][64 bit] 8bit+10bit+12bit
  21. Encoding settings                        : cpuid=1111039 / frame-threads=2 / wpp / no-pmode / no-pme / psnr / ssim / log-level=2 / csv / csv-log-level=2 / input-csp=1 / input-res=3840x1600 / interlace=0 / total-frames=0 / level-idc=50 / high-tier=1 / uhd-bd=0 / ref=5 / no-allow-non-conformance / no-repeat-headers / annexb / no-aud / no-hrd / info / hash=0 / no-temporal-layers / no-open-gop / min-keyint=61 / keyint=120 / gop-lookahead=0 / bframes=8 / b-adapt=2 / b-pyramid / bframe-bias=0 / rc-lookahead=120 / lookahead-slices=4 / scenecut=0 / radl=0 / no-intra-refresh / ctu=64 / min-cu-size=8 / rect / amp / max-tu-size=32 / tu-inter-depth=4 / tu-intra-depth=4 / limit-tu=4 / rdoq-level=2 / dynamic-rd=0.00 / no-ssim-rd / signhide / tskip / nr-intra=100 / nr-inter=600 / no-constrained-intra / strong-intra-smoothing / max-merge=3 / limit-refs=3 / limit-modes / me=3 / subme=3 / merange=57 / temporal-mvp / weightp / weightb / no-analyze-src-pics / deblock=0:0 / no-sao / no-sao-non-deblock / rd=4 / no-early-skip / no-rskip / no-fast-intra / tskip-fast / no-cu-lossless / b-intra / no-splitrd-skip / rdpenalty=0 / psy-rd=4.00 / psy-rdoq=10.00 / no-rd-refine / no-lossless / cbqpoffs=0 / crqpoffs=0 / rc=crf / crf=25.0 / qcomp=0.60 / qpstep=1 / stats-write=0 / stats-read=0 / vbv-maxrate=15000 / vbv-bufsize=20000 / vbv-init=0.9 / crf-max=0.0 / crf-min=0.0 / ipratio=1.10 / pbratio=1.00 / aq-mode=0 / aq-strength=1.50 / no-cutree / zone-count=0 / no-strict-cbr / qg-size=32 / rc-grain / qpmax=69 / qpmin=0 / const-vbv / sar=1 / overscan=0 / videoformat=2 / range=0 / colorprim=1 / transfer=1 / colormatrix=1 / chromaloc=0 / display-window=0 / max-cll=0,0 / min-luma=0 / max-luma=255 / log2-max-poc-lsb=8 / vui-timing-info / vui-hrd-info / slices=1 / opt-qp-pps / no-opt-ref-list-length-pps / no-multi-pass-opt-rps / scenecut-bias=0.05 / no-opt-cu-delta-qp / no-aq-motion / no-hdr / no-hdr-opt / no-dhdr10-opt / no-idr-recovery-sei / analysis-reuse-level=5 / scale-factor=0 / refine-intra=0 / refine-inter=0 / refine-mv=0 / no-limit-sao / ctu-info=0 / no-lowpass-dct / refine-mv-type=0 / copy-pic=1 / max-ausize-factor=1.0 / no-dynamic-refine / no-single-sei
  22. Language                                 : English
  23. Default                                  : Yes
  24. Forced                                   : No
  25. Color range                              : Limited
  26. Color primaries                          : BT.709
  27. Transfer characteristics                 : BT.709
  28. Matrix coefficients                      : BT.709
  29. Audio
  30. ID                                       : 2
  31. Format                                   : E-AC-3
  32. Format/Info                              : Enhanced AC-3
  33. Commercial name                          : Dolby Digital Plus
  34. Codec ID                                 : A_EAC3
  35. Duration                                 : 1 h 55 min
  36. Bit rate mode                            : Constant
  37. Bit rate                                 : 640 kb/s
  38. Channel(s)                               : 6 channels
  39. Channel layout                           : L R C LFE Ls Rs
  40. Sampling rate                            : 48.0 kHz
  41. Frame rate                               : 31.250 FPS (1536 SPF)
  42. Compression mode                         : Lossy
  43. Stream size                              : 531 MiB (4%)
  44. Language                                 : English
  45. Service kind                             : Complete Main
  46. Default                                  : Yes
  47. Forced                                   : No
  48. Text #1
  49. ID                                       : 3
  50. Format                                   : UTF-8
  51. Codec ID                                 : S_TEXT/UTF8
  52. Codec ID/Info                            : UTF-8 Plain Text
  53. Duration                                 : 1 h 14 min
  54. Bit rate                                 : 7 b/s
  55. Frame rate                               : 0.035 FPS
  56. Count of elements                        : 156
  57. Stream size                              : 4.27 KiB (0%)
  58. Title                                    : British Forced
  59. Language                                 : English
  60. Default                                  : Yes
  61. Forced                                   : Yes
  62. Text #2
  63. ID                                       : 4
  64. Format                                   : UTF-8
  65. Codec ID                                 : S_TEXT/UTF8
  66. Codec ID/Info                            : UTF-8 Plain Text
  67. Duration                                 : 1 h 55 min
  68. Bit rate                                 : 54 b/s
  69. Frame rate                               : 0.260 FPS
  70. Count of elements                        : 1797
  71. Stream size                              : 46.2 KiB (0%)
  72. Title                                    : British SDH
  73. Language                                 : English
  74. Default                                  : No
  75. Forced                                   : No
  76. Text #3
  77. ID                                       : 5
  78. Format                                   : UTF-8
  79. Codec ID                                 : S_TEXT/UTF8
  80. Codec ID/Info                            : UTF-8 Plain Text
  81. Duration                                 : 1 h 54 min
  82. Bit rate                                 : 47 b/s
  83. Frame rate                               : 0.225 FPS
  84. Count of elements                        : 1553
  85. Stream size                              : 40.0 KiB (0%)
  86. Title                                    : British
  87. Language                                 : English
  88. Default                                  : No
  89. Forced                                   : No
  90. Text #4
  91. ID                                       : 6
  92. Format                                   : UTF-8
  93. Codec ID                                 : S_TEXT/UTF8
  94. Codec ID/Info                            : UTF-8 Plain Text
  95. Duration                                 : 1 h 48 min
  96. Bit rate                                 : 47 b/s
  97. Frame rate                               : 0.193 FPS
  98. Count of elements                        : 1255
  99. Stream size                              : 37.9 KiB (0%)
  100. Title                                    : Canadian
  101. Language                                 : French
  102. Default                                  : No
  103. Forced                                   : No
复制代码





                                       
                                       

                                       
                                       
                                       




Mrs.Harris.Goes.to.Paris.2022.2160p.AMZN.WEB-DL.x265.8bit.SDR.DDP5.1-CM.torrent (15.3 KB, 下载次数: 0)
回复

使用道具 举报

您需要登录后才可以回帖 登录 | 立即注册

本版积分规则

QQ|Archiver|手机版|小黑屋|蓝光电影网

GMT+8, 2022-8-8 18:14 , Processed in 0.054209 second(s), 28 queries .

Powered by Discuz! X3.4

Copyright © 2001-2020, Tencent Cloud.

快速回复 返回顶部 返回列表