找回密码
 立即注册

QQ登录

只需一步,快速开始

查看: 13|回复: 0

[其他] 哈里斯夫人去巴黎 Mrs.Harris.Goes.to.Paris.2022.2160p.WEB-DL.x265.10bit.HDR.DDP5.1-NOGRP 12.35GB

[复制链接]

0

精华

0

好友

2

听众

新手上路

Rank: 2

蓝光币
5
发表于 5 天前 | 显示全部楼层 |阅读模式
[img][/img]

◎标  题 哈里斯夫人去巴黎
◎片  名 Mrs Harris Goes to Paris
◎年  代 2022
◎产  地 匈牙利 / 英国 / 加拿大 / 法国 / 美国 / 比利时
◎类  别 剧情 / 喜剧
◎语  言 英语
◎上映日期 2022-07-15(美国)
◎IMDb评分 7.6/10 (1037人评价)
◎IMDb链接 https://www.imdb.com/title/tt5151570/
◎豆瓣链接 https://movie.douban.com/subject/35220828/
◎片  长 115分钟
◎导  演 安东尼·法比安 Anthony Fabian
◎编  剧 安东尼·法比安 Anthony Fabian
       卡罗尔·卡特赖特 Carroll Cartwright
       基思·汤普森 Keith Thompson
       奥莉薇亚·黑特理德 Olivia Hetreed
       保罗·加利科 Paul Gallico
◎演  员 詹森·艾萨克 Jason Isaacs
       莱丝利·曼维尔 Lesley Manville
       安娜·钱斯勒 Anna Chancellor
       罗斯·威廉姆斯 Rose Williams
       阿尔芭·巴普蒂斯塔 Alba Baptista
       卢卡斯·布哈沃 Lucas Bravo
       伊莎贝尔·于佩尔 Isabelle Huppert
       弗莱迪·福克斯 Freddie Fox
       朗贝尔·维尔森 Lambert Wilson
       罗珊妮·杜兰 Roxane Duran
       克里斯蒂安·麦凯 Christian McKay
       艾伦·托马斯 Ellen Thomas
       德尔罗伊·阿特金森 Delroy Atkinson
       杰瑞米·惠勒 Jeremy Wheeler
       莎拉·里克曼 Sarah Rickman
       本·阿迪斯 Ben Addis
       吉莱纳·隆代 Guilaine Londez
       巴纳巴斯·雷蒂 Barnabás Réti
       文森特·马丁 Vincent Martin
       伊戈尔·萨斯兹 Igor Szasz
       佐尔特·帕尔 Zsolt Páll
       彼得·维赫 Péter Végh
       巴尔·瓦斯维尔斯 Balázs Veres
       珍妮·碧万 Jenny Beavan
◎简  介

  影片改编自保罗·加利科同名畅销小说。讲述1950年代的伦敦,一个寡居的清洁女工(莱丝利·曼维尔 饰)疯狂地爱上了一件迪奥的高级定制的裙子,并决定要有一件属于她自己的。在经历了工作、挨饿和赌博筹集资金以追求自己的梦想之后,她开始了前往巴黎的冒险之旅,这不仅将改变她的前景,还会让这座标志性时尚之都的未来焕然一新。
  1. Video
  2. ID                                       : 1
  3. Format                                   : HEVC
  4. Format/Info                              : High Efficiency Video Coding
  5. Format profile                           : Main [email protected]@High
  6. HDR format                               : SMPTE ST 2086, HDR10 compatible
  7. Codec ID                                 : V_MPEGH/ISO/HEVC
  8. Duration                                 : 1 h 55 min
  9. Bit rate                                 : 14.6 Mb/s
  10. Width                                    : 3 836 pixels
  11. Height                                   : 1 600 pixels
  12. Display aspect ratio                     : 2.40:1
  13. Original display aspect ratio            : 2.40:1
  14. Frame rate mode                          : Constant
  15. Frame rate                               : 23.976 FPS
  16. Color space                              : YUV
  17. Chroma subsampling                       : 4:2:0 (Type 2)
  18. Bit depth                                : 10 bits
  19. Bits/(Pixel*Frame)                       : 0.099
  20. Stream size                              : 11.8 GiB (96%)
  21. Language                                 : English
  22. Default                                  : Yes
  23. Forced                                   : No
  24. Color range                              : Limited
  25. Color primaries                          : BT.2020
  26. Transfer characteristics                 : PQ
  27. Matrix coefficients                      : BT.2020 non-constant
  28. Mastering display color primaries        : Display P3
  29. Mastering display luminance              : min: 0.0050 cd/m2, max: 1000 cd/m2
  30. Maximum Content Light Level              : 811 cd/m2
  31. Maximum Frame-Average Light Level        : 117 cd/m2
  32. Audio
  33. ID                                       : 2
  34. Format                                   : E-AC-3
  35. Format/Info                              : Enhanced AC-3
  36. Commercial name                          : Dolby Digital Plus
  37. Codec ID                                 : A_EAC3
  38. Duration                                 : 1 h 55 min
  39. Bit rate mode                            : Constant
  40. Bit rate                                 : 640 kb/s
  41. Channel(s)                               : 6 channels
  42. Channel layout                           : L R C LFE Ls Rs
  43. Sampling rate                            : 48.0 kHz
  44. Frame rate                               : 31.250 FPS (1536 SPF)
  45. Compression mode                         : Lossy
  46. Stream size                              : 531 MiB (4%)
  47. Language                                 : English
  48. Service kind                             : Complete Main
  49. Default                                  : Yes
  50. Forced                                   : No
  51. Text #1
  52. ID                                       : 3
  53. Format                                   : UTF-8
  54. Codec ID                                 : S_TEXT/UTF8
  55. Codec ID/Info                            : UTF-8 Plain Text
  56. Duration                                 : 1 h 14 min
  57. Bit rate                                 : 7 b/s
  58. Frame rate                               : 0.035 FPS
  59. Count of elements                        : 156
  60. Stream size                              : 4.27 KiB (0%)
  61. Title                                    : British Forced
  62. Language                                 : English
  63. Default                                  : No
  64. Forced                                   : Yes
  65. Text #2
  66. ID                                       : 4
  67. Format                                   : UTF-8
  68. Codec ID                                 : S_TEXT/UTF8
  69. Codec ID/Info                            : UTF-8 Plain Text
  70. Duration                                 : 1 h 54 min
  71. Bit rate                                 : 47 b/s
  72. Frame rate                               : 0.225 FPS
  73. Count of elements                        : 1553
  74. Stream size                              : 40.0 KiB (0%)
  75. Title                                    : British
  76. Language                                 : English
  77. Default                                  : Yes
  78. Forced                                   : No
  79. Text #3
  80. ID                                       : 5
  81. Format                                   : UTF-8
  82. Codec ID                                 : S_TEXT/UTF8
  83. Codec ID/Info                            : UTF-8 Plain Text
  84. Duration                                 : 1 h 55 min
  85. Bit rate                                 : 54 b/s
  86. Frame rate                               : 0.260 FPS
  87. Count of elements                        : 1797
  88. Stream size                              : 46.2 KiB (0%)
  89. Title                                    : British SDH
  90. Language                                 : English
  91. Default                                  : No
  92. Forced                                   : No
  93. Text #4
  94. ID                                       : 6
  95. Format                                   : UTF-8
  96. Codec ID                                 : S_TEXT/UTF8
  97. Codec ID/Info                            : UTF-8 Plain Text
  98. Duration                                 : 1 h 48 min
  99. Bit rate                                 : 47 b/s
  100. Frame rate                               : 0.193 FPS
  101. Count of elements                        : 1255
  102. Stream size                              : 37.9 KiB (0%)
  103. Title                                    : Canadian
  104. Language                                 : French
  105. Default                                  : No
  106. Forced                                   : No
  107. Menu
  108. 00:00:00.000                             : en:Chapter 01
  109. 00:09:15.221                             : en:Chapter 02
  110. 00:16:03.463                             : en:Chapter 03
  111. 00:21:06.266                             : en:Chapter 04
  112. 00:25:43.585                             : en:Chapter 05
  113. 00:33:11.241                             : en:Chapter 06
  114. 00:39:29.369                             : en:Chapter 07
  115. 00:49:41.606                             : en:Chapter 08
  116. 00:55:52.185                             : en:Chapter 09
  117. 00:59:27.442                             : en:Chapter 10
  118. 01:04:37.377                             : en:Chapter 11
  119. 01:10:30.146                             : en:Chapter 12
  120. 01:16:57.158                             : en:Chapter 13
  121. 01:21:06.199                             : en:Chapter 14
  122. 01:25:45.061                             : en:Chapter 15
  123. 01:31:52.554                             : en:Chapter 16
  124. 01:36:37.756                             : en:Chapter 17
  125. 01:43:27.540                             : en:Chapter 18
  126. 01:46:49.075                             : en:Chapter 19
  127. 01:50:34.426                             : en:Chapter 20
复制代码




                                       
                                       

                                       
                                       
                                       




Mrs.Harris.Goes.to.Paris.2022.2160p.WEB-DL.x265.10bit.HDR.DDP5.1-NOGRP.torrent (16.1 KB, 下载次数: 0)
回复

使用道具 举报

您需要登录后才可以回帖 登录 | 立即注册

本版积分规则

QQ|Archiver|手机版|小黑屋|蓝光电影网

GMT+8, 2022-8-8 19:19 , Processed in 0.054696 second(s), 28 queries .

Powered by Discuz! X3.4

Copyright © 2001-2020, Tencent Cloud.

快速回复 返回顶部 返回列表