找回密码
 立即注册

QQ登录

只需一步,快速开始

查看: 31|回复: 0

[其他] 小黄人大眼萌:神偷奶爸前传 Minions.The.Rise.of.Gru.2022.2160p.WEB-DL.x265.10bit.HDR.DDP5.1.Atmos-NOGRP 15.31GB

[复制链接]

0

精华

0

好友

2

听众

新手上路

Rank: 2

蓝光币
5
发表于 5 天前 | 显示全部楼层 |阅读模式


◎标  题 小黄人大眼萌:神偷奶爸前传
◎译  名 小黄人大眼萌2:格鲁的崛起 / 小黄人2:格鲁的崛起 / 小小兵2:格鲁的崛起(台) / 小黄人大眼萌Ⅱ / 小黄人Ⅱ / 迷你兵团Ⅱ(港) / 小小兵Ⅱ(台) / 小黄人大电影Ⅱ / Minions 2
◎片  名 Minions: The Rise of Gru
◎年  代 2022
◎产  地 法国 / 日本 / 美国
◎类  别 喜剧 / 动画 / 冒险
◎语  言 英语 / 越南语
◎上映日期 2022-06-13(安锡国际动画节) / 2022-07-01(美国)
◎IMDb评分 7.2/10 (5706人评价)
◎IMDb链接 https://www.imdb.com/title/tt5113044/
◎豆瓣链接 https://movie.douban.com/subject/26642033/
◎导  演 凯尔·巴尔达 Kyle Balda
       布拉德·埃布尔森 Brad Ableson
       何塞·瓦尔德尔·奥马尔 José Val del Omar
◎编  剧 辛科·保罗 Cinco Paul
◎演  员 史蒂夫·卡瑞尔 Steve Carell
       皮埃尔·柯芬 Pierre Coffin
       塔拉吉·P·汉森 Taraji P. Henson
       杨紫琼 Michelle Yeoh
       朱莉·安德鲁斯 Julie Andrews
       艾伦·阿金 Alan Arkin
       凯文·哈特 Kevin Hart
       玛格特·罗比 Margot Robbie
       戴夫·巴蒂斯塔 Dave Bautista
       罗伯特·菲茨杰拉德·迪格斯 RZA
       尚格·云顿 Jean-Claude Van Damme
       露西·劳莱丝 Lucy Lawless
       杜夫·龙格尔 Dolph Lundgren
       丹尼·特雷霍 Danny Trejo
       拉塞尔·布兰德 Russell Brand
◎简  介

  这部新片将是2015年推出的小黄人独立电影《小黄人大眼萌》的直接续集。它作为《神偷奶爸》的衍生作品,讲述了小黄人们在“前格鲁”时代为其他主人服务的经历,不过少年格鲁曾经出现在这部衍生电影里,续集将围绕他与小黄人们结缘的过程展开剧情。
  1. Video
  2. ID                                       : 1
  3. Format                                   : HEVC
  4. Format/Info                              : High Efficiency Video Coding
  5. Format profile                           : Main [email protected]@High
  6. HDR format                               : SMPTE ST 2086, HDR10 compatible
  7. Codec ID                                 : V_MPEGH/ISO/HEVC
  8. Duration                                 : 1 h 27 min
  9. Bit rate                                 : 24.3 Mb/s
  10. Width                                    : 3 832 pixels
  11. Height                                   : 1 596 pixels
  12. Display aspect ratio                     : 2.40:1
  13. Frame rate mode                          : Constant
  14. Frame rate                               : 23.976 FPS
  15. Color space                              : YUV
  16. Chroma subsampling                       : 4:2:0 (Type 2)
  17. Bit depth                                : 10 bits
  18. Bits/(Pixel*Frame)                       : 0.166
  19. Stream size                              : 14.8 GiB (97%)
  20. Default                                  : Yes
  21. Forced                                   : No
  22. Color range                              : Limited
  23. Color primaries                          : BT.2020
  24. Transfer characteristics                 : PQ
  25. Matrix coefficients                      : BT.2020 non-constant
  26. Mastering display color primaries        : BT.2020
  27. Mastering display luminance              : min: 0.0050 cd/m2, max: 1000 cd/m2
  28. Maximum Content Light Level              : 4547 cd/m2
  29. Maximum Frame-Average Light Level        : 2052 cd/m2
  30. Audio
  31. ID                                       : 2
  32. Format                                   : E-AC-3 JOC
  33. Format/Info                              : Enhanced AC-3 with Joint Object Coding
  34. Commercial name                          : Dolby Digital Plus with Dolby Atmos
  35. Codec ID                                 : A_EAC3
  36. Duration                                 : 1 h 27 min
  37. Bit rate mode                            : Constant
  38. Bit rate                                 : 768 kb/s
  39. Channel(s)                               : 6 channels
  40. Channel layout                           : L R C LFE Ls Rs
  41. Sampling rate                            : 48.0 kHz
  42. Frame rate                               : 31.250 FPS (1536 SPF)
  43. Compression mode                         : Lossy
  44. Stream size                              : 481 MiB (3%)
  45. Language                                 : English
  46. Service kind                             : Complete Main
  47. Default                                  : Yes
  48. Forced                                   : No
  49. Complexity index                         : 16
  50. Number of dynamic objects                : 15
  51. Bed channel count                        : 1 channel
  52. Bed channel configuration                : LFE
  53. Text #1
  54. ID                                       : 3
  55. Format                                   : UTF-8
  56. Codec ID                                 : S_TEXT/UTF8
  57. Codec ID/Info                            : UTF-8 Plain Text
  58. Duration                                 : 1 h 26 min
  59. Bit rate                                 : 44 b/s
  60. Frame rate                               : 0.237 FPS
  61. Count of elements                        : 1238
  62. Stream size                              : 28.1 KiB (0%)
  63. Language                                 : English
  64. Default                                  : No
  65. Forced                                   : No
  66. Text #2
  67. ID                                       : 4
  68. Format                                   : UTF-8
  69. Codec ID                                 : S_TEXT/UTF8
  70. Codec ID/Info                            : UTF-8 Plain Text
  71. Duration                                 : 1 h 27 min
  72. Bit rate                                 : 69 b/s
  73. Frame rate                               : 0.361 FPS
  74. Count of elements                        : 1892
  75. Stream size                              : 44.5 KiB (0%)
  76. Title                                    : SDH
  77. Language                                 : English
  78. Default                                  : No
  79. Forced                                   : No
  80. Text #3
  81. ID                                       : 5
  82. Format                                   : UTF-8
  83. Codec ID                                 : S_TEXT/UTF8
  84. Codec ID/Info                            : UTF-8 Plain Text
  85. Duration                                 : 1 h 26 min
  86. Bit rate                                 : 34 b/s
  87. Frame rate                               : 0.182 FPS
  88. Count of elements                        : 949
  89. Stream size                              : 22.0 KiB (0%)
  90. Title                                    : Latin American
  91. Language                                 : Spanish
  92. Default                                  : No
  93. Forced                                   : No
  94. Text #4
  95. ID                                       : 6
  96. Format                                   : UTF-8
  97. Codec ID                                 : S_TEXT/UTF8
  98. Codec ID/Info                            : UTF-8 Plain Text
  99. Duration                                 : 1 h 26 min
  100. Bit rate                                 : 37 b/s
  101. Frame rate                               : 0.181 FPS
  102. Count of elements                        : 936
  103. Stream size                              : 23.7 KiB (0%)
  104. Title                                    : Canadian
  105. Language                                 : French
  106. Default                                  : No
  107. Forced                                   : No
  108. Menu
  109. 00:00:00.000                             : en:Chapter 01
  110. 00:02:21.558                             : en:Chapter 02
  111. 00:07:38.083                             : en:Chapter 03
  112. 00:12:47.684                             : en:Chapter 04
  113. 00:17:50.528                             : en:Chapter 05
  114. 00:20:46.329                             : en:Chapter 06
  115. 00:26:20.538                             : en:Chapter 07
  116. 00:29:01.658                             : en:Chapter 08
  117. 00:33:33.430                             : en:Chapter 09
  118. 00:38:49.454                             : en:Chapter 10
  119. 00:43:23.770                             : en:Chapter 11
  120. 00:48:59.773                             : en:Chapter 12
  121. 00:50:27.068                             : en:Chapter 13
  122. 00:55:39.631                             : en:Chapter 14
  123. 01:00:00.975                             : en:Chapter 15
  124. 01:05:33.058                             : en:Chapter 16
  125. 01:07:40.977                             : en:Chapter 17
  126. 01:10:58.133                             : en:Chapter 18
  127. 01:16:26.169                             : en:Chapter 19
  128. 01:19:31.104                             : en:Chapter 20
复制代码




                                       
                                       

                                       
                                       
                                       




Minions.The.Rise.of.Gru.2022.2160p.WEB-DL.x265.10bit.HDR.DDP5.1.Atmos-NOGRP.torrent (19.81 KB, 下载次数: 3)
回复

使用道具 举报

您需要登录后才可以回帖 登录 | 立即注册

本版积分规则

QQ|Archiver|手机版|小黑屋|蓝光电影网

GMT+8, 2022-8-8 18:17 , Processed in 0.054072 second(s), 28 queries .

Powered by Discuz! X3.4

Copyright © 2001-2020, Tencent Cloud.

快速回复 返回顶部 返回列表