找回密码
 立即注册

QQ登录

只需一步,快速开始

查看: 20|回复: 0

[其他] 小黄人大眼萌:神偷奶爸前传 Minions.The.Rise.of.Gru.2022.2160p.WEB-DL.x265.10bit.SDR.DDP5.1.Atmos-NOGRP 7.71GB

[复制链接]

0

精华

0

好友

2

听众

新手上路

Rank: 2

蓝光币
5
发表于 5 天前 | 显示全部楼层 |阅读模式


◎标  题 小黄人大眼萌:神偷奶爸前传
◎译  名 小黄人大眼萌2:格鲁的崛起 / 小黄人2:格鲁的崛起 / 小小兵2:格鲁的崛起(台) / 小黄人大眼萌Ⅱ / 小黄人Ⅱ / 迷你兵团Ⅱ(港) / 小小兵Ⅱ(台) / 小黄人大电影Ⅱ / Minions 2
◎片  名 Minions: The Rise of Gru
◎年  代 2022
◎产  地 法国 / 日本 / 美国
◎类  别 喜剧 / 动画 / 冒险
◎语  言 英语 / 越南语
◎上映日期 2022-06-13(安锡国际动画节) / 2022-07-01(美国)
◎IMDb评分 7.2/10 (5706人评价)
◎IMDb链接 https://www.imdb.com/title/tt5113044/
◎豆瓣链接 https://movie.douban.com/subject/26642033/
◎导  演 凯尔·巴尔达 Kyle Balda
       布拉德·埃布尔森 Brad Ableson
       何塞·瓦尔德尔·奥马尔 José Val del Omar
◎编  剧 辛科·保罗 Cinco Paul
◎演  员 史蒂夫·卡瑞尔 Steve Carell
       皮埃尔·柯芬 Pierre Coffin
       塔拉吉·P·汉森 Taraji P. Henson
       杨紫琼 Michelle Yeoh
       朱莉·安德鲁斯 Julie Andrews
       艾伦·阿金 Alan Arkin
       凯文·哈特 Kevin Hart
       玛格特·罗比 Margot Robbie
       戴夫·巴蒂斯塔 Dave Bautista
       罗伯特·菲茨杰拉德·迪格斯 RZA
       尚格·云顿 Jean-Claude Van Damme
       露西·劳莱丝 Lucy Lawless
       杜夫·龙格尔 Dolph Lundgren
       丹尼·特雷霍 Danny Trejo
       拉塞尔·布兰德 Russell Brand
◎简  介

  这部新片将是2015年推出的小黄人独立电影《小黄人大眼萌》的直接续集。它作为《神偷奶爸》的衍生作品,讲述了小黄人们在“前格鲁”时代为其他主人服务的经历,不过少年格鲁曾经出现在这部衍生电影里,续集将围绕他与小黄人们结缘的过程展开剧情。
  1. Video
  2. ID                                       : 1
  3. Format                                   : HEVC
  4. Format/Info                              : High Efficiency Video Coding
  5. Format profile                           : Main [email protected]@High
  6. Codec ID                                 : V_MPEGH/ISO/HEVC
  7. Duration                                 : 1 h 27 min
  8. Bit rate                                 : 11.9 Mb/s
  9. Width                                    : 3 832 pixels
  10. Height                                   : 1 596 pixels
  11. Display aspect ratio                     : 2.40:1
  12. Frame rate mode                          : Constant
  13. Frame rate                               : 23.976 FPS
  14. Color space                              : YUV
  15. Chroma subsampling                       : 4:2:0
  16. Bit depth                                : 10 bits
  17. Bits/(Pixel*Frame)                       : 0.081
  18. Stream size                              : 7.24 GiB (94%)
  19. Default                                  : Yes
  20. Forced                                   : No
  21. Color range                              : Limited
  22. Color primaries                          : BT.709
  23. Transfer characteristics                 : BT.709
  24. Matrix coefficients                      : BT.709
  25. Audio
  26. ID                                       : 2
  27. Format                                   : E-AC-3 JOC
  28. Format/Info                              : Enhanced AC-3 with Joint Object Coding
  29. Commercial name                          : Dolby Digital Plus with Dolby Atmos
  30. Codec ID                                 : A_EAC3
  31. Duration                                 : 1 h 27 min
  32. Bit rate mode                            : Constant
  33. Bit rate                                 : 768 kb/s
  34. Channel(s)                               : 6 channels
  35. Channel layout                           : L R C LFE Ls Rs
  36. Sampling rate                            : 48.0 kHz
  37. Frame rate                               : 31.250 FPS (1536 SPF)
  38. Compression mode                         : Lossy
  39. Stream size                              : 481 MiB (6%)
  40. Language                                 : English
  41. Service kind                             : Complete Main
  42. Default                                  : Yes
  43. Forced                                   : No
  44. Complexity index                         : 16
  45. Number of dynamic objects                : 15
  46. Bed channel count                        : 1 channel
  47. Bed channel configuration                : LFE
  48. Text #1
  49. ID                                       : 3
  50. Format                                   : UTF-8
  51. Codec ID                                 : S_TEXT/UTF8
  52. Codec ID/Info                            : UTF-8 Plain Text
  53. Duration                                 : 1 h 26 min
  54. Bit rate                                 : 44 b/s
  55. Frame rate                               : 0.237 FPS
  56. Count of elements                        : 1238
  57. Stream size                              : 28.1 KiB (0%)
  58. Language                                 : English
  59. Default                                  : No
  60. Forced                                   : No
  61. Text #2
  62. ID                                       : 4
  63. Format                                   : UTF-8
  64. Codec ID                                 : S_TEXT/UTF8
  65. Codec ID/Info                            : UTF-8 Plain Text
  66. Duration                                 : 1 h 27 min
  67. Bit rate                                 : 69 b/s
  68. Frame rate                               : 0.361 FPS
  69. Count of elements                        : 1892
  70. Stream size                              : 44.5 KiB (0%)
  71. Title                                    : SDH
  72. Language                                 : English
  73. Default                                  : No
  74. Forced                                   : No
  75. Text #3
  76. ID                                       : 5
  77. Format                                   : UTF-8
  78. Codec ID                                 : S_TEXT/UTF8
  79. Codec ID/Info                            : UTF-8 Plain Text
  80. Duration                                 : 1 h 26 min
  81. Bit rate                                 : 34 b/s
  82. Frame rate                               : 0.182 FPS
  83. Count of elements                        : 949
  84. Stream size                              : 22.0 KiB (0%)
  85. Title                                    : Latin American
  86. Language                                 : Spanish
  87. Default                                  : No
  88. Forced                                   : No
  89. Text #4
  90. ID                                       : 6
  91. Format                                   : UTF-8
  92. Codec ID                                 : S_TEXT/UTF8
  93. Codec ID/Info                            : UTF-8 Plain Text
  94. Duration                                 : 1 h 26 min
  95. Bit rate                                 : 37 b/s
  96. Frame rate                               : 0.181 FPS
  97. Count of elements                        : 936
  98. Stream size                              : 23.7 KiB (0%)
  99. Title                                    : Canadian
  100. Language                                 : French
  101. Default                                  : No
  102. Forced                                   : No
  103. Menu
  104. 00:00:00.000                             : en:Chapter 01
  105. 00:02:21.558                             : en:Chapter 02
  106. 00:07:38.083                             : en:Chapter 03
  107. 00:12:47.684                             : en:Chapter 04
  108. 00:17:50.528                             : en:Chapter 05
  109. 00:20:46.329                             : en:Chapter 06
  110. 00:26:20.538                             : en:Chapter 07
  111. 00:29:01.658                             : en:Chapter 08
  112. 00:33:33.430                             : en:Chapter 09
  113. 00:38:49.454                             : en:Chapter 10
  114. 00:43:23.770                             : en:Chapter 11
  115. 00:48:59.773                             : en:Chapter 12
  116. 00:50:27.068                             : en:Chapter 13
  117. 00:55:39.631                             : en:Chapter 14
  118. 01:00:00.975                             : en:Chapter 15
  119. 01:05:33.058                             : en:Chapter 16
  120. 01:07:40.977                             : en:Chapter 17
  121. 01:10:58.133                             : en:Chapter 18
  122. 01:16:26.169                             : en:Chapter 19
  123. 01:19:31.104                             : en:Chapter 20
复制代码




                                       
                                       

                                       
                                       
                                       




Minions.The.Rise.of.Gru.2022.2160p.WEB-DL.x265.10bit.SDR.DDP5.1.Atmos-NOGRP.torrent (19.96 KB, 下载次数: 0)
回复

使用道具 举报

您需要登录后才可以回帖 登录 | 立即注册

本版积分规则

QQ|Archiver|手机版|小黑屋|蓝光电影网

GMT+8, 2022-8-8 19:22 , Processed in 0.055158 second(s), 28 queries .

Powered by Discuz! X3.4

Copyright © 2001-2020, Tencent Cloud.

快速回复 返回顶部 返回列表