找回密码
 立即注册

QQ登录

只需一步,快速开始

查看: 80|回复: 0

[剧情片] 凶火 Firestarter.2022.1080p.WEBRip.x264-RARBG 1.80GB

[复制链接]

0

精华

0

好友

2

听众

新手上路

Rank: 2

蓝光币
5
发表于 2022-5-18 06:48:06 | 显示全部楼层 |阅读模式


◎译  名 凶火 / 燃火的女孩(台)
◎片  名 Firestarter
◎年  代 2022
◎产  地 美国
◎类  别 剧情 / 科幻 / 惊悚 / 恐怖
◎语  言 英语
◎上映日期 2022-05-13(美国/美国网络)
◎IMDb链接 https://www.imdb.com/title/tt1798632/
◎豆瓣链接 https://movie.douban.com/subject/25835398/
◎导  演 基斯·托马斯 Keith Thomas (id:1448862)
◎编  剧 斯蒂芬·金 Stephen King (id:1049547)
       斯科特·泰姆斯 Scott Teems (id:1308863)
◎演  员 赖恩·基拉·阿姆斯特朗 Ryan Kiera Armstrong (id:1421167)
       扎克·埃夫隆 Zac Efron (id:1016676)
       西德妮·莱蒙 Sydney Lemmon (id:1425176)
       麦克尔·格雷耶斯 Michael Greyeyes (id:1018299)
       格洛利亚·鲁本 Gloria Reuben (id:1017982)
       Tina Jung Tina Jung (id:1395349)
       兰内特·瓦雷 Lanette Ware (id:1143205)
       加文·麦基弗·赖特 Gavin MacIver-Wright (id:1446571)
       丹尼·沃 Danny Waugh (id:1390714)
◎简  介

  斯蒂芬·金又一部小说将拍成电影:著名编剧Akiva Goldsman将执导新的《凶火》电影版,讲述一对通过实验获得超能力的夫妻生下一个能遭纵火焰的女儿,政府派出特工绑架小姑娘,试图让她成为武器…父女情很感人。1984年曾有一版电影,德鲁·巴里摩尔演那个小女孩,相当厉害。但那版被斯蒂芬·金称为“自己小说最烂的改编之一,故事倒是忠于原作,但太乏味了,就像酒店自助餐厅的马铃薯泥。”
  1. Video
  2. ID                                       : 1
  3. Format                                   : AVC
  4. Format/Info                              : Advanced Video Codec
  5. Format profile                           : [email protected]
  6. Format settings                          : CABAC / 4 Ref Frames
  7. Format settings, CABAC                   : Yes
  8. Format settings, Reference frames        : 4 frames
  9. Codec ID                                 : avc1
  10. Codec ID/Info                            : Advanced Video Coding
  11. Duration                                 : 1 h 34 min
  12. Source duration                          : 1 h 34 min
  13. Bit rate                                 : 2 500 kb/s
  14. Width                                    : 1 920 pixels
  15. Height                                   : 804 pixels
  16. Display aspect ratio                     : 2.40:1
  17. Frame rate mode                          : Constant
  18. Frame rate                               : 23.976 (23976/1000/189150) FPS
  19. Color space                              : YUV
  20. Chroma subsampling                       : 4:2:0
  21. Bit depth                                : 8 bits
  22. Scan type                                : Progressive
  23. Bits/(Pixel*Frame)                       : 0.068
  24. Stream size                              : 1.65 GiB (92%)
  25. Source stream size                       : 1.65 GiB (92%)
  26. Writing library                          : x264 core 152 r2851M ba24899
  27. Encoding settings                        : cabac=1 / ref=4 / deblock=1:-1:-1 / analyse=0x3:0x113 / me=umh / subme=9 / psy=1 / psy_rd=1.00:0.15 / mixed_ref=1 / me_range=24 / chroma_me=1 / trellis=2 / 8x8dct=1 / cqm=0 / deadzone=21,11 / fast_pskip=1 / chroma_qp_offset=-3 / threads=16 / lookahead_threads=4 / sliced_threads=0 / nr=0 / decimate=1 / interlaced=0 / bluray_compat=0 / constrained_intra=0 / bframes=3 / b_pyramid=2 / b_adapt=2 / b_bias=0 / direct=3 / weightb=1 / open_gop=0 / weightp=2 / keyint=250 / keyint_min=25 / scenecut=40 / intra_refresh=0 / rc_lookahead=50 / rc=2pass / mbtree=1 / bitrate=2500 / ratetol=1.0 / qcomp=0.60 / qpmin=0 / qpmax=69 / qpstep=4 / cplxblur=20.0 / qblur=0.5 / vbv_maxrate=31250 / vbv_bufsize=31250 / nal_hrd=none / filler=0 / ip_ratio=1.40 / aq=3:1.00
  28. Encoded date                             : UTC 2022-05-13 04:58:36
  29. Tagged date                              : UTC 2022-05-13 04:58:36
  30. Codec configuration box                  : avcC
  31. Audio
  32. ID                                       : 2
  33. Format                                   : AAC LC
  34. Format/Info                              : Advanced Audio Codec Low Complexity
  35. Codec ID                                 : mp4a-40-2
  36. Duration                                 : 1 h 34 min
  37. Duration_LastFrame                       : -11 ms
  38. Bit rate mode                            : Constant
  39. Bit rate                                 : 224 kb/s
  40. Channel(s)                               : 6 channels
  41. Channel layout                           : C L R Ls Rs LFE
  42. Sampling rate                            : 48.0 kHz
  43. Frame rate                               : 46.875 FPS (1024 SPF)
  44. Compression mode                         : Lossy
  45. Stream size                              : 151 MiB (8%)
  46. Language                                 : English
  47. Default                                  : Yes
  48. Alternate group                          : 1
  49. Encoded date                             : UTC 2022-05-13 04:58:36
  50. Tagged date                              : UTC 2022-05-13 04:58:36
复制代码




                                       
                                       

                                       
                                       
                                       




Firestarter.2022.1080p.WEBRip.x264-RARBG.torrent (18.72 KB, 下载次数: 0)
回复

使用道具 举报

您需要登录后才可以回帖 登录 | 立即注册

本版积分规则

QQ|Archiver|手机版|小黑屋|蓝光电影网

GMT+8, 2022-7-5 05:57 , Processed in 0.056662 second(s), 28 queries .

Powered by Discuz! X3.4

Copyright © 2001-2020, Tencent Cloud.

快速回复 返回顶部 返回列表