找回密码
 立即注册

QQ登录

只需一步,快速开始

查看: 70|回复: 0

[恐怖片] 跟鬼说话 The.Speak.2011.1080p.AMZN.WEBRip.DDP2.0.x264-HORROR 3.08GB

[复制链接]

0

精华

0

好友

2

听众

新手上路

Rank: 2

蓝光币
5
发表于 2022-5-18 06:48:09 | 显示全部楼层 |阅读模式


◎译  名 跟鬼说话
◎片  名 The Speak
◎年  代 2011
◎产  地 美国
◎类  别 恐怖
◎语  言 英语
◎上映日期 2011
◎IMDb链接 https://www.imdb.com/title/tt1656197/
◎豆瓣链接 https://movie.douban.com/subject/5151888/
◎片  长 83分钟
◎导  演 Anthony Pierce Anthony Pierce (id:1001454)
◎编  剧 Anthony Pierce Anthony Pierce (id:1001454)
◎演  员 克里斯汀娜·安娜波 Kristina Anapau (id:1040780)
       蒂娜·卡西亚妮 Tina Casciani (id:1322118)
       汤姆·塞兹摩尔 Tom Sizemore (id:1036371)
       Steven Nelson Steven Nelson (id:1135023)
        Adamo P. Cultraro (id:1235250)
       布雷特·多诺霍 Brett Donowho (id:1469500)
◎简  介

  又一部劲爆的“鬼影实录”,让我们跟着摄制组闯入美国最恐怖的“鬼屋”,毫无准备,毫无预告,还有多少你hold不住的事情将会发生?
  1. Video
  2. ID                                       : 1
  3. Format                                   : AVC
  4. Format/Info                              : Advanced Video Codec
  5. Format profile                           : [email protected]
  6. Format settings                          : CABAC / 4 Ref Frames
  7. Format settings, CABAC                   : Yes
  8. Format settings, Reference frames        : 4 frames
  9. Codec ID                                 : V_MPEG4/ISO/AVC
  10. Duration                                 : 1 h 21 min
  11. Bit rate mode                            : Constant
  12. Bit rate                                 : 5 174 kb/s
  13. Nominal bit rate                         : 10 000 kb/s
  14. Width                                    : 1 920 pixels
  15. Height                                   : 1 080 pixels
  16. Display aspect ratio                     : 16:9
  17. Frame rate mode                          : Constant
  18. Frame rate                               : 30.000 FPS
  19. Color space                              : YUV
  20. Chroma subsampling                       : 4:2:0
  21. Bit depth                                : 8 bits
  22. Scan type                                : Progressive
  23. Bits/(Pixel*Frame)                       : 0.083
  24. Stream size                              : 2.95 GiB (96%)
  25. Default                                  : Yes
  26. Forced                                   : No
  27. Color range                              : Limited
  28. Color primaries                          : BT.709
  29. Transfer characteristics                 : BT.709
  30. Matrix coefficients                      : BT.709
  31. Audio
  32. ID                                       : 2
  33. Format                                   : E-AC-3
  34. Format/Info                              : Enhanced AC-3
  35. Commercial name                          : Dolby Digital Plus
  36. Codec ID                                 : A_EAC3
  37. Duration                                 : 1 h 21 min
  38. Bit rate mode                            : Constant
  39. Bit rate                                 : 224 kb/s
  40. Channel(s)                               : 2 channels
  41. Channel layout                           : L R
  42. Sampling rate                            : 48.0 kHz
  43. Frame rate                               : 31.250 FPS (1536 SPF)
  44. Compression mode                         : Lossy
  45. Stream size                              : 131 MiB (4%)
  46. Language                                 : English
  47. Service kind                             : Complete Main
  48. Default                                  : Yes
  49. Forced                                   : No
  50. Text #1
  51. ID                                       : 3
  52. Format                                   : UTF-8
  53. Codec ID                                 : S_TEXT/UTF8
  54. Codec ID/Info                            : UTF-8 Plain Text
  55. Duration                                 : 1 h 17 min
  56. Bit rate                                 : 67 b/s
  57. Count of elements                        : 1569
  58. Stream size                              : 38.1 KiB (0%)
  59. Language                                 : English
  60. Default                                  : No
  61. Forced                                   : No
  62. Text #2
  63. ID                                       : 4
  64. Format                                   : UTF-8
  65. Codec ID                                 : S_TEXT/UTF8
  66. Codec ID/Info                            : UTF-8 Plain Text
  67. Duration                                 : 1 h 17 min
  68. Bit rate                                 : 74 b/s
  69. Count of elements                        : 1659
  70. Stream size                              : 42.6 KiB (0%)
  71. Title                                    : SDH
  72. Language                                 : English
  73. Default                                  : No
  74. Forced                                   : No
  75. Menu
  76. 01:21:27.000                             : en:Credits
复制代码





                                       
                                       

                                       
                                       
                                       




The.Speak.2011.1080p.AMZN.WEBRip.DDP2.0.x264-HORROR.torrent (16.05 KB, 下载次数: 0)
回复

使用道具 举报

您需要登录后才可以回帖 登录 | 立即注册

本版积分规则

QQ|Archiver|手机版|小黑屋|蓝光电影网

GMT+8, 2022-7-5 04:53 , Processed in 0.057474 second(s), 28 queries .

Powered by Discuz! X3.4

Copyright © 2001-2020, Tencent Cloud.

快速回复 返回顶部 返回列表