找回密码
 立即注册

QQ登录

只需一步,快速开始

查看: 62|回复: 0

[剧情片] 奇迹 The.Wonders.2014.ITALIAN.1080p.AMZN.WEBRip.DDP5.1.x264-WELP 7.76GB

[复制链接]

0

精华

0

好友

2

听众

新手上路

Rank: 2

蓝光币
5
发表于 2022-5-18 06:45:43 | 显示全部楼层 |阅读模式


◎译  名 奇迹 / 蜂蜜之夏(港 / 台) / The Wonders
◎片  名 Le meraviglie
◎年  代 2014
◎产  地 意大利 / 德国 / 瑞士
◎类  别 剧情
◎语  言 意大利语 / 法语 / 德语 / 英语
◎上映日期 2014-05-18(戛纳电影节) / 2014-05-22(意大利)
◎IMDb链接 https://www.imdb.com/title/tt3044244/
◎豆瓣评分 7.5/10 (6464人评价)
◎豆瓣链接 https://movie.douban.com/subject/25733490/
◎片  长 110分钟
◎导  演 阿莉切·罗尔瓦赫尔 Alice Rohrwacher (id:1338597)
◎编  剧 阿莉切·罗尔瓦赫尔 Alice Rohrwacher (id:1338597)
◎演  员 阿尔芭·罗尔瓦赫尔 Alba Rohrwacher (id:1259070)
       玛格丽特·提塞尔 Margarete Tiesel (id:1206499)
       安德烈·赫尼克 André Hennicke (id:1050195)
       莎宾·蒂莫提欧 Sabine Timoteo (id:1000901)
       莫妮卡·贝鲁奇 Monica Bellucci (id:1025156)
       阿涅塞·格拉齐亚尼 Agnese Graziani (id:1400919)
       海莲娜·勒瓦 Hélène Louvart (id:1393058)
◎简  介

  影片讲述了一对夫妻带着四个女儿,在靠近海边的独立小农庄里,依靠养蜂过着自给自足的独立生活,远离城市和社会人群。然而有一天,一个德国少年犯在重新融入社会 计划下进入到她们的生活里,同时,一个名叫《神奇村庄》的真人秀节目也在这里选景拍摄,片中有美丽性感的主持人……这一切新鲜事物,打乱了她们艰苦却简单平静的生活,尤其是进入青春期的大女儿吉索米拉,对外面的缤纷世界充满渴望。
◎获奖情况 (共2项)
  第67届戛纳电影节 (2014)
  主竞赛单元 金棕榈奖(提名)
   └──阿莉切·罗尔瓦赫尔 (id:1338597)
  主竞赛单元 评审团大奖
   └──阿莉切·罗尔瓦赫尔 (id:1338597)
  1. Video
  2. ID                                       : 1
  3. Format                                   : AVC
  4. Format/Info                              : Advanced Video Codec
  5. Format profile                           : [email protected]
  6. Format settings                          : CABAC / 4 Ref Frames
  7. Format settings, CABAC                   : Yes
  8. Format settings, Reference frames        : 4 frames
  9. Codec ID                                 : V_MPEG4/ISO/AVC
  10. Duration                                 : 1 h 51 min
  11. Bit rate mode                            : Constant
  12. Bit rate                                 : 9 319 kb/s
  13. Nominal bit rate                         : 10 000 kb/s
  14. Width                                    : 1 920 pixels
  15. Height                                   : 1 040 pixels
  16. Display aspect ratio                     : 1.85:1
  17. Frame rate mode                          : Constant
  18. Frame rate                               : 24.000 FPS
  19. Color space                              : YUV
  20. Chroma subsampling                       : 4:2:0
  21. Bit depth                                : 8 bits
  22. Scan type                                : Progressive
  23. Bits/(Pixel*Frame)                       : 0.194
  24. Stream size                              : 7.26 GiB (94%)
  25. Default                                  : Yes
  26. Forced                                   : No
  27. Color range                              : Limited
  28. Color primaries                          : BT.709
  29. Transfer characteristics                 : BT.709
  30. Matrix coefficients                      : BT.709
  31. Audio
  32. ID                                       : 2
  33. Format                                   : E-AC-3
  34. Format/Info                              : Enhanced AC-3
  35. Commercial name                          : Dolby Digital Plus
  36. Codec ID                                 : A_EAC3
  37. Duration                                 : 1 h 51 min
  38. Bit rate mode                            : Constant
  39. Bit rate                                 : 640 kb/s
  40. Channel(s)                               : 6 channels
  41. Channel layout                           : L R C LFE Ls Rs
  42. Sampling rate                            : 48.0 kHz
  43. Frame rate                               : 31.250 FPS (1536 SPF)
  44. Compression mode                         : Lossy
  45. Stream size                              : 511 MiB (6%)
  46. Language                                 : Italian
  47. Service kind                             : Complete Main
  48. Default                                  : Yes
  49. Forced                                   : No
  50. Text #1
  51. ID                                       : 3
  52. Format                                   : UTF-8
  53. Codec ID                                 : S_TEXT/UTF8
  54. Codec ID/Info                            : UTF-8 Plain Text
  55. Duration                                 : 1 h 43 min
  56. Bit rate                                 : 35 b/s
  57. Count of elements                        : 981
  58. Stream size                              : 27.0 KiB (0%)
  59. Language                                 : English
  60. Default                                  : Yes
  61. Forced                                   : No
  62. Text #2
  63. ID                                       : 4
  64. Format                                   : UTF-8
  65. Codec ID                                 : S_TEXT/UTF8
  66. Codec ID/Info                            : UTF-8 Plain Text
  67. Duration                                 : 1 h 43 min
  68. Bit rate                                 : 40 b/s
  69. Count of elements                        : 1192
  70. Stream size                              : 30.5 KiB (0%)
  71. Title                                    : Spanish (Latin American)
  72. Language                                 : Spanish
  73. Default                                  : No
  74. Forced                                   : No
  75. Text #3
  76. ID                                       : 5
  77. Format                                   : UTF-8
  78. Codec ID                                 : S_TEXT/UTF8
  79. Codec ID/Info                            : UTF-8 Plain Text
  80. Duration                                 : 1 h 43 min
  81. Bit rate                                 : 35 b/s
  82. Count of elements                        : 1010
  83. Stream size                              : 27.1 KiB (0%)
  84. Title                                    : Spanish (Spain)
  85. Language                                 : Spanish
  86. Default                                  : No
  87. Forced                                   : No
  88. Text #4
  89. ID                                       : 6
  90. Format                                   : UTF-8
  91. Codec ID                                 : S_TEXT/UTF8
  92. Codec ID/Info                            : UTF-8 Plain Text
  93. Duration                                 : 1 h 44 min
  94. Bit rate                                 : 39 b/s
  95. Count of elements                        : 996
  96. Stream size                              : 30.5 KiB (0%)
  97. Title                                    : Portuguese (Brazilian)
  98. Language                                 : Portuguese
  99. Default                                  : No
  100. Forced                                   : No
  101. Text #5
  102. ID                                       : 7
  103. Format                                   : UTF-8
  104. Codec ID                                 : S_TEXT/UTF8
  105. Codec ID/Info                            : UTF-8 Plain Text
  106. Duration                                 : 1 h 51 min
  107. Bit rate                                 : 29 b/s
  108. Count of elements                        : 1199
  109. Stream size                              : 24.2 KiB (0%)
  110. Title                                    : Traditional
  111. Language                                 : Chinese
  112. Default                                  : No
  113. Forced                                   : No
  114. Text #6
  115. ID                                       : 8
  116. Format                                   : UTF-8
  117. Codec ID                                 : S_TEXT/UTF8
  118. Codec ID/Info                            : UTF-8 Plain Text
  119. Duration                                 : 1 h 44 min
  120. Bit rate                                 : 39 b/s
  121. Count of elements                        : 1014
  122. Stream size                              : 30.4 KiB (0%)
  123. Language                                 : Turkish
  124. Default                                  : No
  125. Forced                                   : No
复制代码





                                       
                                       

                                       
                                       
                                       




The.Wonders.2014.ITALIAN.1080p.AMZN.WEBRip.DDP5.1.x264-WELP.torrent (20.05 KB, 下载次数: 0)
回复

使用道具 举报

您需要登录后才可以回帖 登录 | 立即注册

本版积分规则

QQ|Archiver|手机版|小黑屋|蓝光电影网

GMT+8, 2022-7-5 05:50 , Processed in 0.057520 second(s), 28 queries .

Powered by Discuz! X3.4

Copyright © 2001-2020, Tencent Cloud.

快速回复 返回顶部 返回列表