找回密码
 立即注册

QQ登录

只需一步,快速开始

查看: 208|回复: 2

[剧情片] 新蝙蝠侠 The.Batman.2022.1080p.BluRay.x264.TrueHD.7.1.Atmos-FGT 18.62GB

[复制链接]

0

精华

0

好友

2

听众

新手上路

Rank: 2

蓝光币
5
发表于 2022-5-17 07:11:25 | 显示全部楼层 |阅读模式
[img][/img]

◎标  题 新蝙蝠侠
◎译  名 蝙蝠侠(港 / 台) / 重启版蝙蝠侠
◎片  名 The Batman
◎年  代 2022
◎产  地 美国
◎类  别 剧情 / 动作 / 悬疑 / 犯罪
◎语  言 英语
◎上映日期 2022-03-18(中国大陆) / 2022-03-01(韩国) / 2022-03-04(美国) / 2022-04-19(美国网络)
◎IMDb链接 https://www.imdb.com/title/tt1877830/
◎豆瓣评分 7.3/10 (230173人评价)
◎豆瓣链接 https://movie.douban.com/subject/6424756/
◎片  长 176分钟
◎导  演 马特·里夫斯 Matt Reeves
◎编  剧 马特·里夫斯 Matt Reeves
       彼得·克莱格 Peter Craig
       比尔·芬格 Bill Finger
       鲍勃·凯恩 Bob Kane
       马特森·汤姆林 Mattson Tomlin
◎演  员 罗伯特·帕丁森 Robert Pattinson
       佐伊·克罗维兹 Zoë Kravitz
       保罗·达诺 Paul Dano
       科林·法瑞尔 Colin Farrell
       杰弗里·怀特 Jeffrey Wright
       安迪·瑟金斯 Andy Serkis
       约翰·特托罗 John Turturro
       彼得·萨斯加德 Peter Sarsgaard
       巴里·基奥恩 Barry Keoghan
       杰米·劳森 Jayme Lawson
       吉尔·佩雷斯-亚伯拉罕 Gil Perez-Abraham
       彼得·麦克唐纳德 Peter McDonald
       康·奥尼尔 Con O'Neill
       亚历克斯·费恩斯 Alex Ferns
       鲁伯特·彭利-琼斯 Rupert Penry-Jones
       科莎·恩格勒 Kosha Engler
       杰宁·哈瑞妮 Janine Harouni
       卢克·罗伯茨 Luke Roberts
       斯特拉·斯托克尔 Stella Stocker
       桑德拉·迪金森 Sandra Dickinson
       杰克·班尼特 Jack Bennett
       约瑟夫·巴德拉玛 Joseph Balderrama
       詹姆斯·伊莱斯 James Eeles
       小利莫尔·马雷特 Leemore Marrett Jr.
       斯图尔特·亚历山大 Stewart Alexander
       马库斯·奥尼卢德 Marcus Onilude
       埃琳娜·沙雷 Elena Saurel
       托德·博伊斯 Todd Boyce
       道格拉斯·罗素 Douglas Russell
       查尔斯·卡维尔 Charles Carver
       马克斯·卡维尔 Max Carver
       马克·基林 Mark Killeen
       洛娜·布朗 Lorna Brown
       埃利奥特·沃伦 Elliot Warren
       小田部阿基 Akie Kotabe
       布隆森·韦伯 Bronson Webb
       阿瑟·李 Arthur Lee
       派瑞 格拉斯普 Parry Glasspool
       娜塔丽·阿明 Nathalie Armin
       何塞‧帕尔马 Jose Palma
       玛吉·巴基尔 Maggie Bakir
       露丝·霍洛克斯 Ruth Horrocks
       贝恩·科拉科 Bern Collaço
       丹尼尔·厄根 Daniel Eghan
       雷切尔·汉德肖 Rachel Handshaw
       爵克·哈迪 Juke Hardy
       奥斯卡·诺瓦克 Oscar Novak
       吉米·斯达 Jimmy Star
       妮可拉·吉恩·马祖尔 Nichola Jean Mazur
       杰伊·利库戈 Jay Lycurgo
       马特·里夫斯 Matt Reeves
       迪伦·克拉克 Dylan Clark
       马切尔·E·尤斯兰 Michael E. Uslan
       迈克·吉亚奇诺 Michael Giacchino
       格雷格·弗莱瑟 Greig Fraser
       泰勒·纳尔逊 Tyler Nelson
       辛迪·托兰 Cindy Tolan
       詹姆斯·钦伦德 James Chinlund
       大卫·克罗斯曼 David Crossman
       杰奎琳·杜兰 Jacqueline Durran
       格林·狄龙 Glyn Dillon
       丹·赖蒙 Dan Lemmon
◎简  介

  布鲁斯·韦恩(罗伯特·帕丁森 饰)化身蝙蝠侠于哥谭市行侠仗义两年后,罪犯皆闻风丧胆,他也因此深入接触到哥谭市的阴暗面。他潜行于哥谭市腐败的政要名流关系网中,身边仅有的几个值得信赖的盟友——管家阿尔弗雷德·潘尼沃斯(安迪·瑟金斯 饰)与詹姆斯·戈登警长(杰弗里·怀特 饰)。这位独行的“义警侠探”在哥谭市民心中已成为“复仇”二字最当仁不让的代名词。
  1. Video
  2. ID                                       : 1
  3. Format                                   : AVC
  4. Format/Info                              : Advanced Video Codec
  5. Format profile                           : [email protected]
  6. Format settings                          : CABAC / 4 Ref Frames
  7. Format settings, CABAC                   : Yes
  8. Format settings, Reference frames        : 4 frames
  9. Codec ID                                 : V_MPEG4/ISO/AVC
  10. Duration                                 : 2 h 56 min
  11. Bit rate                                 : 11.5 Mb/s
  12. Width                                    : 1 920 pixels
  13. Height                                   : 804 pixels
  14. Display aspect ratio                     : 2.40:1
  15. Frame rate mode                          : Constant
  16. Frame rate                               : 23.976 (24000/1001/189150) FPS
  17. Color space                              : YUV
  18. Chroma subsampling                       : 4:2:0
  19. Bit depth                                : 8 bits
  20. Scan type                                : Progressive
  21. Bits/(Pixel*Frame)                       : 0.311
  22. Stream size                              : 14.2 GiB (76%)
  23. Writing library                          : x264 core 148 r2795M aaa9aa8
  24. Encoding settings                        : cabac=1 / ref=4 / deblock=1:-2:-2 / analyse=0x3:0x113 / me=umh / subme=9 / psy=1 / psy_rd=1.00:0.15 / mixed_ref=1 / me_range=16 / chroma_me=1 / trellis=2 / 8x8dct=1 / cqm=0 / deadzone=21,11 / fast_pskip=1 / chroma_qp_offset=-3 / threads=24 / lookahead_threads=3 / sliced_threads=0 / nr=0 / decimate=1 / interlaced=0 / bluray_compat=0 / constrained_intra=0 / bframes=3 / b_pyramid=2 / b_adapt=1 / b_bias=0 / direct=3 / weightb=1 / open_gop=0 / weightp=2 / keyint=250 / keyint_min=25 / scenecut=40 / intra_refresh=0 / rc_lookahead=50 / rc=2pass / mbtree=1 / bitrate=11500 / ratetol=1.0 / qcomp=0.60 / qpmin=0 / qpmax=69 / qpstep=4 / cplxblur=20.0 / qblur=0.5 / vbv_maxrate=31250 / vbv_bufsize=31250 / nal_hrd=none / filler=0 / ip_ratio=1.40 / aq=1:1.00
  25. Default                                  : Yes
  26. Forced                                   : No
  27. Audio #1
  28. ID                                       : 2
  29. Format                                   : MLP FBA 16-ch
  30. Format/Info                              : Meridian Lossless Packing FBA with 16-channel presentation
  31. Commercial name                          : Dolby TrueHD with Dolby Atmos
  32. Codec ID                                 : A_TRUEHD
  33. Duration                                 : 2 h 56 min
  34. Bit rate mode                            : Variable
  35. Bit rate                                 : 3 028 kb/s
  36. Maximum bit rate                         : 5 271 kb/s
  37. Channel(s)                               : 8 channels
  38. Channel layout                           : L R C LFE Ls Rs Lb Rb
  39. Sampling rate                            : 48.0 kHz
  40. Frame rate                               : 1 200.000 FPS (40 SPF)
  41. Compression mode                         : Lossless
  42. Stream size                              : 3.73 GiB (20%)
  43. Title                                    : TrueHD Atmos 7.1
  44. Language                                 : English
  45. Default                                  : Yes
  46. Forced                                   : No
  47. Number of dynamic objects                : 11
  48. Bed channel count                        : 1 channel
  49. Bed channel configuration                : LFE
  50. Audio #2
  51. ID                                       : 3
  52. Format                                   : AC-3
  53. Format/Info                              : Audio Coding 3
  54. Commercial name                          : Dolby Digital
  55. Format settings                          : Dolby Surround EX
  56. Codec ID                                 : A_AC3
  57. Duration                                 : 2 h 56 min
  58. Bit rate mode                            : Constant
  59. Bit rate                                 : 448 kb/s
  60. Channel(s)                               : 6 channels
  61. Channel layout                           : L R C LFE Ls Rs
  62. Sampling rate                            : 48.0 kHz
  63. Frame rate                               : 31.250 FPS (1536 SPF)
  64. Compression mode                         : Lossy
  65. Stream size                              : 565 MiB (3%)
  66. Title                                    : DD 5.1
  67. Language                                 : English
  68. Service kind                             : Complete Main
  69. Default                                  : No
  70. Forced                                   : No
  71. Text #1
  72. ID                                       : 4
  73. Format                                   : UTF-8
  74. Codec ID                                 : S_TEXT/UTF8
  75. Codec ID/Info                            : UTF-8 Plain Text
  76. Duration                                 : 2 h 43 min
  77. Bit rate                                 : 45 b/s
  78. Count of elements                        : 1864
  79. Stream size                              : 54.2 KiB (0%)
  80. Language                                 : English
  81. Default                                  : Yes
  82. Forced                                   : No
  83. Text #2
  84. ID                                       : 5
  85. Format                                   : UTF-8
  86. Codec ID                                 : S_TEXT/UTF8
  87. Codec ID/Info                            : UTF-8 Plain Text
  88. Duration                                 : 2 h 55 min
  89. Bit rate                                 : 53 b/s
  90. Count of elements                        : 2401
  91. Stream size                              : 68.8 KiB (0%)
  92. Title                                    : SDH
  93. Language                                 : English
  94. Default                                  : No
  95. Forced                                   : No
  96. Text #3
  97. ID                                       : 6
  98. Format                                   : PGS
  99. Muxing mode                              : zlib
  100. Codec ID                                 : S_HDMV/PGS
  101. Codec ID/Info                            : Picture based subtitle format used on BDs/HD-DVDs
  102. Duration                                 : 2 h 55 min
  103. Bit rate                                 : 34.3 kb/s
  104. Count of elements                        : 4834
  105. Stream size                              : 43.1 MiB (0%)
  106. Title                                    : English (SDH)
  107. Language                                 : English
  108. Default                                  : No
  109. Forced                                   : No
  110. Text #4
  111. ID                                       : 7
  112. Format                                   : PGS
  113. Muxing mode                              : zlib
  114. Codec ID                                 : S_HDMV/PGS
  115. Codec ID/Info                            : Picture based subtitle format used on BDs/HD-DVDs
  116. Duration                                 : 2 h 55 min
  117. Bit rate                                 : 25.4 kb/s
  118. Count of elements                        : 3836
  119. Stream size                              : 32.0 MiB (0%)
  120. Title                                    : Bulgarian
  121. Language                                 : Bulgarian
  122. Default                                  : No
  123. Forced                                   : No
  124. Text #5
  125. ID                                       : 8
  126. Format                                   : PGS
  127. Muxing mode                              : zlib
  128. Codec ID                                 : S_HDMV/PGS
  129. Codec ID/Info                            : Picture based subtitle format used on BDs/HD-DVDs
  130. Duration                                 : 2 h 55 min
  131. Bit rate                                 : 25.3 kb/s
  132. Count of elements                        : 3870
  133. Stream size                              : 31.9 MiB (0%)
  134. Title                                    : Chinese (Cantonese)
  135. Language                                 : Chinese
  136. Default                                  : No
  137. Forced                                   : No
  138. Text #6
  139. ID                                       : 9
  140. Format                                   : PGS
  141. Muxing mode                              : zlib
  142. Codec ID                                 : S_HDMV/PGS
  143. Codec ID/Info                            : Picture based subtitle format used on BDs/HD-DVDs
  144. Duration                                 : 2 h 54 min
  145. Bit rate                                 : 25.1 kb/s
  146. Count of elements                        : 3624
  147. Stream size                              : 31.3 MiB (0%)
  148. Title                                    : Chinese (Traditional)
  149. Language                                 : Chinese
  150. Default                                  : No
  151. Forced                                   : No
  152. Text #7
  153. ID                                       : 10
  154. Format                                   : PGS
  155. Muxing mode                              : zlib
  156. Codec ID                                 : S_HDMV/PGS
  157. Codec ID/Info                            : Picture based subtitle format used on BDs/HD-DVDs
  158. Duration                                 : 2 h 54 min
  159. Bit rate                                 : 23.5 kb/s
  160. Count of elements                        : 2902
  161. Stream size                              : 29.2 MiB (0%)
  162. Title                                    : Hungarian
  163. Language                                 : Hungarian
  164. Default                                  : No
  165. Forced                                   : No
  166. Text #8
  167. ID                                       : 11
  168. Format                                   : PGS
  169. Muxing mode                              : zlib
  170. Codec ID                                 : S_HDMV/PGS
  171. Codec ID/Info                            : Picture based subtitle format used on BDs/HD-DVDs
  172. Duration                                 : 2 h 55 min
  173. Bit rate                                 : 34.2 kb/s
  174. Count of elements                        : 5026
  175. Stream size                              : 43.0 MiB (0%)
  176. Title                                    : Italian (SDH)
  177. Language                                 : Italian
  178. Default                                  : No
  179. Forced                                   : No
  180. Text #9
  181. ID                                       : 12
  182. Format                                   : PGS
  183. Muxing mode                              : zlib
  184. Codec ID                                 : S_HDMV/PGS
  185. Codec ID/Info                            : Picture based subtitle format used on BDs/HD-DVDs
  186. Duration                                 : 2 h 55 min
  187. Bit rate                                 : 15.4 kb/s
  188. Count of elements                        : 3788
  189. Stream size                              : 19.3 MiB (0%)
  190. Title                                    : Korean
  191. Language                                 : Korean
  192. Default                                  : No
  193. Forced                                   : No
  194. Text #10
  195. ID                                       : 13
  196. Format                                   : PGS
  197. Muxing mode                              : zlib
  198. Codec ID                                 : S_HDMV/PGS
  199. Codec ID/Info                            : Picture based subtitle format used on BDs/HD-DVDs
  200. Duration                                 : 2 h 54 min
  201. Bit rate                                 : 26.0 kb/s
  202. Count of elements                        : 3556
  203. Stream size                              : 32.4 MiB (0%)
  204. Title                                    : Romanian
  205. Language                                 : Romanian
  206. Default                                  : No
  207. Forced                                   : No
  208. Text #11
  209. ID                                       : 14
  210. Format                                   : PGS
  211. Muxing mode                              : zlib
  212. Codec ID                                 : S_HDMV/PGS
  213. Codec ID/Info                            : Picture based subtitle format used on BDs/HD-DVDs
  214. Duration                                 : 2 h 54 min
  215. Bit rate                                 : 26.0 kb/s
  216. Count of elements                        : 3810
  217. Stream size                              : 32.3 MiB (0%)
  218. Title                                    : Spanish (Castilian)
  219. Language                                 : Spanish
  220. Default                                  : No
  221. Forced                                   : No
  222. Menu
  223. 00:00:00.000                             : en:Chapter 1
  224. 00:12:01.387                             : en:Chapter 2
  225. 00:23:21.650                             : en:Chapter 3
  226. 00:31:53.829                             : en:Chapter 4
  227. 00:41:44.502                             : en:Chapter 5
  228. 00:51:36.677                             : en:Chapter 6
  229. 01:00:12.901                             : en:Chapter 7
  230. 01:10:32.395                             : en:Chapter 8
  231. 01:18:35.127                             : en:Chapter 9
  232. 01:29:14.724                             : en:Chapter 10
  233. 01:42:33.147                             : en:Chapter 11
  234. 01:52:16.897                             : en:Chapter 12
  235. 01:58:21.219                             : en:Chapter 13
  236. 02:09:39.981                             : en:Chapter 14
  237. 02:21:14.466                             : en:Chapter 15
  238. 02:27:31.342                             : en:Chapter 16
  239. 02:38:36.006                             : en:Chapter 17
  240. 02:46:58.342                             : en:Chapter 18
复制代码




                                       
                                       

                                       
                                       
                                       




The.Batman.2022.1080p.BluRay.x264.TrueHD.7.1.Atmos-FGT.torrent (23.91 KB, 下载次数: 7)
回复

使用道具 举报

0

精华

0

好友

2

听众

新手上路

Rank: 1

蓝光币
0
发表于 2022-5-30 21:35:51 | 显示全部楼层
谢谢楼主分享
回复

使用道具 举报

0

精华

0

好友

3

听众

新手上路

Rank: 1

蓝光币
0
发表于 2022-6-1 08:32:11 | 显示全部楼层
在哥谭市民心中已成为“复仇”二字最当仁不让的代名词
回复

使用道具 举报

您需要登录后才可以回帖 登录 | 立即注册

本版积分规则

QQ|Archiver|手机版|小黑屋|蓝光电影网

GMT+8, 2022-8-8 17:53 , Processed in 0.056587 second(s), 28 queries .

Powered by Discuz! X3.4

Copyright © 2001-2020, Tencent Cloud.

快速回复 返回顶部 返回列表