找回密码
 立即注册

QQ登录

只需一步,快速开始

查看: 135|回复: 2

[剧情片] 该隐与亚伯 Cain.and.Abel.1982.1080p.BluRay.x264-BiPOLAR 10.32GB

[复制链接]

0

精华

0

好友

2

听众

新手上路

Rank: 2

蓝光币
5
发表于 2022-5-17 07:11:16 | 显示全部楼层 |阅读模式
[img][/img]

◎标  题 该隐与亚伯
◎片  名 Cain at Abel
◎年  代 1982
◎产  地 菲律宾
◎类  别 剧情 / 动作
◎语  言 菲律宾语
◎IMDb评分 6.9/10 (90人评价)
◎IMDb链接 https://www.imdb.com/title/tt0317210/
◎豆瓣链接 https://movie.douban.com/subject/19972007/
◎片  长 109分钟
◎导  演 利诺·布罗卡 Lino Brocka
◎演  员 克里斯托弗·德莱昂 Christopher De Leon
◎简  介

  A modern-day version of the biblical legend on Cain and Abel. Strong-willed matriarch Señora Pina favors her younger son Ellis over the older Loren whom she blames for the death of her husband.
  1. Video
  2. ID                                       : 1
  3. Format                                   : AVC
  4. Format/Info                              : Advanced Video Codec
  5. Format profile                           : [email protected]
  6. Format settings                          : CABAC / 4 Ref Frames
  7. Format settings, CABAC                   : Yes
  8. Format settings, Reference frames        : 4 frames
  9. Codec ID                                 : V_MPEG4/ISO/AVC
  10. Duration                                 : 1 h 51 min
  11. Bit rate                                 : 12.5 Mb/s
  12. Width                                    : 1 920 pixels
  13. Height                                   : 1 038 pixels
  14. Display aspect ratio                     : 1.85:1
  15. Frame rate mode                          : Constant
  16. Frame rate                               : 24.000 FPS
  17. Color space                              : YUV
  18. Chroma subsampling                       : 4:2:0
  19. Bit depth                                : 8 bits
  20. Scan type                                : Progressive
  21. Bits/(Pixel*Frame)                       : 0.262
  22. Stream size                              : 9.77 GiB (95%)
  23. Writing library                          : x264 core 164 r3094 bfc87b7
  24. Encoding settings                        : cabac=1 / ref=4 / deblock=1:-3:-3 / analyse=0x3:0x133 / me=umh / subme=10 / psy=1 / psy_rd=1.00:0.15 / mixed_ref=1 / me_range=24 / chroma_me=1 / trellis=2 / 8x8dct=1 / cqm=0 / deadzone=21,11 / fast_pskip=1 / chroma_qp_offset=-3 / threads=18 / lookahead_threads=3 / sliced_threads=0 / nr=0 / decimate=1 / interlaced=0 / bluray_compat=0 / constrained_intra=0 / bframes=8 / b_pyramid=2 / b_adapt=2 / b_bias=0 / direct=3 / weightb=1 / open_gop=0 / weightp=2 / keyint=250 / keyint_min=24 / scenecut=40 / intra_refresh=0 / rc_lookahead=60 / rc=crf / mbtree=1 / crf=20.1 / qcomp=0.60 / qpmin=0 / qpmax=69 / qpstep=4 / ip_ratio=1.40 / aq=3:0.50
  25. Language                                 : English
  26. Default                                  : Yes
  27. Forced                                   : No
  28. Color range                              : Limited
  29. Matrix coefficients                      : BT.709

  30. Audio
  31. ID                                       : 2
  32. Format                                   : FLAC
  33. Format/Info                              : Free Lossless Audio Codec
  34. Codec ID                                 : A_FLAC
  35. Duration                                 : 1 h 51 min
  36. Bit rate mode                            : Variable
  37. Bit rate                                 : 690 kb/s
  38. Channel(s)                               : 2 channels
  39. Channel layout                           : L R
  40. Sampling rate                            : 48.0 kHz
  41. Frame rate                               : 11.719 FPS (4096 SPF)
  42. Bit depth                                : 24 bits
  43. Compression mode                         : Lossless
  44. Stream size                              : 551 MiB (5%)
  45. Writing library                          : libFLAC 1.2.1 (UTC 2007-09-17)
  46. Language                                 : Tagalog
  47. Default                                  : Yes
  48. Forced                                   : No

  49. Text #1
  50. ID                                       : 3
  51. Format                                   : UTF-8
  52. Codec ID                                 : S_TEXT/UTF8
  53. Codec ID/Info                            : UTF-8 Plain Text
  54. Duration                                 : 1 h 47 min
  55. Bit rate                                 : 48 b/s
  56. Count of elements                        : 1351
  57. Stream size                              : 37.7 KiB (0%)
  58. Title                                    : English
  59. Language                                 : English
  60. Default                                  : Yes
  61. Forced                                   : Yes

  62. Text #2
  63. ID                                       : 4
  64. Format                                   : PGS
  65. Muxing mode                              : zlib
  66. Codec ID                                 : S_HDMV/PGS
  67. Codec ID/Info                            : Picture based subtitle format used on BDs/HD-DVDs
  68. Duration                                 : 1 h 47 min
  69. Bit rate                                 : 15.8 kb/s
  70. Count of elements                        : 2488
  71. Stream size                              : 12.1 MiB (0%)
  72. Title                                    : English
  73. Language                                 : English
  74. Default                                  : No
  75. Forced                                   : No

  76. Menu
  77. 00:00:00.000                             : en:00:00:00.000
  78. 00:02:49.833                             : en:00:02:49.833
  79. 00:18:58.375                             : en:00:18:58.375
  80. 00:42:23.417                             : en:00:42:23.417
  81. 00:59:46.000                             : en:00:59:46.000
  82. 01:13:59.625                             : en:01:13:59.625
  83. 01:32:37.417                             : en:01:32:37.417
复制代码




                                       
                                       

                                       
                                       
                                       




Cain.and.Abel.1982.1080p.BluRay.x264-BiPOLAR.torrent (13.63 KB, 下载次数: 3)
回复

使用道具 举报

0

精华

0

好友

2

听众

新手上路

Rank: 1

蓝光币
0
发表于 2022-5-30 21:36:17 | 显示全部楼层
谢谢楼主分享
回复

使用道具 举报

0

精华

0

好友

2

听众

新手上路

Rank: 1

蓝光币
0
发表于 2022-6-9 10:34:58 | 显示全部楼层
这个好看吗
回复

使用道具 举报

您需要登录后才可以回帖 登录 | 立即注册

本版积分规则

QQ|Archiver|手机版|小黑屋|蓝光电影网

GMT+8, 2022-8-8 18:53 , Processed in 0.066135 second(s), 28 queries .

Powered by Discuz! X3.4

Copyright © 2001-2020, Tencent Cloud.

快速回复 返回顶部 返回列表