找回密码
 立即注册

QQ登录

只需一步,快速开始

查看: 51|回复: 0

[其他] 康斯坦丁:神秘之所 DC.Showcase.Constantine.The.House.of.Mystery.2022.2160p.iT.WEB-DL.DD5.1.DV.MKV.x265-SMURF 13.10GB

[复制链接]

0

精华

0

好友

2

听众

新手上路

Rank: 2

蓝光币
5
发表于 7 天前 | 显示全部楼层 |阅读模式


◎译  名 康斯坦丁:神秘之所 / DC Showcase – Constantine: House of Mystery / DC展台:康斯坦丁
◎片  名 Constantine: House of Mystery
◎年  代 2022
◎产  地 美国
◎类  别 动画
◎语  言 英语
◎上映日期 2022-05-03(美国)
◎IMDb链接 https://www.imdb.com/title/tt18305072/
◎豆瓣链接 https://movie.douban.com/subject/35633926/
◎片  长 27分钟
◎导  演 马特·皮特斯 Matt Peters (id:1332849)
◎编  剧 厄尼·阿特巴克 Ernie Altbacker (id:1367847)
◎演  员 罗宾·阿特金·唐斯 Robin Atkin Downes (id:1316486)
◎简  介

  Occult detective John Constantine is trapped in the House of Mystery, a secret domain where none can escape from.
  1. Video
  2. ID                                       : 1
  3. Format                                   : HEVC
  4. Format/Info                              : High Efficiency Video Coding
  5. Format profile                           : Main [email protected]@High
  6. HDR format                               : Dolby Vision, Version 1.0, dvhe.05.06, BL+RPU
  7. Codec ID                                 : V_MPEGH/ISO/HEVC
  8. Duration                                 : 1 h 16 min
  9. Bit rate                                 : 24.2 Mb/s
  10. Width                                    : 3 840 pixels
  11. Height                                   : 2 160 pixels
  12. Display aspect ratio                     : 16:9
  13. Frame rate mode                          : Constant
  14. Frame rate                               : 23.976 (24000/1001/189150) FPS
  15. Color space                              : YUV
  16. Chroma subsampling                       : 4:2:0
  17. Bit depth                                : 10 bits
  18. Bits/(Pixel*Frame)                       : 0.122
  19. Stream size                              : 12.9 GiB (98%)
  20. Language                                 : English
  21. Default                                  : Yes
  22. Forced                                   : No
  23. Audio
  24. ID                                       : 2
  25. Format                                   : AC-3
  26. Format/Info                              : Audio Coding 3
  27. Commercial name                          : Dolby Digital
  28. Codec ID                                 : A_AC3
  29. Duration                                 : 1 h 16 min
  30. Bit rate mode                            : Constant
  31. Bit rate                                 : 384 kb/s
  32. Channel(s)                               : 6 channels
  33. Channel layout                           : L R C LFE Ls Rs
  34. Sampling rate                            : 48.0 kHz
  35. Frame rate                               : 31.250 FPS (1536 SPF)
  36. Compression mode                         : Lossy
  37. Stream size                              : 210 MiB (2%)
  38. Language                                 : English
  39. Service kind                             : Complete Main
  40. Default                                  : Yes
  41. Forced                                   : No
  42. Text #1
  43. ID                                       : 3
  44. Format                                   : UTF-8
  45. Codec ID                                 : S_TEXT/UTF8
  46. Codec ID/Info                            : UTF-8 Plain Text
  47. Duration                                 : 1 h 15 min
  48. Bit rate                                 : 39 b/s
  49. Count of elements                        : 816
  50. Stream size                              : 21.8 KiB (0%)
  51. Title                                    : Traditional
  52. Language                                 : Chinese
  53. Default                                  : No
  54. Forced                                   : No
  55. Text #2
  56. ID                                       : 4
  57. Format                                   : UTF-8
  58. Codec ID                                 : S_TEXT/UTF8
  59. Codec ID/Info                            : UTF-8 Plain Text
  60. Duration                                 : 1 h 15 min
  61. Bit rate                                 : 45 b/s
  62. Count of elements                        : 687
  63. Stream size                              : 25.3 KiB (0%)
  64. Language                                 : Danish
  65. Default                                  : No
  66. Forced                                   : No
  67. Text #3
  68. ID                                       : 5
  69. Format                                   : UTF-8
  70. Codec ID                                 : S_TEXT/UTF8
  71. Codec ID/Info                            : UTF-8 Plain Text
  72. Duration                                 : 1 h 15 min
  73. Bit rate                                 : 58 b/s
  74. Count of elements                        : 870
  75. Stream size                              : 32.1 KiB (0%)
  76. Title                                    : SDH
  77. Language                                 : German
  78. Default                                  : No
  79. Forced                                   : No
  80. Text #4
  81. ID                                       : 6
  82. Format                                   : UTF-8
  83. Codec ID                                 : S_TEXT/UTF8
  84. Codec ID/Info                            : UTF-8 Plain Text
  85. Duration                                 : 1 h 14 min
  86. Bit rate                                 : 49 b/s
  87. Count of elements                        : 837
  88. Stream size                              : 27.1 KiB (0%)
  89. Language                                 : English
  90. Default                                  : No
  91. Forced                                   : No
  92. Text #5
  93. ID                                       : 7
  94. Format                                   : UTF-8
  95. Codec ID                                 : S_TEXT/UTF8
  96. Codec ID/Info                            : UTF-8 Plain Text
  97. Duration                                 : 1 h 15 min
  98. Bit rate                                 : 57 b/s
  99. Count of elements                        : 1088
  100. Stream size                              : 32.0 KiB (0%)
  101. Title                                    : SDH
  102. Language                                 : English
  103. Default                                  : No
  104. Forced                                   : No
  105. Text #6
  106. ID                                       : 8
  107. Format                                   : UTF-8
  108. Codec ID                                 : S_TEXT/UTF8
  109. Codec ID/Info                            : UTF-8 Plain Text
  110. Duration                                 : 1 h 15 min
  111. Bit rate                                 : 50 b/s
  112. Count of elements                        : 751
  113. Stream size                              : 27.6 KiB (0%)
  114. Title                                    : Latin American
  115. Language                                 : Spanish
  116. Default                                  : No
  117. Forced                                   : No
  118. Text #7
  119. ID                                       : 9
  120. Format                                   : UTF-8
  121. Codec ID                                 : S_TEXT/UTF8
  122. Codec ID/Info                            : UTF-8 Plain Text
  123. Duration                                 : 1 h 15 min
  124. Bit rate                                 : 48 b/s
  125. Count of elements                        : 724
  126. Stream size                              : 26.8 KiB (0%)
  127. Language                                 : Finnish
  128. Default                                  : No
  129. Forced                                   : No
  130. Text #8
  131. ID                                       : 10
  132. Format                                   : UTF-8
  133. Codec ID                                 : S_TEXT/UTF8
  134. Codec ID/Info                            : UTF-8 Plain Text
  135. Duration                                 : 1 h 15 min
  136. Bit rate                                 : 59 b/s
  137. Count of elements                        : 784
  138. Stream size                              : 32.8 KiB (0%)
  139. Language                                 : French
  140. Default                                  : No
  141. Forced                                   : No
  142. Text #9
  143. ID                                       : 11
  144. Format                                   : UTF-8
  145. Codec ID                                 : S_TEXT/UTF8
  146. Codec ID/Info                            : UTF-8 Plain Text
  147. Duration                                 : 1 h 15 min
  148. Bit rate                                 : 75 b/s
  149. Count of elements                        : 816
  150. Stream size                              : 42.0 KiB (0%)
  151. Language                                 : Hebrew
  152. Default                                  : No
  153. Forced                                   : No
  154. Text #10
  155. ID                                       : 12
  156. Format                                   : UTF-8
  157. Codec ID                                 : S_TEXT/UTF8
  158. Codec ID/Info                            : UTF-8 Plain Text
  159. Duration                                 : 1 h 15 min
  160. Bit rate                                 : 51 b/s
  161. Count of elements                        : 746
  162. Stream size                              : 28.6 KiB (0%)
  163. Language                                 : Dutch
  164. Default                                  : No
  165. Forced                                   : No
  166. Text #11
  167. ID                                       : 13
  168. Format                                   : UTF-8
  169. Codec ID                                 : S_TEXT/UTF8
  170. Codec ID/Info                            : UTF-8 Plain Text
  171. Duration                                 : 1 h 15 min
  172. Bit rate                                 : 44 b/s
  173. Count of elements                        : 698
  174. Stream size                              : 24.5 KiB (0%)
  175. Language                                 : Norwegian
  176. Default                                  : No
  177. Forced                                   : No
  178. Text #12
  179. ID                                       : 14
  180. Format                                   : UTF-8
  181. Codec ID                                 : S_TEXT/UTF8
  182. Codec ID/Info                            : UTF-8 Plain Text
  183. Duration                                 : 1 h 15 min
  184. Bit rate                                 : 45 b/s
  185. Count of elements                        : 720
  186. Stream size                              : 25.1 KiB (0%)
  187. Title                                    : Brazilian
  188. Language                                 : Portuguese
  189. Default                                  : No
  190. Forced                                   : No
  191. Text #13
  192. ID                                       : 15
  193. Format                                   : UTF-8
  194. Codec ID                                 : S_TEXT/UTF8
  195. Codec ID/Info                            : UTF-8 Plain Text
  196. Duration                                 : 1 h 15 min
  197. Bit rate                                 : 46 b/s
  198. Count of elements                        : 712
  199. Stream size                              : 25.9 KiB (0%)
  200. Language                                 : Swedish
  201. Default                                  : No
  202. Forced                                   : No
  203. Menu
  204. 00:00:00.000                             : en:Chapter 1
  205. 00:04:40.572                             : en:Chapter 2
  206. 00:09:58.181                             : en:Chapter 3
  207. 00:15:03.278                             : en:Chapter 4
  208. 00:18:54.509                             : en:Chapter 5
  209. 00:24:48.279                             : en:Chapter 6
  210. 00:27:38.533                             : en:Chapter 7
  211. 00:32:20.774                             : en:Chapter 8
  212. 00:37:06.226                             : en:Chapter 9
  213. 00:44:52.400                             : en:Chapter 10
  214. 00:49:50.448                             : en:Chapter 11
  215. 00:53:39.844                             : en:Chapter 12
  216. 00:58:18.540                             : en:Chapter 13
  217. 01:02:25.829                             : en:Chapter 14
  218. 01:07:28.214                             : en:Chapter 15
  219. 01:12:00.862                             : en:Chapter 16
复制代码







                                       
                                       

                                       
                                       
                                       




康斯坦丁:神秘之所 DC.Showcase.Constantine.The.House.of.Mystery.2022.2160p.iT.WEB-DL.DD5.1.DV.MKV.x265-SMURF 13.10GB

DC.Showcase.Constantine.The.House.of.Mystery.2022.2160p.iT.WEB-DL.DD5.1.DV.MKV.x.torrent

17.08 KB, 下载次数: 1, 下载积分: 蓝光币 -2

回复

使用道具 举报

您需要登录后才可以回帖 登录 | 立即注册

本版积分规则

QQ|Archiver|手机版|小黑屋|蓝光电影网

GMT+8, 2022-5-19 23:15 , Processed in 0.055373 second(s), 28 queries .

Powered by Discuz! X3.4

Copyright © 2001-2020, Tencent Cloud.

快速回复 返回顶部 返回列表