找回密码
 立即注册

QQ登录

只需一步,快速开始

查看: 42|回复: 0

[其他] 康斯坦丁:神秘之所 DC.Showcase.Constantine.The.House.of.Mystery.2022.2160p.iT.WEB-DL.x265.10bit.HDR.DD5.1-SMURF 13.14GB

[复制链接]

0

精华

0

好友

2

听众

新手上路

Rank: 2

蓝光币
5
发表于 7 天前 | 显示全部楼层 |阅读模式


◎译  名 康斯坦丁:神秘之所 / DC Showcase – Constantine: House of Mystery / DC展台:康斯坦丁
◎片  名 Constantine: House of Mystery
◎年  代 2022
◎产  地 美国
◎类  别 动画
◎语  言 英语
◎上映日期 2022-05-03(美国)
◎IMDb链接 https://www.imdb.com/title/tt18305072/
◎豆瓣链接 https://movie.douban.com/subject/35633926/
◎片  长 27分钟
◎导  演 马特·皮特斯 Matt Peters (id:1332849)
◎编  剧 厄尼·阿特巴克 Ernie Altbacker (id:1367847)
◎演  员 罗宾·阿特金·唐斯 Robin Atkin Downes (id:1316486)
◎简  介

  Occult detective John Constantine is trapped in the House of Mystery, a secret domain where none can escape from.
  1. Video
  2. ID                                       : 1
  3. Format                                   : HEVC
  4. Format/Info                              : High Efficiency Video Coding
  5. Format profile                           : Main [email protected]@High
  6. HDR format                               : SMPTE ST 2086, HDR10 compatible
  7. Codec ID                                 : V_MPEGH/ISO/HEVC
  8. Duration                                 : 1 h 16 min
  9. Bit rate                                 : 24.3 Mb/s
  10. Width                                    : 3 840 pixels
  11. Height                                   : 2 160 pixels
  12. Display aspect ratio                     : 16:9
  13. Frame rate mode                          : Constant
  14. Frame rate                               : 23.976 FPS
  15. Color space                              : YUV
  16. Chroma subsampling                       : 4:2:0 (Type 2)
  17. Bit depth                                : 10 bits
  18. Bits/(Pixel*Frame)                       : 0.122
  19. Stream size                              : 12.9 GiB (98%)
  20. Language                                 : English
  21. Default                                  : Yes
  22. Forced                                   : No
  23. Color range                              : Limited
  24. Color primaries                          : BT.2020
  25. Transfer characteristics                 : PQ
  26. Matrix coefficients                      : BT.2020 non-constant
  27. Mastering display color primaries        : BT.2020
  28. Mastering display luminance              : min: 0.0050 cd/m2, max: 1000 cd/m2
  29. Maximum Content Light Level              : 1285 cd/m2
  30. Maximum Frame-Average Light Level        : 1037 cd/m2

  31. Audio
  32. ID                                       : 2
  33. Format                                   : AC-3
  34. Format/Info                              : Audio Coding 3
  35. Commercial name                          : Dolby Digital
  36. Codec ID                                 : A_AC3
  37. Duration                                 : 1 h 16 min
  38. Bit rate mode                            : Constant
  39. Bit rate                                 : 384 kb/s
  40. Channel(s)                               : 6 channels
  41. Channel layout                           : L R C LFE Ls Rs
  42. Sampling rate                            : 48.0 kHz
  43. Frame rate                               : 31.250 FPS (1536 SPF)
  44. Compression mode                         : Lossy
  45. Stream size                              : 210 MiB (2%)
  46. Language                                 : English
  47. Service kind                             : Complete Main
  48. Default                                  : Yes
  49. Forced                                   : No

  50. Text #1
  51. ID                                       : 3
  52. Format                                   : UTF-8
  53. Codec ID                                 : S_TEXT/UTF8
  54. Codec ID/Info                            : UTF-8 Plain Text
  55. Duration                                 : 1 h 15 min
  56. Bit rate                                 : 39 b/s
  57. Count of elements                        : 816
  58. Stream size                              : 21.8 KiB (0%)
  59. Title                                    : Traditional
  60. Language                                 : Chinese
  61. Default                                  : No
  62. Forced                                   : No

  63. Text #2
  64. ID                                       : 4
  65. Format                                   : UTF-8
  66. Codec ID                                 : S_TEXT/UTF8
  67. Codec ID/Info                            : UTF-8 Plain Text
  68. Duration                                 : 1 h 15 min
  69. Bit rate                                 : 45 b/s
  70. Count of elements                        : 687
  71. Stream size                              : 25.3 KiB (0%)
  72. Language                                 : Danish
  73. Default                                  : No
  74. Forced                                   : No

  75. Text #3
  76. ID                                       : 5
  77. Format                                   : UTF-8
  78. Codec ID                                 : S_TEXT/UTF8
  79. Codec ID/Info                            : UTF-8 Plain Text
  80. Duration                                 : 1 h 15 min
  81. Bit rate                                 : 58 b/s
  82. Count of elements                        : 870
  83. Stream size                              : 32.1 KiB (0%)
  84. Title                                    : SDH
  85. Language                                 : German
  86. Default                                  : No
  87. Forced                                   : No

  88. Text #4
  89. ID                                       : 6
  90. Format                                   : UTF-8
  91. Codec ID                                 : S_TEXT/UTF8
  92. Codec ID/Info                            : UTF-8 Plain Text
  93. Duration                                 : 1 h 14 min
  94. Bit rate                                 : 49 b/s
  95. Count of elements                        : 837
  96. Stream size                              : 27.1 KiB (0%)
  97. Language                                 : English
  98. Default                                  : No
  99. Forced                                   : No

  100. Text #5
  101. ID                                       : 7
  102. Format                                   : UTF-8
  103. Codec ID                                 : S_TEXT/UTF8
  104. Codec ID/Info                            : UTF-8 Plain Text
  105. Duration                                 : 1 h 15 min
  106. Bit rate                                 : 57 b/s
  107. Count of elements                        : 1088
  108. Stream size                              : 32.0 KiB (0%)
  109. Title                                    : SDH
  110. Language                                 : English
  111. Default                                  : No
  112. Forced                                   : No

  113. Text #6
  114. ID                                       : 8
  115. Format                                   : UTF-8
  116. Codec ID                                 : S_TEXT/UTF8
  117. Codec ID/Info                            : UTF-8 Plain Text
  118. Duration                                 : 1 h 15 min
  119. Bit rate                                 : 50 b/s
  120. Count of elements                        : 751
  121. Stream size                              : 27.6 KiB (0%)
  122. Title                                    : Latin American
  123. Language                                 : Spanish
  124. Default                                  : No
  125. Forced                                   : No

  126. Text #7
  127. ID                                       : 9
  128. Format                                   : UTF-8
  129. Codec ID                                 : S_TEXT/UTF8
  130. Codec ID/Info                            : UTF-8 Plain Text
  131. Duration                                 : 1 h 15 min
  132. Bit rate                                 : 48 b/s
  133. Count of elements                        : 724
  134. Stream size                              : 26.8 KiB (0%)
  135. Language                                 : Finnish
  136. Default                                  : No
  137. Forced                                   : No

  138. Text #8
  139. ID                                       : 10
  140. Format                                   : UTF-8
  141. Codec ID                                 : S_TEXT/UTF8
  142. Codec ID/Info                            : UTF-8 Plain Text
  143. Duration                                 : 1 h 15 min
  144. Bit rate                                 : 59 b/s
  145. Count of elements                        : 784
  146. Stream size                              : 32.8 KiB (0%)
  147. Language                                 : French
  148. Default                                  : No
  149. Forced                                   : No

  150. Text #9
  151. ID                                       : 11
  152. Format                                   : UTF-8
  153. Codec ID                                 : S_TEXT/UTF8
  154. Codec ID/Info                            : UTF-8 Plain Text
  155. Duration                                 : 1 h 15 min
  156. Bit rate                                 : 75 b/s
  157. Count of elements                        : 816
  158. Stream size                              : 42.0 KiB (0%)
  159. Language                                 : Hebrew
  160. Default                                  : No
  161. Forced                                   : No

  162. Text #10
  163. ID                                       : 12
  164. Format                                   : UTF-8
  165. Codec ID                                 : S_TEXT/UTF8
  166. Codec ID/Info                            : UTF-8 Plain Text
  167. Duration                                 : 1 h 15 min
  168. Bit rate                                 : 51 b/s
  169. Count of elements                        : 746
  170. Stream size                              : 28.6 KiB (0%)
  171. Language                                 : Dutch
  172. Default                                  : No
  173. Forced                                   : No

  174. Text #11
  175. ID                                       : 13
  176. Format                                   : UTF-8
  177. Codec ID                                 : S_TEXT/UTF8
  178. Codec ID/Info                            : UTF-8 Plain Text
  179. Duration                                 : 1 h 15 min
  180. Bit rate                                 : 44 b/s
  181. Count of elements                        : 698
  182. Stream size                              : 24.5 KiB (0%)
  183. Language                                 : Norwegian
  184. Default                                  : No
  185. Forced                                   : No

  186. Text #12
  187. ID                                       : 14
  188. Format                                   : UTF-8
  189. Codec ID                                 : S_TEXT/UTF8
  190. Codec ID/Info                            : UTF-8 Plain Text
  191. Duration                                 : 1 h 15 min
  192. Bit rate                                 : 45 b/s
  193. Count of elements                        : 720
  194. Stream size                              : 25.1 KiB (0%)
  195. Title                                    : Brazilian
  196. Language                                 : Portuguese
  197. Default                                  : No
  198. Forced                                   : No

  199. Text #13
  200. ID                                       : 15
  201. Format                                   : UTF-8
  202. Codec ID                                 : S_TEXT/UTF8
  203. Codec ID/Info                            : UTF-8 Plain Text
  204. Duration                                 : 1 h 15 min
  205. Bit rate                                 : 46 b/s
  206. Count of elements                        : 712
  207. Stream size                              : 25.9 KiB (0%)
  208. Language                                 : Swedish
  209. Default                                  : No
  210. Forced                                   : No

  211. Menu
  212. 00:00:00.000                             : en:Chapter 1
  213. 00:04:40.572                             : en:Chapter 2
  214. 00:09:58.181                             : en:Chapter 3
  215. 00:15:03.278                             : en:Chapter 4
  216. 00:18:54.509                             : en:Chapter 5
  217. 00:24:48.279                             : en:Chapter 6
  218. 00:27:38.533                             : en:Chapter 7
  219. 00:32:20.774                             : en:Chapter 8
  220. 00:37:06.226                             : en:Chapter 9
  221. 00:44:52.400                             : en:Chapter 10
  222. 00:49:50.448                             : en:Chapter 11
  223. 00:53:39.844                             : en:Chapter 12
  224. 00:58:18.540                             : en:Chapter 13
  225. 01:02:25.829                             : en:Chapter 14
  226. 01:07:28.214                             : en:Chapter 15
  227. 01:12:00.862                             : en:Chapter 16
复制代码




                                       
                                       

                                       
                                       
                                       




康斯坦丁:神秘之所 DC.Showcase.Constantine.The.House.of.Mystery.2022.2160p.iT.WEB-DL.x265.10bit.HDR.DD5.1-SMURF 13.14GB

DC.Showcase.Constantine.The.House.of.Mystery.2022.2160p.iT.WEB-DL.x265.10bit.HDR.torrent

17.12 KB, 下载次数: 0, 下载积分: 蓝光币 -2

回复

使用道具 举报

您需要登录后才可以回帖 登录 | 立即注册

本版积分规则

QQ|Archiver|手机版|小黑屋|蓝光电影网

GMT+8, 2022-5-19 23:19 , Processed in 0.057831 second(s), 28 queries .

Powered by Discuz! X3.4

Copyright © 2001-2020, Tencent Cloud.

快速回复 返回顶部 返回列表