找回密码
 立即注册

QQ登录

只需一步,快速开始

查看: 36|回复: 0

[其他] 双重危机 Double.Jeopardy.1999.2160p.WEB-DL.DD5.1.DV.MP4.x265-DVSUX 18.58GB

[复制链接]

0

精华

0

好友

2

听众

新手上路

Rank: 2

蓝光币
5
发表于 2022-5-12 07:55:48 | 显示全部楼层 |阅读模式


◎译  名 双重危机 / 致命追缉令 / 亡命追凶 / 双重阴谋 / 双重间谍
◎片  名 Double Jeopardy
◎年  代 1999
◎产  地 美国 / 德国 / 加拿大
◎类  别 剧情 / 悬疑 / 惊悚 / 犯罪
◎语  言 英语
◎上映日期 1999-09-21
◎IMDb链接 https://www.imdb.com/title/tt0150377/
◎豆瓣评分 7.2/10 (6986人评价)
◎豆瓣链接 https://movie.douban.com/subject/1292676/
◎片  长 105分钟
◎导  演 布鲁斯·贝尔斯福德 Bruce Beresford (id:1025303)
◎编  剧 大卫·韦斯伯格 David Weisberg (id:1356776)
       道格拉斯·库克 Douglas Cook (id:1356775)
       张策 Ce Zhang (id:1327864)
◎演  员 汤米·李·琼斯 Tommy Lee Jones (id:1047994)
       艾什莉·贾德 Ashley Judd (id:1000014)
       杰伊·布拉泽奥 Jay Brazeau (id:1078980)
       布鲁斯·格林伍德 Bruce Greenwood (id:1025206)
       约翰·麦克拉伦 John Maclaren (id:1122099)
       安娜贝丝·吉什 Annabeth Gish (id:1031928)
       布伦南·埃利奥特 Brennan Elliott (id:1325403)
       迈克尔·加斯顿 Michael Gaston (id:1091100)
       吉莲·芭伯 Gillian Barber (id:1032598)
       David Jacox David Jacox (id:1287526)
       贝齐·布兰特利 Betsy Brantley (id:1074472)
       罗马·玛菲娅 Roma Maffia (id:1018053)
       达文尼亚·麦克法登 Davenia McFadden (id:1116054)
       加布里埃尔·罗斯 Gabrielle Rose (id:1296049)
       丹尼尔·莱派恩 Daniel Lapaine (id:1313018)
       玛丽亚·埃雷拉 Maria Herrera (id:1055329)
       巴布斯丘拉 Babs Chula (id:1070391)
       恩卡·奥库玛 Enuka Okuma (id:1127886)
       David Fredericks David Fredericks (id:1342152)
       安娜·哈根 Anna Hagan (id:1095724)
       富尔·切切里 Fulvio Cecere (id:1079001)
       特雷西·维拉尔 Tracy Vilar (id:1000720)
       Addison Ridge Addison Ridge (id:1295650)
       因格里德·托伦斯 Ingrid Torrance (id:1156576)
       罗杰·R.克劳斯 Roger R. Cross (id:1055522)
       基冈·康纳·特雷西 Keegan Connor Tracy (id:1152919)
       Dave Hager Dave Hager (id:1100869)
       Austin B. Church Austin B. Church (id:1068418)
       米凯尔·珊农·詹金斯 Mykel Shannon Jenkins (id:1112395)
       Michelle Stafford Michelle Stafford (id:1154170)
       Lance Spellerberg Lance Spellerberg (id:1155103)
       乔治·图利亚托斯 George Touliatos (id:1151492)
       Brent Woolsey Brent Woolsey (id:1164745)
       斯宾塞·崔特·克拉克 Spencer Treat Clark (id:1027222)
       Tamer Riad Tamer Riad (id:1139243)
       Nicolas Roye Nicolas Roye (id:1144128)
       马克·华纳 Mark Warner (id:1300451)
       萨拉·芬兰 Sarah Finn (id:1283741)
       德博拉·阿奎拉 Deborah Aquila (id:1277347)
       Andrew Neskoromny Andrew Neskoromny (id:1293058)
       Elizabeth Wilcox Elizabeth Wilcox (id:1300902)
       Linda M. Bass Linda M. Bass (id:1278047)
       Ashlee Petersen Ashlee Petersen (id:1294375)
       Norma Hill-Patton Norma Hill-Patton (id:1286633)
       西德妮·科内尔 Cydney Cornell (id:1281289)
       约翰·布雷克 John Blake (id:1278750)
       Charles Porlier Charles Porlier (id:1294748)
       布拉德·库恩 Brad Kuehn (id:1289086)
◎简  介

  莉比(艾什莉·贾德 Ashley Judd 饰)和丈夫尼克(布鲁斯·格林伍德 Bruce Greenwood 饰)之间的感情十分要好,两人共同养育乖巧可爱的儿子马蒂(本杰明·韦弗 Benjamin Weaver 饰),幸福生活堪称典范。可是,在忽然之间,尼克神秘失踪留下大量血迹,莉比则沦为嫌犯最终锒铛入狱。莉比将马蒂托付给了好友安吉(安娜贝丝·吉什 Annabeth Gish 饰),自己则在狱友玛格丽特(罗马·玛菲娅 Roma Maffia 饰)和伊芙琳(达文尼亚·麦克法登 Davenia McFadden 饰)的帮助下为了洗清罪名而做着不断的努力。                                       
                                    一晃眼六年过去,塔维斯警官(汤米·李·琼斯 Tommy Lee Jones 饰)成为了获得了假释的莉比的监护人,而此时的莉比发现,尼克不仅没有死亡,甚至改头换面带着儿子和安吉过着隐姓埋名的生活。经历了双...
  1. Video
  2. ID                                       : 1
  3. Format                                   : HEVC
  4. Format/Info                              : High Efficiency Video Coding
  5. Format profile                           : Main [email protected]@High
  6. HDR format                               : Dolby Vision, Version 1.0, dvhe.05.06, BL+RPU
  7. Codec ID                                 : dvhe
  8. Codec ID/Info                            : High Efficiency Video Coding with Dolby Vision
  9. Duration                                 : 1 h 45 min
  10. Bit rate                                 : 24.9 Mb/s
  11. Width                                    : 3 840 pixels
  12. Height                                   : 1 600 pixels
  13. Display aspect ratio                     : 2.40:1
  14. Frame rate mode                          : Constant
  15. Frame rate                               : 23.976 (24000/1001/189150) FPS
  16. Color space                              : YUV
  17. Chroma subsampling                       : 4:2:0
  18. Bit depth                                : 10 bits
  19. Bits/(Pixel*Frame)                       : 0.169
  20. Stream size                              : 18.3 GiB (98%)
  21. Default                                  : Yes
  22. Alternate group                          : 1
  23. Encoded date                             : UTC 2022-05-11 08:07:15
  24. Tagged date                              : UTC 2022-05-11 08:10:36
  25. Codec configuration box                  : hvcC+dvcC
  26. Audio
  27. ID                                       : 2
  28. Format                                   : AC-3
  29. Format/Info                              : Audio Coding 3
  30. Commercial name                          : Dolby Digital
  31. Codec ID                                 : ac-3
  32. Duration                                 : 1 h 45 min
  33. Bit rate mode                            : Constant
  34. Bit rate                                 : 384 kb/s
  35. Maximum bit rate                         : 406 kb/s
  36. Channel(s)                               : 6 channels
  37. Channel layout                           : L R C LFE Ls Rs
  38. Sampling rate                            : 48.0 kHz
  39. Frame rate                               : 31.250 FPS (1536 SPF)
  40. Compression mode                         : Lossy
  41. Stream size                              : 289 MiB (2%)
  42. Title                                    : English
  43. Language                                 : English
  44. Service kind                             : Complete Main
  45. Default                                  : Yes
  46. Alternate group                          : 1
  47. Tagged date                              : UTC 2022-05-11 08:10:36
  48. Text #1
  49. ID                                       : 3
  50. Format                                   : Timed Text
  51. Codec ID                                 : tx3g
  52. Duration                                 : 1 h 40 min
  53. Bit rate mode                            : Variable
  54. Bit rate                                 : 67 b/s
  55. Stream size                              : 48.8 KiB (0%)
  56. Title                                    : English
  57. Language                                 : English
  58. Forced                                   : No
  59. Encoded date                             : UTC 2022-05-11 08:10:35
  60. Tagged date                              : UTC 2022-05-11 08:10:36
  61. Text #2
  62. ID                                       : 4
  63. Format                                   : Timed Text
  64. Codec ID                                 : tx3g
  65. Duration                                 : 1 h 39 min
  66. Bit rate mode                            : Variable
  67. Bit rate                                 : 66 b/s
  68. Stream size                              : 47.9 KiB (0%)
  69. Title                                    : Arabic
  70. Language                                 : Arabic
  71. Forced                                   : No
  72. Encoded date                             : UTC 2022-05-11 08:10:35
  73. Tagged date                              : UTC 2022-05-11 08:10:36
  74. Text #3
  75. ID                                       : 5
  76. Format                                   : Timed Text
  77. Codec ID                                 : tx3g
  78. Duration                                 : 1 h 40 min
  79. Bit rate mode                            : Variable
  80. Bit rate                                 : 67 b/s
  81. Stream size                              : 49.1 KiB (0%)
  82. Title                                    : Bulgarian
  83. Language                                 : Bulgarian
  84. Forced                                   : No
  85. Encoded date                             : UTC 2022-05-11 08:10:35
  86. Tagged date                              : UTC 2022-05-11 08:10:36
  87. Text #4
  88. ID                                       : 6
  89. Format                                   : Timed Text
  90. Codec ID                                 : tx3g
  91. Duration                                 : 1 h 39 min
  92. Bit rate mode                            : Variable
  93. Bit rate                                 : 40 b/s
  94. Stream size                              : 29.2 KiB (0%)
  95. Title                                    : Chinese-Simplified
  96. Language                                 : Chinese
  97. Forced                                   : No
  98. Encoded date                             : UTC 2022-05-11 08:10:35
  99. Tagged date                              : UTC 2022-05-11 08:10:36
  100. Text #5
  101. ID                                       : 7
  102. Format                                   : Timed Text
  103. Codec ID                                 : tx3g
  104. Duration                                 : 1 h 39 min
  105. Bit rate mode                            : Variable
  106. Bit rate                                 : 36 b/s
  107. Stream size                              : 26.4 KiB (0%)
  108. Title                                    : Chinese-Traditional
  109. Language                                 : Chinese
  110. Forced                                   : No
  111. Encoded date                             : UTC 2022-05-11 08:10:35
  112. Tagged date                              : UTC 2022-05-11 08:10:36
  113. Text #6
  114. ID                                       : 8
  115. Format                                   : Timed Text
  116. Codec ID                                 : tx3g
  117. Duration                                 : 1 h 39 min
  118. Bit rate mode                            : Variable
  119. Bit rate                                 : 41 b/s
  120. Stream size                              : 29.7 KiB (0%)
  121. Title                                    : Danish
  122. Language                                 : Danish
  123. Forced                                   : No
  124. Encoded date                             : UTC 2022-05-11 08:10:35
  125. Tagged date                              : UTC 2022-05-11 08:10:36
  126. Text #7
  127. ID                                       : 9
  128. Format                                   : Timed Text
  129. Codec ID                                 : tx3g
  130. Duration                                 : 1 h 45 min
  131. Bit rate mode                            : Variable
  132. Bit rate                                 : 36 b/s
  133. Stream size                              : 27.8 KiB (0%)
  134. Title                                    : Dutch
  135. Language                                 : Dutch
  136. Forced                                   : No
  137. Encoded date                             : UTC 2022-05-11 08:10:35
  138. Tagged date                              : UTC 2022-05-11 08:10:36
  139. Text #8
  140. ID                                       : 10
  141. Format                                   : Timed Text
  142. Codec ID                                 : tx3g
  143. Duration                                 : 1 h 39 min
  144. Bit rate mode                            : Variable
  145. Bit rate                                 : 44 b/s
  146. Stream size                              : 31.9 KiB (0%)
  147. Title                                    : Finnish
  148. Language                                 : Finnish
  149. Forced                                   : No
  150. Encoded date                             : UTC 2022-05-11 08:10:35
  151. Tagged date                              : UTC 2022-05-11 08:10:36
  152. Text #9
  153. ID                                       : 11
  154. Format                                   : Timed Text
  155. Codec ID                                 : tx3g
  156. Duration                                 : 1 h 39 min
  157. Bit rate mode                            : Variable
  158. Bit rate                                 : 45 b/s
  159. Stream size                              : 33.0 KiB (0%)
  160. Title                                    : French
  161. Language                                 : French
  162. Forced                                   : No
  163. Encoded date                             : UTC 2022-05-11 08:10:35
  164. Tagged date                              : UTC 2022-05-11 08:10:36
  165. Text #10
  166. ID                                       : 12
  167. Format                                   : Timed Text
  168. Codec ID                                 : tx3g
  169. Duration                                 : 1 h 39 min
  170. Bit rate mode                            : Variable
  171. Bit rate                                 : 46 b/s
  172. Stream size                              : 33.7 KiB (0%)
  173. Title                                    : German
  174. Language                                 : German
  175. Forced                                   : No
  176. Encoded date                             : UTC 2022-05-11 08:10:36
  177. Tagged date                              : UTC 2022-05-11 08:10:36
  178. Text #11
  179. ID                                       : 13
  180. Format                                   : Timed Text
  181. Codec ID                                 : tx3g
  182. Duration                                 : 1 h 39 min
  183. Bit rate mode                            : Variable
  184. Bit rate                                 : 54 b/s
  185. Stream size                              : 39.8 KiB (0%)
  186. Title                                    : Hebrew
  187. Language                                 : Hebrew
  188. Forced                                   : No
  189. Encoded date                             : UTC 2022-05-11 08:10:36
  190. Tagged date                              : UTC 2022-05-11 08:10:36
  191. Text #12
  192. ID                                       : 14
  193. Format                                   : Timed Text
  194. Codec ID                                 : tx3g
  195. Duration                                 : 1 h 45 min
  196. Bit rate mode                            : Variable
  197. Bit rate                                 : 52 b/s
  198. Stream size                              : 40.3 KiB (0%)
  199. Title                                    : Italian
  200. Language                                 : Italian
  201. Forced                                   : No
  202. Encoded date                             : UTC 2022-05-11 08:10:36
  203. Tagged date                              : UTC 2022-05-11 08:10:36
  204. Text #13
  205. ID                                       : 15
  206. Format                                   : Timed Text
  207. Codec ID                                 : tx3g
  208. Duration                                 : 1 h 39 min
  209. Bit rate mode                            : Variable
  210. Bit rate                                 : 62 b/s
  211. Stream size                              : 45.3 KiB (0%)
  212. Title                                    : Latvian
  213. Language                                 : Latvian
  214. Forced                                   : No
  215. Encoded date                             : UTC 2022-05-11 08:10:36
  216. Tagged date                              : UTC 2022-05-11 08:10:36
  217. Text #14
  218. ID                                       : 16
  219. Format                                   : Timed Text
  220. Codec ID                                 : tx3g
  221. Duration                                 : 1 h 39 min
  222. Bit rate mode                            : Variable
  223. Bit rate                                 : 39 b/s
  224. Stream size                              : 28.4 KiB (0%)
  225. Title                                    : Norwegian
  226. Language                                 : Norwegian
  227. Forced                                   : No
  228. Encoded date                             : UTC 2022-05-11 08:10:36
  229. Tagged date                              : UTC 2022-05-11 08:10:36
  230. Text #15
  231. ID                                       : 17
  232. Format                                   : Timed Text
  233. Codec ID                                 : tx3g
  234. Duration                                 : 1 h 39 min
  235. Bit rate mode                            : Variable
  236. Bit rate                                 : 55 b/s
  237. Stream size                              : 40.5 KiB (0%)
  238. Title                                    : Polish
  239. Language                                 : Polish
  240. Forced                                   : No
  241. Encoded date                             : UTC 2022-05-11 08:10:36
  242. Tagged date                              : UTC 2022-05-11 08:10:36
  243. Text #16
  244. ID                                       : 18
  245. Format                                   : Timed Text
  246. Codec ID                                 : tx3g
  247. Duration                                 : 1 h 39 min
  248. Bit rate mode                            : Variable
  249. Bit rate                                 : 45 b/s
  250. Stream size                              : 33.0 KiB (0%)
  251. Title                                    : Portuguese
  252. Language                                 : Portuguese
  253. Forced                                   : No
  254. Encoded date                             : UTC 2022-05-11 08:10:36
  255. Tagged date                              : UTC 2022-05-11 08:10:36
  256. Text #17
  257. ID                                       : 19
  258. Format                                   : Timed Text
  259. Codec ID                                 : tx3g
  260. Duration                                 : 1 h 39 min
  261. Bit rate mode                            : Variable
  262. Bit rate                                 : 48 b/s
  263. Stream size                              : 35.0 KiB (0%)
  264. Title                                    : Portuguese
  265. Language                                 : Portuguese
  266. Forced                                   : No
  267. Encoded date                             : UTC 2022-05-11 08:10:36
  268. Tagged date                              : UTC 2022-05-11 08:10:36
  269. Text #18
  270. ID                                       : 20
  271. Format                                   : Timed Text
  272. Codec ID                                 : tx3g
  273. Duration                                 : 1 h 45 min
  274. Bit rate mode                            : Variable
  275. Bit rate                                 : 84 b/s
  276. Stream size                              : 64.5 KiB (0%)
  277. Title                                    : Russian
  278. Language                                 : Russian
  279. Forced                                   : No
  280. Encoded date                             : UTC 2022-05-11 08:10:36
  281. Tagged date                              : UTC 2022-05-11 08:10:36
  282. Text #19
  283. ID                                       : 21
  284. Format                                   : Timed Text
  285. Codec ID                                 : tx3g
  286. Duration                                 : 1 h 39 min
  287. Bit rate mode                            : Variable
  288. Bit rate                                 : 54 b/s
  289. Stream size                              : 39.8 KiB (0%)
  290. Title                                    : Spanish
  291. Language                                 : Spanish
  292. Forced                                   : No
  293. Encoded date                             : UTC 2022-05-11 08:10:36
  294. Tagged date                              : UTC 2022-05-11 08:10:36
  295. Text #20
  296. ID                                       : 22
  297. Format                                   : Timed Text
  298. Codec ID                                 : tx3g
  299. Duration                                 : 1 h 39 min
  300. Bit rate mode                            : Variable
  301. Bit rate                                 : 43 b/s
  302. Stream size                              : 31.1 KiB (0%)
  303. Title                                    : Spanish-EU
  304. Language                                 : Spanish
  305. Forced                                   : No
  306. Encoded date                             : UTC 2022-05-11 08:10:36
  307. Tagged date                              : UTC 2022-05-11 08:10:36
  308. Text #21
  309. ID                                       : 23
  310. Format                                   : Timed Text
  311. Codec ID                                 : tx3g
  312. Duration                                 : 1 h 39 min
  313. Bit rate mode                            : Variable
  314. Bit rate                                 : 39 b/s
  315. Stream size                              : 28.8 KiB (0%)
  316. Title                                    : Swedish
  317. Language                                 : Swedish
  318. Forced                                   : No
  319. Encoded date                             : UTC 2022-05-11 08:10:36
  320. Tagged date                              : UTC 2022-05-11 08:10:36
  321. Text #22
  322. ID                                       : 24
  323. Format                                   : Timed Text
  324. Codec ID                                 : tx3g
  325. Duration                                 : 1 h 45 min
  326. Bit rate mode                            : Variable
  327. Bit rate                                 : 55 b/s
  328. Stream size                              : 42.4 KiB (0%)
  329. Title                                    : Turkish
  330. Language                                 : Turkish
  331. Forced                                   : No
  332. Encoded date                             : UTC 2022-05-11 08:10:36
  333. Tagged date                              : UTC 2022-05-11 08:10:36
复制代码





                                       
                                       

                                       
                                       
                                       




Double.Jeopardy.1999.2160p.WEB-DL.DD5.1.DV.MP4.x265-DVSUX.torrent (23.85 KB, 下载次数: 0)
回复

使用道具 举报

您需要登录后才可以回帖 登录 | 立即注册

本版积分规则

QQ|Archiver|手机版|小黑屋|蓝光电影网

GMT+8, 2022-5-20 00:28 , Processed in 0.056714 second(s), 28 queries .

Powered by Discuz! X3.4

Copyright © 2001-2020, Tencent Cloud.

快速回复 返回顶部 返回列表