找回密码
 立即注册

QQ登录

只需一步,快速开始

查看: 258|回复: 1

[其他] 迷失之城 The.Lost.City.2022.2160p.WEB-DL.DD5.1.DV.MKV.x265-CM 11.47GB

[复制链接]

0

精华

0

好友

2

听众

新手上路

Rank: 2

蓝光币
5
发表于 2022-5-11 07:56:39 | 显示全部楼层 |阅读模式


◎译  名 迷失之城 / 迷失D城 / Lost City of D / 失惊无神闯谜城(港) / 失落谜城(台)
◎片  名 The Lost City
◎年  代 2022
◎产  地 美国
◎类  别 喜剧 / 动作 / 冒险
◎语  言 英语
◎上映日期 2022-03-25(美国)
◎IMDb链接 https://www.imdb.com/title/tt13320622/
◎豆瓣评分 6.1/10 (774人评价)
◎豆瓣链接 https://movie.douban.com/subject/35303842/
◎片  长 112分钟
◎导  演 艾伦·尼 Aaron Nee (id:1309156)
       亚当·尼 Adam Nee (id:1010038)
◎编  剧 奥伦·尤济尔 Oren Uziel (id:1341155)
       达纳·福克斯 Dana Fox (id:1354750)
       亚当·尼 Adam Nee (id:1010038)
       艾伦·尼 Aaron Nee (id:1309156)
       赛斯·戈登 Seth Gordon (id:1245192)
◎演  员 桑德拉·布洛克 Sandra Bullock (id:1022003)
       查宁·塔图姆 Channing Tatum (id:1031224)
       丹尼尔·雷德克里夫 Daniel Radcliffe (id:1003484)
       达明·乔伊·伦道夫 Da'Vine Joy Randolph (id:1365682)
       布拉德·皮特 Brad Pitt (id:1054452)
       奥斯卡·努内斯 Oscar Nu?ez (id:1180655)
       帕蒂·哈里森 Patti Harrison (id:1450627)
       杨伯文 Bowen Yang (id:1424698)
       乔安·普林格尔 Joan Pringle (id:1135464)
       赫克托·阿尼巴尔 Héctor Aníbal (id:1469366)
       托马斯·福布斯·约翰逊 Thomas Forbes-Johnson (id:1469367)
       斯莱·刘易斯 Sli Lewis (id:1469368)
       亚当·尼 Adam Nee (id:1010038)
       雷蒙德·李 Raymond Lee (id:1363747)
       安东尼·阿尔瓦雷斯 Anthony Alvarez (id:1056415)
       马西·哈罗 Marcy Jarreau (id:1460795)
       瑞恩·贾德 Ryan Judd (id:1343709)
       莉莎·蔡辛 Liza Chasin (id:1465557)
       桑德拉·布洛克 Sandra Bullock (id:1022003)
       赛斯·戈登 Seth Gordon (id:1245192)
       玛琳·斯图尔特 Marlene Stewart (id:1051194)
◎简  介

  洛蕾塔·塞琪(桑德拉·布洛克 饰)是一位才华横溢但与世隔绝的作家。在她的畅销爱情冒险小说里,总会出现许多奇异的地方。而作为本书的封面模特,艾伦(查宁·塔图姆 饰)一生都在致力于展现书中英雄角色“达什”的个人魅力。 ” 在与艾伦一起宣传新书时,洛雷塔被一位古怪的亿万富翁(丹尼尔·雷德克里夫 饰)绑架。这位亿万富翁坚信,洛蕾塔的新书能带领他找到失落古城中的宝藏。 与此同时,艾伦为了证明自己可以成为现实中的英雄,而不仅仅是洛蕾塔虚构的人物,决定前去营救她。这对极不对付的搭档需要共同努力,才能在险恶的丛林中生存下来,并在亿万富翁赶到前找到古老的宝藏。
  1. Video
  2. ID                                       : 1
  3. Format                                   : HEVC
  4. Format/Info                              : High Efficiency Video Coding
  5. Format profile                           : Main [email protected]@High
  6. HDR format                               : Dolby Vision, Version 1.0, dvhe.05.06, BL+RPU
  7. Codec ID                                 : V_MPEGH/ISO/HEVC
  8. Duration                                 : 1 h 51 min
  9. Bit rate                                 : 14.3 Mb/s
  10. Width                                    : 3 840 pixels
  11. Height                                   : 1 608 pixels
  12. Display aspect ratio                     : 2.40:1
  13. Frame rate mode                          : Constant
  14. Frame rate                               : 23.976 (24000/1001/189150) FPS
  15. Color space                              : YUV
  16. Chroma subsampling                       : 4:2:0
  17. Bit depth                                : 10 bits
  18. Bits/(Pixel*Frame)                       : 0.097
  19. Stream size                              : 11.2 GiB (97%)
  20. Language                                 : English
  21. Default                                  : Yes
  22. Forced                                   : No
  23. Audio
  24. ID                                       : 2
  25. Format                                   : AC-3
  26. Format/Info                              : Audio Coding 3
  27. Commercial name                          : Dolby Digital
  28. Codec ID                                 : A_AC3
  29. Duration                                 : 1 h 51 min
  30. Bit rate mode                            : Constant
  31. Bit rate                                 : 384 kb/s
  32. Channel(s)                               : 6 channels
  33. Channel layout                           : L R C LFE Ls Rs
  34. Sampling rate                            : 48.0 kHz
  35. Frame rate                               : 31.250 FPS (1536 SPF)
  36. Compression mode                         : Lossy
  37. Stream size                              : 307 MiB (3%)
  38. Language                                 : English
  39. Service kind                             : Complete Main
  40. Default                                  : Yes
  41. Forced                                   : No
  42. Text #1
  43. ID                                       : 3
  44. Format                                   : UTF-8
  45. Codec ID                                 : S_TEXT/UTF8
  46. Codec ID/Info                            : UTF-8 Plain Text
  47. Duration                                 : 1 h 45 min
  48. Bit rate                                 : 87 b/s
  49. Count of elements                        : 1908
  50. Stream size                              : 67.7 KiB (0%)
  51. Title                                    : SDH
  52. Language                                 : English
  53. Default                                  : No
  54. Forced                                   : No
  55. Text #2
  56. ID                                       : 4
  57. Format                                   : UTF-8
  58. Codec ID                                 : S_TEXT/UTF8
  59. Codec ID/Info                            : UTF-8 Plain Text
  60. Duration                                 : 1 h 45 min
  61. Bit rate                                 : 82 b/s
  62. Count of elements                        : 1782
  63. Stream size                              : 63.7 KiB (0%)
  64. Language                                 : English
  65. Default                                  : No
  66. Forced                                   : No
复制代码




                                       
                                       

                                       
                                       
                                       




The.Lost.City.2022.2160p.WEB-DL.DD5.1.DV.MKV.x265-CM.torrent (14.95 KB, 下载次数: 5)
回复

使用道具 举报

0

精华

0

好友

3

听众

新手上路

Rank: 1

蓝光币
0
发表于 2022-5-20 23:02:46 | 显示全部楼层
谢谢分享!!!!!!!!
回复

使用道具 举报

您需要登录后才可以回帖 登录 | 立即注册

本版积分规则

QQ|Archiver|手机版|小黑屋|蓝光电影网

GMT+8, 2022-12-7 21:38 , Processed in 0.092059 second(s), 34 queries .

Powered by Discuz! X3.4

Copyright © 2001-2020, Tencent Cloud.

快速回复 返回顶部 返回列表