找回密码
 立即注册

QQ登录

只需一步,快速开始

查看: 31|回复: 0

[其他] 迷失之城 The.Lost.City.2022.2160p.AMZN.WEB-DL.x265.10bit.HDR10Plus.DDP5.1.Atmos-NAISU 11.37GB

[复制链接]

0

精华

0

好友

2

听众

新手上路

Rank: 2

蓝光币
5
发表于 2022-5-11 07:56:12 | 显示全部楼层 |阅读模式


◎译  名 迷失之城 / 迷失D城 / Lost City of D / 失惊无神闯谜城(港) / 失落谜城(台)
◎片  名 The Lost City
◎年  代 2022
◎产  地 美国
◎类  别 喜剧 / 动作 / 冒险
◎语  言 英语
◎上映日期 2022-03-25(美国)
◎IMDb链接 https://www.imdb.com/title/tt13320622/
◎豆瓣评分 6.1/10 (774人评价)
◎豆瓣链接 https://movie.douban.com/subject/35303842/
◎片  长 112分钟
◎导  演 艾伦·尼 Aaron Nee (id:1309156)
       亚当·尼 Adam Nee (id:1010038)
◎编  剧 奥伦·尤济尔 Oren Uziel (id:1341155)
       达纳·福克斯 Dana Fox (id:1354750)
       亚当·尼 Adam Nee (id:1010038)
       艾伦·尼 Aaron Nee (id:1309156)
       赛斯·戈登 Seth Gordon (id:1245192)
◎演  员 桑德拉·布洛克 Sandra Bullock (id:1022003)
       查宁·塔图姆 Channing Tatum (id:1031224)
       丹尼尔·雷德克里夫 Daniel Radcliffe (id:1003484)
       达明·乔伊·伦道夫 Da'Vine Joy Randolph (id:1365682)
       布拉德·皮特 Brad Pitt (id:1054452)
       奥斯卡·努内斯 Oscar Nu?ez (id:1180655)
       帕蒂·哈里森 Patti Harrison (id:1450627)
       杨伯文 Bowen Yang (id:1424698)
       乔安·普林格尔 Joan Pringle (id:1135464)
       赫克托·阿尼巴尔 Héctor Aníbal (id:1469366)
       托马斯·福布斯·约翰逊 Thomas Forbes-Johnson (id:1469367)
       斯莱·刘易斯 Sli Lewis (id:1469368)
       亚当·尼 Adam Nee (id:1010038)
       雷蒙德·李 Raymond Lee (id:1363747)
       安东尼·阿尔瓦雷斯 Anthony Alvarez (id:1056415)
       马西·哈罗 Marcy Jarreau (id:1460795)
       瑞恩·贾德 Ryan Judd (id:1343709)
       莉莎·蔡辛 Liza Chasin (id:1465557)
       桑德拉·布洛克 Sandra Bullock (id:1022003)
       赛斯·戈登 Seth Gordon (id:1245192)
       玛琳·斯图尔特 Marlene Stewart (id:1051194)
◎简  介

  洛蕾塔·塞琪(桑德拉·布洛克 饰)是一位才华横溢但与世隔绝的作家。在她的畅销爱情冒险小说里,总会出现许多奇异的地方。而作为本书的封面模特,艾伦(查宁·塔图姆 饰)一生都在致力于展现书中英雄角色“达什”的个人魅力。 ” 在与艾伦一起宣传新书时,洛雷塔被一位古怪的亿万富翁(丹尼尔·雷德克里夫 饰)绑架。这位亿万富翁坚信,洛蕾塔的新书能带领他找到失落古城中的宝藏。 与此同时,艾伦为了证明自己可以成为现实中的英雄,而不仅仅是洛蕾塔虚构的人物,决定前去营救她。这对极不对付的搭档需要共同努力,才能在险恶的丛林中生存下来,并在亿万富翁赶到前找到古老的宝藏。
  1. Video
  2. ID                                       : 1
  3. Format                                   : HEVC
  4. Format/Info                              : High Efficiency Video Coding
  5. Format profile                           : Main [email protected]@Main
  6. HDR format                               : SMPTE ST 2094 App 4, Version 1, HDR10+ Profile B compatible
  7. Codec ID                                 : V_MPEGH/ISO/HEVC
  8. Duration                                 : 1 h 51 min
  9. Bit rate                                 : 13.5 Mb/s
  10. Width                                    : 3 840 pixels
  11. Height                                   : 2 160 pixels
  12. Display aspect ratio                     : 16:9
  13. Frame rate mode                          : Constant
  14. Frame rate                               : 23.976 (24000/1001/189150) FPS
  15. Color space                              : YUV
  16. Chroma subsampling                       : 4:2:0 (Type 2)
  17. Bit depth                                : 10 bits
  18. Bits/(Pixel*Frame)                       : 0.068
  19. Stream size                              : 10.5 GiB (93%)
  20. Default                                  : Yes
  21. Forced                                   : No
  22. Color range                              : Limited
  23. Color primaries                          : BT.2020
  24. Transfer characteristics                 : PQ
  25. Matrix coefficients                      : BT.2020 non-constant
  26. Mastering display color primaries        : Display P3
  27. Mastering display luminance              : min: 0.0001 cd/m2, max: 1000 cd/m2

  28. Audio
  29. ID                                       : 2
  30. Format                                   : E-AC-3 JOC
  31. Format/Info                              : Enhanced AC-3 with Joint Object Coding
  32. Commercial name                          : Dolby Digital Plus with Dolby Atmos
  33. Codec ID                                 : A_EAC3
  34. Duration                                 : 1 h 51 min
  35. Bit rate mode                            : Constant
  36. Bit rate                                 : 768 kb/s
  37. Channel(s)                               : 6 channels
  38. Channel layout                           : L R C LFE Ls Rs
  39. Sampling rate                            : 48.0 kHz
  40. Frame rate                               : 31.250 FPS (1536 SPF)
  41. Compression mode                         : Lossy
  42. Stream size                              : 614 MiB (5%)
  43. Language                                 : English
  44. Service kind                             : Complete Main
  45. Default                                  : Yes
  46. Forced                                   : No
  47. Complexity index                         : 16
  48. Number of dynamic objects                : 15
  49. Bed channel count                        : 1 channel
  50. Bed channel configuration                : LFE

  51. Text #1
  52. ID                                       : 3
  53. Format                                   : UTF-8
  54. Codec ID                                 : S_TEXT/UTF8
  55. Codec ID/Info                            : UTF-8 Plain Text
  56. Title                                    : English
  57. Language                                 : English
  58. Default                                  : No
  59. Forced                                   : No

  60. Text #2
  61. ID                                       : 4
  62. Format                                   : UTF-8
  63. Codec ID                                 : S_TEXT/UTF8
  64. Codec ID/Info                            : UTF-8 Plain Text
  65. Title                                    : English [SDH]
  66. Language                                 : English
  67. Default                                  : No
  68. Forced                                   : No
复制代码




                                       
                                       

                                       
                                       
                                       




The.Lost.City.2022.2160p.AMZN.WEB-DL.x265.10bit.HDR10Plus.DDP5.1.Atmos-NAISU.torrent (14.92 KB, 下载次数: 0)
回复

使用道具 举报

您需要登录后才可以回帖 登录 | 立即注册

本版积分规则

QQ|Archiver|手机版|小黑屋|蓝光电影网

GMT+8, 2022-5-19 22:30 , Processed in 0.053745 second(s), 28 queries .

Powered by Discuz! X3.4

Copyright © 2001-2020, Tencent Cloud.

快速回复 返回顶部 返回列表