找回密码
 立即注册

QQ登录

只需一步,快速开始

查看: 33|回复: 0

[其他] 迷失之城 The.Lost.City.2022.2160p.WEB-DL.DDP5.1.Atmos.DV.MP4.x265-DVSUX 11.77GB

[复制链接]

0

精华

0

好友

2

听众

新手上路

Rank: 2

蓝光币
5
发表于 2022-5-11 07:55:50 | 显示全部楼层 |阅读模式


◎译  名 迷失之城 / 迷失D城 / Lost City of D / 失惊无神闯谜城(港) / 失落谜城(台)
◎片  名 The Lost City
◎年  代 2022
◎产  地 美国
◎类  别 喜剧 / 动作 / 冒险
◎语  言 英语
◎上映日期 2022-03-25(美国)
◎IMDb链接 https://www.imdb.com/title/tt13320622/
◎豆瓣评分 6.1/10 (774人评价)
◎豆瓣链接 https://movie.douban.com/subject/35303842/
◎片  长 112分钟
◎导  演 艾伦·尼 Aaron Nee (id:1309156)
       亚当·尼 Adam Nee (id:1010038)
◎编  剧 奥伦·尤济尔 Oren Uziel (id:1341155)
       达纳·福克斯 Dana Fox (id:1354750)
       亚当·尼 Adam Nee (id:1010038)
       艾伦·尼 Aaron Nee (id:1309156)
       赛斯·戈登 Seth Gordon (id:1245192)
◎演  员 桑德拉·布洛克 Sandra Bullock (id:1022003)
       查宁·塔图姆 Channing Tatum (id:1031224)
       丹尼尔·雷德克里夫 Daniel Radcliffe (id:1003484)
       达明·乔伊·伦道夫 Da'Vine Joy Randolph (id:1365682)
       布拉德·皮特 Brad Pitt (id:1054452)
       奥斯卡·努内斯 Oscar Nu?ez (id:1180655)
       帕蒂·哈里森 Patti Harrison (id:1450627)
       杨伯文 Bowen Yang (id:1424698)
       乔安·普林格尔 Joan Pringle (id:1135464)
       赫克托·阿尼巴尔 Héctor Aníbal (id:1469366)
       托马斯·福布斯·约翰逊 Thomas Forbes-Johnson (id:1469367)
       斯莱·刘易斯 Sli Lewis (id:1469368)
       亚当·尼 Adam Nee (id:1010038)
       雷蒙德·李 Raymond Lee (id:1363747)
       安东尼·阿尔瓦雷斯 Anthony Alvarez (id:1056415)
       马西·哈罗 Marcy Jarreau (id:1460795)
       瑞恩·贾德 Ryan Judd (id:1343709)
       莉莎·蔡辛 Liza Chasin (id:1465557)
       桑德拉·布洛克 Sandra Bullock (id:1022003)
       赛斯·戈登 Seth Gordon (id:1245192)
       玛琳·斯图尔特 Marlene Stewart (id:1051194)
◎简  介

  洛蕾塔·塞琪(桑德拉·布洛克 饰)是一位才华横溢但与世隔绝的作家。在她的畅销爱情冒险小说里,总会出现许多奇异的地方。而作为本书的封面模特,艾伦(查宁·塔图姆 饰)一生都在致力于展现书中英雄角色“达什”的个人魅力。 ” 在与艾伦一起宣传新书时,洛雷塔被一位古怪的亿万富翁(丹尼尔·雷德克里夫 饰)绑架。这位亿万富翁坚信,洛蕾塔的新书能带领他找到失落古城中的宝藏。 与此同时,艾伦为了证明自己可以成为现实中的英雄,而不仅仅是洛蕾塔虚构的人物,决定前去营救她。这对极不对付的搭档需要共同努力,才能在险恶的丛林中生存下来,并在亿万富翁赶到前找到古老的宝藏。
  1. Video
  2. ID                                       : 1
  3. Format                                   : HEVC
  4. Format/Info                              : High Efficiency Video Coding
  5. Format profile                           : Main [email protected]@High
  6. HDR format                               : Dolby Vision, Version 1.0, dvhe.05.06, BL+RPU
  7. Codec ID                                 : dvhe
  8. Codec ID/Info                            : High Efficiency Video Coding with Dolby Vision
  9. Duration                                 : 1 h 51 min
  10. Bit rate                                 : 14.3 Mb/s
  11. Width                                    : 3 840 pixels
  12. Height                                   : 1 608 pixels
  13. Display aspect ratio                     : 2.40:1
  14. Frame rate mode                          : Constant
  15. Frame rate                               : 23.976 (24000/1001/189150) FPS
  16. Color space                              : YUV
  17. Chroma subsampling                       : 4:2:0
  18. Bit depth                                : 10 bits
  19. Bits/(Pixel*Frame)                       : 0.097
  20. Stream size                              : 11.2 GiB (95%)
  21. Default                                  : Yes
  22. Alternate group                          : 1
  23. Encoded date                             : UTC 2022-05-10 06:44:46
  24. Tagged date                              : UTC 2022-05-10 06:48:30
  25. Codec configuration box                  : hvcC+dvcC
  26. Audio
  27. ID                                       : 2
  28. Format                                   : E-AC-3 JOC
  29. Format/Info                              : Enhanced AC-3 with Joint Object Coding
  30. Commercial name                          : Dolby Digital Plus with Dolby Atmos
  31. Codec ID                                 : ec-3
  32. Duration                                 : 1 h 51 min
  33. Bit rate mode                            : Constant
  34. Bit rate                                 : 768 kb/s
  35. Maximum bit rate                         : 811 kb/s
  36. Channel(s)                               : 6 channels
  37. Channel layout                           : L R C LFE Ls Rs
  38. Sampling rate                            : 48.0 kHz
  39. Frame rate                               : 31.250 FPS (1536 SPF)
  40. Compression mode                         : Lossy
  41. Stream size                              : 614 MiB (5%)
  42. Title                                    : English
  43. Language                                 : English
  44. Service kind                             : Complete Main
  45. Default                                  : Yes
  46. Alternate group                          : 1
  47. Tagged date                              : UTC 2022-05-10 06:48:30
  48. Complexity index                         : Not present / 16
  49. Number of dynamic objects                : 15
  50. Bed channel count                        : 1 channel
  51. Bed channel configuration                : LFE
  52. Text #1
  53. ID                                       : 3
  54. Format                                   : Timed Text
  55. Codec ID                                 : tx3g
  56. Duration                                 : 1 h 45 min
  57. Bit rate mode                            : Variable
  58. Bit rate                                 : 92 b/s
  59. Stream size                              : 71.7 KiB (0%)
  60. Title                                    : English
  61. Language                                 : English
  62. Forced                                   : No
  63. Encoded date                             : UTC 2022-05-10 06:48:30
  64. Tagged date                              : UTC 2022-05-10 06:48:30
  65. Text #2
  66. ID                                       : 4
  67. Format                                   : Timed Text
  68. Codec ID                                 : tx3g
  69. Duration                                 : 1 h 45 min
  70. Bit rate mode                            : Variable
  71. Bit rate                                 : 98 b/s
  72. Stream size                              : 76.0 KiB (0%)
  73. Title                                    : English
  74. Language                                 : English
  75. Forced                                   : No
  76. Encoded date                             : UTC 2022-05-10 06:48:30
  77. Tagged date                              : UTC 2022-05-10 06:48:30
复制代码






                                       
                                       

                                       
                                       
                                       




The.Lost.City.2022.2160p.WEB-DL.DDP5.1.Atmos.DV.MP4.x265-DVSUX.torrent (15.37 KB, 下载次数: 1)
回复

使用道具 举报

您需要登录后才可以回帖 登录 | 立即注册

本版积分规则

QQ|Archiver|手机版|小黑屋|蓝光电影网

GMT+8, 2022-5-19 23:40 , Processed in 0.081209 second(s), 28 queries .

Powered by Discuz! X3.4

Copyright © 2001-2020, Tencent Cloud.

快速回复 返回顶部 返回列表