找回密码
 立即注册

QQ登录

只需一步,快速开始

查看: 47|回复: 0

[其他] 天空中的露西 Lucy.in.the.Sky.2019.2160p.WEB-DL.DDP5.1.DV.MP4.x265-DVSUX 14.60GB

[复制链接]

0

精华

0

好友

2

听众

新手上路

Rank: 2

蓝光币
5
发表于 2022-5-10 08:03:12 | 显示全部楼层 |阅读模式
[img][/img]

◎标  题 天空中的露西
◎译  名 露西上太空(台) / 淡蓝色圆点 / Pale Blue Dot
◎片  名 Lucy in the Sky
◎年  代 2019
◎产  地 美国
◎类  别 剧情 / 科幻
◎语  言 英语
◎上映日期 2019-09-11(多伦多电影节) / 2019-10-04(美国)
◎IMDb评分 4.9/10 (7108人评价)
◎IMDb链接 https://www.imdb.com/title/tt4682804/
◎豆瓣评分 5.7/10 (1014人评价)
◎豆瓣链接 https://movie.douban.com/subject/25826020/
◎片  长 124分钟
◎导  演 诺亚·霍利 Noah Hawley
◎编  剧 Brian C. Brown Brian C. Brown
       Elliott DiGuiseppi Elliott DiGuiseppi
       诺亚·霍利 Noah Hawley
◎演  员 娜塔莉·波特曼 Natalie Portman
       乔恩·哈姆 Jon Hamm
       丹·史蒂文斯 Dan Stevens
       莎姬·贝兹 Zazie Beetz
       艾伦·伯斯汀 Ellen Burstyn
       科尔曼·多明戈 Colman Domingo
       尼克·奥弗曼 Nick Offerman
       泰格·诺塔洛 Tig Notaro
       克里斯托弗·达尔加 Christopher Darga
       乔·威廉森 Joe Williamson
       阿尔洛·默茨 Arlo Mertz
       肯特·绍克内克 Kent Shocknek
       尼克·科尼特 Nic Cornett
       爱德华多·莱斯卡诺 Eduardo Lezcano
       波莉·摩根 Polly Morgan
◎标  签 科幻 / 美国 / 2019 / 女性 / 剧情 / 太空 / 心理 / 真实事件改编
◎简  介

  影片讲述娜塔莉·波特曼饰演的女宇航员从太空中完成任务返回地球后,逐渐偏离原生活轨迹,现实感逐渐消失的故事。
  1. Video
  2. ID                                       : 1
  3. Format                                   : HEVC
  4. Format/Info                              : High Efficiency Video Coding
  5. Format profile                           : Main [email protected]@High
  6. HDR format                               : Dolby Vision, Version 1.0, dvhe.05.06, BL+RPU
  7. Codec ID                                 : dvhe
  8. Codec ID/Info                            : High Efficiency Video Coding with Dolby Vision
  9. Duration                                 : 2 h 4 min
  10. Bit rate                                 : 16.5 Mb/s
  11. Width                                    : 3 840 pixels
  12. Height                                   : 2 160 pixels
  13. Display aspect ratio                     : 16:9
  14. Frame rate mode                          : Constant
  15. Frame rate                               : 23.976 (24000/1001/189150) FPS
  16. Color space                              : YUV
  17. Chroma subsampling                       : 4:2:0
  18. Bit depth                                : 10 bits
  19. Bits/(Pixel*Frame)                       : 0.083
  20. Stream size                              : 14.4 GiB (98%)
  21. Default                                  : Yes
  22. Alternate group                          : 1
  23. Encoded date                             : UTC 2022-05-09 09:42:41
  24. Tagged date                              : UTC 2022-05-09 09:47:22
  25. Color range                              : Full
  26. Codec configuration box                  : hvcC+dvcC
  27. Audio
  28. ID                                       : 2
  29. Format                                   : E-AC-3
  30. Format/Info                              : Enhanced AC-3
  31. Commercial name                          : Dolby Digital Plus
  32. Codec ID                                 : ec-3
  33. Duration                                 : 2 h 4 min
  34. Bit rate mode                            : Constant
  35. Bit rate                                 : 256 kb/s
  36. Maximum bit rate                         : 270 kb/s
  37. Channel(s)                               : 6 channels
  38. Channel layout                           : L R C LFE Ls Rs
  39. Sampling rate                            : 48.0 kHz
  40. Frame rate                               : 31.250 FPS (1536 SPF)
  41. Compression mode                         : Lossy
  42. Stream size                              : 229 MiB (2%)
  43. Title                                    : English
  44. Language                                 : English
  45. Service kind                             : Complete Main
  46. Default                                  : Yes
  47. Alternate group                          : 1
  48. Tagged date                              : UTC 2022-05-09 09:47:22
  49. Text #1
  50. ID                                       : 3
  51. Format                                   : Timed Text
  52. Codec ID                                 : tx3g
  53. Duration                                 : 2 h 9 min
  54. Bit rate mode                            : Variable
  55. Bit rate                                 : 67 b/s
  56. Stream size                              : 63.4 KiB (0%)
  57. Title                                    : English
  58. Language                                 : English
  59. Forced                                   : No
  60. Encoded date                             : UTC 2022-05-09 09:47:19
  61. Tagged date                              : UTC 2022-05-09 09:47:22
  62. Text #2
  63. ID                                       : 4
  64. Format                                   : Timed Text
  65. Codec ID                                 : tx3g
  66. Duration                                 : 2 h 9 min
  67. Bit rate mode                            : Variable
  68. Bit rate                                 : 40 b/s
  69. Stream size                              : 38.2 KiB (0%)
  70. Title                                    : Chinese-Cantonese
  71. Language                                 : Chinese
  72. Forced                                   : No
  73. Encoded date                             : UTC 2022-05-09 09:47:19
  74. Tagged date                              : UTC 2022-05-09 09:47:22
  75. Text #3
  76. ID                                       : 5
  77. Format                                   : Timed Text
  78. Codec ID                                 : tx3g
  79. Duration                                 : 2 h 9 min
  80. Bit rate mode                            : Variable
  81. Bit rate                                 : 46 b/s
  82. Stream size                              : 43.7 KiB (0%)
  83. Title                                    : Chinese-Simplified
  84. Language                                 : Chinese
  85. Forced                                   : No
  86. Encoded date                             : UTC 2022-05-09 09:47:19
  87. Tagged date                              : UTC 2022-05-09 09:47:22
  88. Text #4
  89. ID                                       : 6
  90. Format                                   : Timed Text
  91. Codec ID                                 : tx3g
  92. Duration                                 : 2 h 9 min
  93. Bit rate mode                            : Variable
  94. Bit rate                                 : 50 b/s
  95. Stream size                              : 47.4 KiB (0%)
  96. Title                                    : Czech
  97. Language                                 : Czech
  98. Forced                                   : No
  99. Encoded date                             : UTC 2022-05-09 09:47:20
  100. Tagged date                              : UTC 2022-05-09 09:47:22
  101. Text #5
  102. ID                                       : 7
  103. Format                                   : Timed Text
  104. Codec ID                                 : tx3g
  105. Duration                                 : 2 h 9 min
  106. Bit rate mode                            : Variable
  107. Bit rate                                 : 52 b/s
  108. Stream size                              : 48.9 KiB (0%)
  109. Title                                    : Danish
  110. Language                                 : Danish
  111. Forced                                   : No
  112. Encoded date                             : UTC 2022-05-09 09:47:20
  113. Tagged date                              : UTC 2022-05-09 09:47:22
  114. Text #6
  115. ID                                       : 8
  116. Format                                   : Timed Text
  117. Codec ID                                 : tx3g
  118. Duration                                 : 2 h 9 min
  119. Bit rate mode                            : Variable
  120. Bit rate                                 : 39 b/s
  121. Stream size                              : 37.4 KiB (0%)
  122. Title                                    : Dutch
  123. Language                                 : Dutch
  124. Forced                                   : No
  125. Encoded date                             : UTC 2022-05-09 09:47:20
  126. Tagged date                              : UTC 2022-05-09 09:47:22
  127. Text #7
  128. ID                                       : 9
  129. Format                                   : Timed Text
  130. Codec ID                                 : tx3g
  131. Duration                                 : 2 h 9 min
  132. Bit rate mode                            : Variable
  133. Bit rate                                 : 49 b/s
  134. Stream size                              : 46.3 KiB (0%)
  135. Title                                    : Finnish
  136. Language                                 : Finnish
  137. Forced                                   : No
  138. Encoded date                             : UTC 2022-05-09 09:47:20
  139. Tagged date                              : UTC 2022-05-09 09:47:22
  140. Text #8
  141. ID                                       : 10
  142. Format                                   : Timed Text
  143. Codec ID                                 : tx3g
  144. Duration                                 : 2 h 9 min
  145. Bit rate mode                            : Variable
  146. Bit rate                                 : 50 b/s
  147. Stream size                              : 47.7 KiB (0%)
  148. Title                                    : French
  149. Language                                 : French
  150. Forced                                   : No
  151. Encoded date                             : UTC 2022-05-09 09:47:20
  152. Tagged date                              : UTC 2022-05-09 09:47:22
  153. Text #9
  154. ID                                       : 11
  155. Format                                   : Timed Text
  156. Codec ID                                 : tx3g
  157. Duration                                 : 2 h 9 min
  158. Bit rate mode                            : Variable
  159. Bit rate                                 : 57 b/s
  160. Stream size                              : 54.1 KiB (0%)
  161. Title                                    : French-CA
  162. Language                                 : French
  163. Forced                                   : No
  164. Encoded date                             : UTC 2022-05-09 09:47:20
  165. Tagged date                              : UTC 2022-05-09 09:47:22
  166. Text #10
  167. ID                                       : 12
  168. Format                                   : Timed Text
  169. Codec ID                                 : tx3g
  170. Duration                                 : 2 h 9 min
  171. Bit rate mode                            : Variable
  172. Bit rate                                 : 50 b/s
  173. Stream size                              : 47.9 KiB (0%)
  174. Title                                    : German
  175. Language                                 : German
  176. Forced                                   : No
  177. Encoded date                             : UTC 2022-05-09 09:47:20
  178. Tagged date                              : UTC 2022-05-09 09:47:22
  179. Text #11
  180. ID                                       : 13
  181. Format                                   : Timed Text
  182. Codec ID                                 : tx3g
  183. Duration                                 : 2 h 9 min
  184. Bit rate mode                            : Variable
  185. Bit rate                                 : 50 b/s
  186. Stream size                              : 47.3 KiB (0%)
  187. Title                                    : Hungarian
  188. Language                                 : Hungarian
  189. Forced                                   : No
  190. Encoded date                             : UTC 2022-05-09 09:47:20
  191. Tagged date                              : UTC 2022-05-09 09:47:22
  192. Text #12
  193. ID                                       : 14
  194. Format                                   : Timed Text
  195. Codec ID                                 : tx3g
  196. Duration                                 : 2 h 9 min
  197. Bit rate mode                            : Variable
  198. Bit rate                                 : 58 b/s
  199. Stream size                              : 55.1 KiB (0%)
  200. Title                                    : Icelandic
  201. Language                                 : Icelandic
  202. Forced                                   : No
  203. Encoded date                             : UTC 2022-05-09 09:47:20
  204. Tagged date                              : UTC 2022-05-09 09:47:22
  205. Text #13
  206. ID                                       : 15
  207. Format                                   : Timed Text
  208. Codec ID                                 : tx3g
  209. Duration                                 : 2 h 9 min
  210. Bit rate mode                            : Variable
  211. Bit rate                                 : 51 b/s
  212. Stream size                              : 48.8 KiB (0%)
  213. Title                                    : Italian
  214. Language                                 : Italian
  215. Forced                                   : No
  216. Encoded date                             : UTC 2022-05-09 09:47:20
  217. Tagged date                              : UTC 2022-05-09 09:47:22
  218. Text #14
  219. ID                                       : 16
  220. Format                                   : Timed Text
  221. Codec ID                                 : tx3g
  222. Duration                                 : 2 h 9 min
  223. Bit rate mode                            : Variable
  224. Bit rate                                 : 50 b/s
  225. Stream size                              : 47.4 KiB (0%)
  226. Title                                    : Japanese
  227. Language                                 : Japanese
  228. Forced                                   : No
  229. Encoded date                             : UTC 2022-05-09 09:47:20
  230. Tagged date                              : UTC 2022-05-09 09:47:22
  231. Text #15
  232. ID                                       : 17
  233. Format                                   : Timed Text
  234. Codec ID                                 : tx3g
  235. Duration                                 : 2 h 9 min
  236. Bit rate mode                            : Variable
  237. Bit rate                                 : 45 b/s
  238. Stream size                              : 43.1 KiB (0%)
  239. Title                                    : Korean
  240. Language                                 : Korean
  241. Forced                                   : No
  242. Encoded date                             : UTC 2022-05-09 09:47:21
  243. Tagged date                              : UTC 2022-05-09 09:47:22
  244. Text #16
  245. ID                                       : 18
  246. Format                                   : Timed Text
  247. Codec ID                                 : tx3g
  248. Duration                                 : 2 h 9 min
  249. Bit rate mode                            : Variable
  250. Bit rate                                 : 49 b/s
  251. Stream size                              : 46.2 KiB (0%)
  252. Title                                    : Norwegian
  253. Language                                 : Norwegian
  254. Forced                                   : No
  255. Encoded date                             : UTC 2022-05-09 09:47:21
  256. Tagged date                              : UTC 2022-05-09 09:47:22
  257. Text #17
  258. ID                                       : 19
  259. Format                                   : Timed Text
  260. Codec ID                                 : tx3g
  261. Duration                                 : 2 h 9 min
  262. Bit rate mode                            : Variable
  263. Bit rate                                 : 49 b/s
  264. Stream size                              : 46.3 KiB (0%)
  265. Title                                    : Polish
  266. Language                                 : Polish
  267. Forced                                   : No
  268. Encoded date                             : UTC 2022-05-09 09:47:21
  269. Tagged date                              : UTC 2022-05-09 09:47:22
  270. Text #18
  271. ID                                       : 20
  272. Format                                   : Timed Text
  273. Codec ID                                 : tx3g
  274. Duration                                 : 2 h 9 min
  275. Bit rate mode                            : Variable
  276. Bit rate                                 : 54 b/s
  277. Stream size                              : 51.4 KiB (0%)
  278. Title                                    : Portuguese
  279. Language                                 : Portuguese
  280. Forced                                   : No
  281. Encoded date                             : UTC 2022-05-09 09:47:21
  282. Tagged date                              : UTC 2022-05-09 09:47:22
  283. Text #19
  284. ID                                       : 21
  285. Format                                   : Timed Text
  286. Codec ID                                 : tx3g
  287. Duration                                 : 2 h 9 min
  288. Bit rate mode                            : Variable
  289. Bit rate                                 : 53 b/s
  290. Stream size                              : 50.7 KiB (0%)
  291. Title                                    : Portuguese-BR
  292. Language                                 : Portuguese
  293. Forced                                   : No
  294. Encoded date                             : UTC 2022-05-09 09:47:21
  295. Tagged date                              : UTC 2022-05-09 09:47:22
  296. Text #20
  297. ID                                       : 22
  298. Format                                   : Timed Text
  299. Codec ID                                 : tx3g
  300. Duration                                 : 2 h 9 min
  301. Bit rate mode                            : Variable
  302. Bit rate                                 : 53 b/s
  303. Stream size                              : 50.1 KiB (0%)
  304. Title                                    : Romanian
  305. Language                                 : Romanian
  306. Forced                                   : No
  307. Encoded date                             : UTC 2022-05-09 09:47:21
  308. Tagged date                              : UTC 2022-05-09 09:47:22
  309. Text #21
  310. ID                                       : 23
  311. Format                                   : Timed Text
  312. Codec ID                                 : tx3g
  313. Duration                                 : 2 h 9 min
  314. Bit rate mode                            : Variable
  315. Bit rate                                 : 52 b/s
  316. Stream size                              : 49.1 KiB (0%)
  317. Title                                    : Slovak
  318. Language                                 : Slovak
  319. Forced                                   : No
  320. Encoded date                             : UTC 2022-05-09 09:47:21
  321. Tagged date                              : UTC 2022-05-09 09:47:22
  322. Text #22
  323. ID                                       : 24
  324. Format                                   : Timed Text
  325. Codec ID                                 : tx3g
  326. Duration                                 : 2 h 9 min
  327. Bit rate mode                            : Variable
  328. Bit rate                                 : 52 b/s
  329. Stream size                              : 49.1 KiB (0%)
  330. Title                                    : Spanish
  331. Language                                 : Spanish
  332. Forced                                   : No
  333. Encoded date                             : UTC 2022-05-09 09:47:21
  334. Tagged date                              : UTC 2022-05-09 09:47:22
  335. Text #23
  336. ID                                       : 25
  337. Format                                   : Timed Text
  338. Codec ID                                 : tx3g
  339. Duration                                 : 2 h 9 min
  340. Bit rate mode                            : Variable
  341. Bit rate                                 : 55 b/s
  342. Stream size                              : 52.2 KiB (0%)
  343. Title                                    : Spanish-EU
  344. Language                                 : Spanish
  345. Forced                                   : No
  346. Encoded date                             : UTC 2022-05-09 09:47:21
  347. Tagged date                              : UTC 2022-05-09 09:47:22
  348. Text #24
  349. ID                                       : 26
  350. Format                                   : Timed Text
  351. Codec ID                                 : tx3g
  352. Duration                                 : 2 h 9 min
  353. Bit rate mode                            : Variable
  354. Bit rate                                 : 51 b/s
  355. Stream size                              : 48.6 KiB (0%)
  356. Title                                    : Swedish
  357. Language                                 : Swedish
  358. Forced                                   : No
  359. Encoded date                             : UTC 2022-05-09 09:47:21
  360. Tagged date                              : UTC 2022-05-09 09:47:22
  361. Text #25
  362. ID                                       : 27
  363. Format                                   : Timed Text
  364. Codec ID                                 : tx3g
  365. Duration                                 : 2 h 9 min
  366. Bit rate mode                            : Variable
  367. Bit rate                                 : 53 b/s
  368. Stream size                              : 50.6 KiB (0%)
  369. Title                                    : Turkish
  370. Language                                 : Turkish
  371. Forced                                   : No
  372. Encoded date                             : UTC 2022-05-09 09:47:21
  373. Tagged date                              : UTC 2022-05-09 09:47:22
复制代码




                                       
                                       

                                       
                                       
                                       




Lucy.in.the.Sky.2019.2160p.WEB-DL.DDP5.1.DV.MP4.x265-DVSUX.torrent (18.9 KB, 下载次数: 1)
回复

使用道具 举报

您需要登录后才可以回帖 登录 | 立即注册

本版积分规则

QQ|Archiver|手机版|小黑屋|蓝光电影网

GMT+8, 2022-5-20 00:21 , Processed in 0.055553 second(s), 26 queries .

Powered by Discuz! X3.4

Copyright © 2001-2020, Tencent Cloud.

快速回复 返回顶部 返回列表