找回密码
 立即注册

QQ登录

只需一步,快速开始

查看: 25|回复: 0

[其他] 天空中的露西 Lucy.in.the.Sky.2019.2160p.WEB-DL.x265.10bit.HDR.DDP5.1-RVKD 14.25GB

[复制链接]

0

精华

0

好友

2

听众

新手上路

Rank: 2

蓝光币
5
发表于 2022-5-10 08:02:56 | 显示全部楼层 |阅读模式
[img][/img]

◎标  题 天空中的露西
◎译  名 露西上太空(台) / 淡蓝色圆点 / Pale Blue Dot
◎片  名 Lucy in the Sky
◎年  代 2019
◎产  地 美国
◎类  别 剧情 / 科幻
◎语  言 英语
◎上映日期 2019-09-11(多伦多电影节) / 2019-10-04(美国)
◎IMDb评分 4.9/10 (7108人评价)
◎IMDb链接 https://www.imdb.com/title/tt4682804/
◎豆瓣评分 5.7/10 (1014人评价)
◎豆瓣链接 https://movie.douban.com/subject/25826020/
◎片  长 124分钟
◎导  演 诺亚·霍利 Noah Hawley
◎编  剧 Brian C. Brown Brian C. Brown
       Elliott DiGuiseppi Elliott DiGuiseppi
       诺亚·霍利 Noah Hawley
◎演  员 娜塔莉·波特曼 Natalie Portman
       乔恩·哈姆 Jon Hamm
       丹·史蒂文斯 Dan Stevens
       莎姬·贝兹 Zazie Beetz
       艾伦·伯斯汀 Ellen Burstyn
       科尔曼·多明戈 Colman Domingo
       尼克·奥弗曼 Nick Offerman
       泰格·诺塔洛 Tig Notaro
       克里斯托弗·达尔加 Christopher Darga
       乔·威廉森 Joe Williamson
       阿尔洛·默茨 Arlo Mertz
       肯特·绍克内克 Kent Shocknek
       尼克·科尼特 Nic Cornett
       爱德华多·莱斯卡诺 Eduardo Lezcano
       波莉·摩根 Polly Morgan
◎标  签 科幻 / 美国 / 2019 / 女性 / 剧情 / 太空 / 心理 / 真实事件改编
◎简  介

  影片讲述娜塔莉·波特曼饰演的女宇航员从太空中完成任务返回地球后,逐渐偏离原生活轨迹,现实感逐渐消失的故事。
  1. Video
  2. ID                                       : 1
  3. Format                                   : HEVC
  4. Format/Info                              : High Efficiency Video Coding
  5. Format profile                           : Main [email protected]@High
  6. HDR format                               : SMPTE ST 2086, HDR10 compatible
  7. Codec ID                                 : V_MPEGH/ISO/HEVC
  8. Duration                                 : 2 h 4 min
  9. Bit rate                                 : 16.1 Mb/s
  10. Width                                    : 3 840 pixels
  11. Height                                   : 2 160 pixels
  12. Display aspect ratio                     : 16:9
  13. Frame rate mode                          : Constant
  14. Frame rate                               : 23.976 (24000/1001/189150) FPS
  15. Color space                              : YUV
  16. Chroma subsampling                       : 4:2:0
  17. Bit depth                                : 10 bits
  18. Bits/(Pixel*Frame)                       : 0.081
  19. Stream size                              : 14.0 GiB (98%)
  20. Language                                 : English
  21. Default                                  : Yes
  22. Forced                                   : No
  23. Color range                              : Limited
  24. Color primaries                          : BT.2020
  25. Transfer characteristics                 : PQ
  26. Matrix coefficients                      : BT.2020 non-constant
  27. Mastering display color primaries        : Display P3
  28. Mastering display luminance              : min: 0.0050 cd/m2, max: 1000 cd/m2
  29. Audio
  30. ID                                       : 2
  31. Format                                   : E-AC-3
  32. Format/Info                              : Enhanced AC-3
  33. Commercial name                          : Dolby Digital Plus
  34. Codec ID                                 : A_EAC3
  35. Duration                                 : 2 h 4 min
  36. Bit rate mode                            : Constant
  37. Bit rate                                 : 256 kb/s
  38. Channel(s)                               : 6 channels
  39. Channel layout                           : L R C LFE Ls Rs
  40. Sampling rate                            : 48.0 kHz
  41. Frame rate                               : 31.250 FPS (1536 SPF)
  42. Compression mode                         : Lossy
  43. Stream size                              : 229 MiB (2%)
  44. Language                                 : English
  45. Service kind                             : Complete Main
  46. Default                                  : Yes
  47. Forced                                   : No
  48. Text #1
  49. ID                                       : 3
  50. Format                                   : UTF-8
  51. Codec ID                                 : S_TEXT/UTF8
  52. Codec ID/Info                            : UTF-8 Plain Text
  53. Duration                                 : 2 h 4 min
  54. Bit rate                                 : 35 b/s
  55. Count of elements                        : 1420
  56. Stream size                              : 32.9 KiB (0%)
  57. Title                                    : Chinese (Hong Kong)
  58. Language                                 : Chinese
  59. Default                                  : No
  60. Forced                                   : No
  61. Text #2
  62. ID                                       : 4
  63. Format                                   : UTF-8
  64. Codec ID                                 : S_TEXT/UTF8
  65. Codec ID/Info                            : UTF-8 Plain Text
  66. Duration                                 : 2 h 4 min
  67. Bit rate                                 : 41 b/s
  68. Count of elements                        : 1448
  69. Stream size                              : 38.1 KiB (0%)
  70. Title                                    : Chinese (Simplified)
  71. Language                                 : Chinese
  72. Default                                  : No
  73. Forced                                   : No
  74. Text #3
  75. ID                                       : 5
  76. Format                                   : UTF-8
  77. Codec ID                                 : S_TEXT/UTF8
  78. Codec ID/Info                            : UTF-8 Plain Text
  79. Duration                                 : 1 h 59 min
  80. Bit rate                                 : 1 b/s
  81. Count of elements                        : 47
  82. Stream size                              : 1.57 KiB (0%)
  83. Title                                    : Czech forced
  84. Language                                 : Czech
  85. Default                                  : No
  86. Forced                                   : No
  87. Text #4
  88. ID                                       : 6
  89. Format                                   : UTF-8
  90. Codec ID                                 : S_TEXT/UTF8
  91. Codec ID/Info                            : UTF-8 Plain Text
  92. Duration                                 : 2 h 4 min
  93. Bit rate                                 : 42 b/s
  94. Count of elements                        : 1427
  95. Stream size                              : 39.1 KiB (0%)
  96. Title                                    : Danish
  97. Language                                 : Danish
  98. Default                                  : No
  99. Forced                                   : No
  100. Text #5
  101. ID                                       : 7
  102. Format                                   : UTF-8
  103. Codec ID                                 : S_TEXT/UTF8
  104. Codec ID/Info                            : UTF-8 Plain Text
  105. Duration                                 : 2 h 4 min
  106. Bit rate                                 : 1 b/s
  107. Count of elements                        : 49
  108. Stream size                              : 1.61 KiB (0%)
  109. Title                                    : German forced
  110. Language                                 : German
  111. Default                                  : No
  112. Forced                                   : No
  113. Text #6
  114. ID                                       : 8
  115. Format                                   : UTF-8
  116. Codec ID                                 : S_TEXT/UTF8
  117. Codec ID/Info                            : UTF-8 Plain Text
  118. Duration                                 : 2 h 4 min
  119. Bit rate                                 : 42 b/s
  120. Count of elements                        : 1349
  121. Stream size                              : 38.6 KiB (0%)
  122. Title                                    : German
  123. Language                                 : German
  124. Default                                  : No
  125. Forced                                   : No
  126. Text #7
  127. ID                                       : 9
  128. Format                                   : UTF-8
  129. Codec ID                                 : S_TEXT/UTF8
  130. Codec ID/Info                            : UTF-8 Plain Text
  131. Duration                                 : 1 h 7 min
  132. Bit rate                                 : 0 b/s
  133. Count of elements                        : 4
  134. Stream size                              : 101 Bytes (0%)
  135. Title                                    : English forced
  136. Language                                 : English
  137. Default                                  : Yes
  138. Forced                                   : Yes
  139. Text #8
  140. ID                                       : 10
  141. Format                                   : UTF-8
  142. Codec ID                                 : S_TEXT/UTF8
  143. Codec ID/Info                            : UTF-8 Plain Text
  144. Duration                                 : 2 h 4 min
  145. Bit rate                                 : 57 b/s
  146. Count of elements                        : 1537
  147. Stream size                              : 52.4 KiB (0%)
  148. Title                                    : English
  149. Language                                 : English
  150. Default                                  : No
  151. Forced                                   : No
  152. Text #9
  153. ID                                       : 11
  154. Format                                   : UTF-8
  155. Codec ID                                 : S_TEXT/UTF8
  156. Codec ID/Info                            : UTF-8 Plain Text
  157. Duration                                 : 1 h 59 min
  158. Bit rate                                 : 1 b/s
  159. Count of elements                        : 47
  160. Stream size                              : 1.61 KiB (0%)
  161. Title                                    : Spanish forced
  162. Language                                 : Spanish
  163. Default                                  : No
  164. Forced                                   : No
  165. Text #10
  166. ID                                       : 12
  167. Format                                   : UTF-8
  168. Codec ID                                 : S_TEXT/UTF8
  169. Codec ID/Info                            : UTF-8 Plain Text
  170. Duration                                 : 1 h 59 min
  171. Bit rate                                 : 2 b/s
  172. Count of elements                        : 48
  173. Stream size                              : 1.84 KiB (0%)
  174. Title                                    : Spanish forced
  175. Language                                 : Spanish
  176. Default                                  : No
  177. Forced                                   : No
  178. Text #11
  179. ID                                       : 13
  180. Format                                   : UTF-8
  181. Codec ID                                 : S_TEXT/UTF8
  182. Codec ID/Info                            : UTF-8 Plain Text
  183. Duration                                 : 2 h 4 min
  184. Bit rate                                 : 46 b/s
  185. Count of elements                        : 1418
  186. Stream size                              : 42.4 KiB (0%)
  187. Title                                    : Spanish
  188. Language                                 : Spanish
  189. Default                                  : No
  190. Forced                                   : No
  191. Text #12
  192. ID                                       : 14
  193. Format                                   : UTF-8
  194. Codec ID                                 : S_TEXT/UTF8
  195. Codec ID/Info                            : UTF-8 Plain Text
  196. Duration                                 : 2 h 4 min
  197. Bit rate                                 : 43 b/s
  198. Count of elements                        : 1336
  199. Stream size                              : 40.0 KiB (0%)
  200. Title                                    : Spanish (Latinoamericano)
  201. Language                                 : Spanish
  202. Default                                  : No
  203. Forced                                   : No
  204. Text #13
  205. ID                                       : 15
  206. Format                                   : UTF-8
  207. Codec ID                                 : S_TEXT/UTF8
  208. Codec ID/Info                            : UTF-8 Plain Text
  209. Duration                                 : 1 h 59 min
  210. Bit rate                                 : 1 b/s
  211. Count of elements                        : 50
  212. Stream size                              : 1.59 KiB (0%)
  213. Title                                    : French forced
  214. Language                                 : French
  215. Default                                  : No
  216. Forced                                   : No
  217. Text #14
  218. ID                                       : 16
  219. Format                                   : UTF-8
  220. Codec ID                                 : S_TEXT/UTF8
  221. Codec ID/Info                            : UTF-8 Plain Text
  222. Duration                                 : 2 h 4 min
  223. Bit rate                                 : 41 b/s
  224. Count of elements                        : 1403
  225. Stream size                              : 38.1 KiB (0%)
  226. Title                                    : French
  227. Language                                 : French
  228. Default                                  : No
  229. Forced                                   : No
  230. Text #15
  231. ID                                       : 17
  232. Format                                   : UTF-8
  233. Codec ID                                 : S_TEXT/UTF8
  234. Codec ID/Info                            : UTF-8 Plain Text
  235. Duration                                 : 2 h 4 min
  236. Bit rate                                 : 48 b/s
  237. Count of elements                        : 1434
  238. Stream size                              : 44.2 KiB (0%)
  239. Title                                    : French (Canadien)
  240. Language                                 : French
  241. Default                                  : No
  242. Forced                                   : No
  243. Text #16
  244. ID                                       : 18
  245. Format                                   : UTF-8
  246. Codec ID                                 : S_TEXT/UTF8
  247. Codec ID/Info                            : UTF-8 Plain Text
  248. Duration                                 : 1 h 59 min
  249. Bit rate                                 : 1 b/s
  250. Count of elements                        : 46
  251. Stream size                              : 1.75 KiB (0%)
  252. Title                                    : Italian forced
  253. Language                                 : Italian
  254. Default                                  : No
  255. Forced                                   : No
  256. Text #17
  257. ID                                       : 19
  258. Format                                   : UTF-8
  259. Codec ID                                 : S_TEXT/UTF8
  260. Codec ID/Info                            : UTF-8 Plain Text
  261. Duration                                 : 2 h 4 min
  262. Bit rate                                 : 43 b/s
  263. Count of elements                        : 1415
  264. Stream size                              : 39.3 KiB (0%)
  265. Title                                    : Italian
  266. Language                                 : Italian
  267. Default                                  : No
  268. Forced                                   : No
  269. Text #18
  270. ID                                       : 20
  271. Format                                   : UTF-8
  272. Codec ID                                 : S_TEXT/UTF8
  273. Codec ID/Info                            : UTF-8 Plain Text
  274. Duration                                 : 1 h 49 min
  275. Bit rate                                 : 3 b/s
  276. Count of elements                        : 42
  277. Stream size                              : 2.86 KiB (0%)
  278. Title                                    : Japanese forced
  279. Language                                 : Japanese
  280. Default                                  : No
  281. Forced                                   : No
  282. Text #19
  283. ID                                       : 21
  284. Format                                   : UTF-8
  285. Codec ID                                 : S_TEXT/UTF8
  286. Codec ID/Info                            : UTF-8 Plain Text
  287. Duration                                 : 2 h 4 min
  288. Bit rate                                 : 49 b/s
  289. Count of elements                        : 1342
  290. Stream size                              : 45.6 KiB (0%)
  291. Title                                    : Japanese
  292. Language                                 : Japanese
  293. Default                                  : No
  294. Forced                                   : No
  295. Text #20
  296. ID                                       : 22
  297. Format                                   : UTF-8
  298. Codec ID                                 : S_TEXT/UTF8
  299. Codec ID/Info                            : UTF-8 Plain Text
  300. Duration                                 : 2 h 4 min
  301. Bit rate                                 : 41 b/s
  302. Count of elements                        : 1424
  303. Stream size                              : 37.8 KiB (0%)
  304. Title                                    : Korean
  305. Language                                 : Korean
  306. Default                                  : No
  307. Forced                                   : No
  308. Text #21
  309. ID                                       : 23
  310. Format                                   : UTF-8
  311. Codec ID                                 : S_TEXT/UTF8
  312. Codec ID/Info                            : UTF-8 Plain Text
  313. Duration                                 : 2 h 4 min
  314. Bit rate                                 : 41 b/s
  315. Count of elements                        : 1422
  316. Stream size                              : 37.7 KiB (0%)
  317. Title                                    : Hungarian
  318. Language                                 : Hungarian
  319. Default                                  : No
  320. Forced                                   : No
  321. Text #22
  322. ID                                       : 24
  323. Format                                   : UTF-8
  324. Codec ID                                 : S_TEXT/UTF8
  325. Codec ID/Info                            : UTF-8 Plain Text
  326. Duration                                 : 2 h 4 min
  327. Bit rate                                 : 35 b/s
  328. Count of elements                        : 1341
  329. Stream size                              : 32.0 KiB (0%)
  330. Title                                    : Dutch
  331. Language                                 : Dutch
  332. Default                                  : No
  333. Forced                                   : No
  334. Text #23
  335. ID                                       : 25
  336. Format                                   : UTF-8
  337. Codec ID                                 : S_TEXT/UTF8
  338. Codec ID/Info                            : UTF-8 Plain Text
  339. Duration                                 : 2 h 4 min
  340. Bit rate                                 : 40 b/s
  341. Count of elements                        : 1418
  342. Stream size                              : 36.6 KiB (0%)
  343. Title                                    : Norwegian
  344. Language                                 : Norwegian
  345. Default                                  : No
  346. Forced                                   : No
  347. Text #24
  348. ID                                       : 26
  349. Format                                   : UTF-8
  350. Codec ID                                 : S_TEXT/UTF8
  351. Codec ID/Info                            : UTF-8 Plain Text
  352. Duration                                 : 1 h 40 min
  353. Bit rate                                 : 0 b/s
  354. Count of elements                        : 8
  355. Stream size                              : 212 Bytes (0%)
  356. Title                                    : Polish forced
  357. Language                                 : Polish
  358. Default                                  : No
  359. Forced                                   : No
  360. Text #25
  361. ID                                       : 27
  362. Format                                   : UTF-8
  363. Codec ID                                 : S_TEXT/UTF8
  364. Codec ID/Info                            : UTF-8 Plain Text
  365. Duration                                 : 2 h 4 min
  366. Bit rate                                 : 40 b/s
  367. Count of elements                        : 1413
  368. Stream size                              : 36.7 KiB (0%)
  369. Title                                    : Polish
  370. Language                                 : Polish
  371. Default                                  : No
  372. Forced                                   : No
  373. Text #26
  374. ID                                       : 28
  375. Format                                   : UTF-8
  376. Codec ID                                 : S_TEXT/UTF8
  377. Codec ID/Info                            : UTF-8 Plain Text
  378. Duration                                 : 2 h 4 min
  379. Bit rate                                 : 45 b/s
  380. Count of elements                        : 1428
  381. Stream size                              : 41.6 KiB (0%)
  382. Title                                    : Portuguese
  383. Language                                 : Portuguese
  384. Default                                  : No
  385. Forced                                   : No
  386. Text #27
  387. ID                                       : 29
  388. Format                                   : UTF-8
  389. Codec ID                                 : S_TEXT/UTF8
  390. Codec ID/Info                            : UTF-8 Plain Text
  391. Duration                                 : 2 h 4 min
  392. Bit rate                                 : 44 b/s
  393. Count of elements                        : 1433
  394. Stream size                              : 40.7 KiB (0%)
  395. Title                                    : Portuguese (Brasil)
  396. Language                                 : Portuguese
  397. Default                                  : No
  398. Forced                                   : No
  399. Text #28
  400. ID                                       : 30
  401. Format                                   : UTF-8
  402. Codec ID                                 : S_TEXT/UTF8
  403. Codec ID/Info                            : UTF-8 Plain Text
  404. Duration                                 : 1 h 44 min
  405. Bit rate                                 : 3 b/s
  406. Count of elements                        : 59
  407. Stream size                              : 2.34 KiB (0%)
  408. Title                                    : Portuguese forced
  409. Language                                 : Portuguese
  410. Default                                  : No
  411. Forced                                   : No
  412. Text #29
  413. ID                                       : 31
  414. Format                                   : UTF-8
  415. Codec ID                                 : S_TEXT/UTF8
  416. Codec ID/Info                            : UTF-8 Plain Text
  417. Duration                                 : 2 h 4 min
  418. Bit rate                                 : 44 b/s
  419. Count of elements                        : 1430
  420. Stream size                              : 40.3 KiB (0%)
  421. Title                                    : Romanian
  422. Language                                 : Romanian
  423. Default                                  : No
  424. Forced                                   : No
  425. Text #30
  426. ID                                       : 32
  427. Format                                   : UTF-8
  428. Codec ID                                 : S_TEXT/UTF8
  429. Codec ID/Info                            : UTF-8 Plain Text
  430. Duration                                 : 2 h 4 min
  431. Bit rate                                 : 43 b/s
  432. Count of elements                        : 1417
  433. Stream size                              : 39.3 KiB (0%)
  434. Title                                    : Slovak
  435. Language                                 : Slovak
  436. Default                                  : No
  437. Forced                                   : No
  438. Text #31
  439. ID                                       : 33
  440. Format                                   : UTF-8
  441. Codec ID                                 : S_TEXT/UTF8
  442. Codec ID/Info                            : UTF-8 Plain Text
  443. Duration                                 : 2 h 4 min
  444. Bit rate                                 : 40 b/s
  445. Count of elements                        : 1403
  446. Stream size                              : 36.6 KiB (0%)
  447. Title                                    : Finnish
  448. Language                                 : Finnish
  449. Default                                  : No
  450. Forced                                   : No
  451. Text #32
  452. ID                                       : 34
  453. Format                                   : UTF-8
  454. Codec ID                                 : S_TEXT/UTF8
  455. Codec ID/Info                            : UTF-8 Plain Text
  456. Duration                                 : 2 h 4 min
  457. Bit rate                                 : 42 b/s
  458. Count of elements                        : 1420
  459. Stream size                              : 38.7 KiB (0%)
  460. Title                                    : Swedish
  461. Language                                 : Swedish
  462. Default                                  : No
  463. Forced                                   : No
  464. Text #33
  465. ID                                       : 35
  466. Format                                   : UTF-8
  467. Codec ID                                 : S_TEXT/UTF8
  468. Codec ID/Info                            : UTF-8 Plain Text
  469. Duration                                 : 1 h 40 min
  470. Bit rate                                 : 2 b/s
  471. Count of elements                        : 46
  472. Stream size                              : 1.73 KiB (0%)
  473. Title                                    : Turkish forced
  474. Language                                 : Turkish
  475. Default                                  : No
  476. Forced                                   : No
  477. Text #34
  478. ID                                       : 36
  479. Format                                   : UTF-8
  480. Codec ID                                 : S_TEXT/UTF8
  481. Codec ID/Info                            : UTF-8 Plain Text
  482. Duration                                 : 2 h 4 min
  483. Bit rate                                 : 44 b/s
  484. Count of elements                        : 1416
  485. Stream size                              : 41.0 KiB (0%)
  486. Title                                    : Turkish
  487. Language                                 : Turkish
  488. Default                                  : No
  489. Forced                                   : No
  490. Text #35
  491. ID                                       : 37
  492. Format                                   : UTF-8
  493. Codec ID                                 : S_TEXT/UTF8
  494. Codec ID/Info                            : UTF-8 Plain Text
  495. Duration                                 : 2 h 4 min
  496. Bit rate                                 : 49 b/s
  497. Count of elements                        : 1419
  498. Stream size                              : 45.6 KiB (0%)
  499. Title                                    : Icelandic
  500. Language                                 : Icelandic
  501. Default                                  : No
  502. Forced                                   : No
  503. Text #36
  504. ID                                       : 38
  505. Format                                   : UTF-8
  506. Codec ID                                 : S_TEXT/UTF8
  507. Codec ID/Info                            : UTF-8 Plain Text
  508. Duration                                 : 2 h 4 min
  509. Bit rate                                 : 41 b/s
  510. Count of elements                        : 1419
  511. Stream size                              : 37.7 KiB (0%)
  512. Title                                    : Czech
  513. Language                                 : Czech
  514. Default                                  : No
  515. Forced                                   : No
复制代码




                                       
                                       

                                       
                                       
                                       




Lucy.in.the.Sky.2019.2160p.WEB-DL.x265.10bit.HDR.DDP5.1-RVKD.torrent (18.53 KB, 下载次数: 0)
回复

使用道具 举报

您需要登录后才可以回帖 登录 | 立即注册

本版积分规则

QQ|Archiver|手机版|小黑屋|蓝光电影网

GMT+8, 2022-5-19 23:15 , Processed in 0.054222 second(s), 28 queries .

Powered by Discuz! X3.4

Copyright © 2001-2020, Tencent Cloud.

快速回复 返回顶部 返回列表