找回密码
 立即注册

QQ登录

只需一步,快速开始

查看: 28|回复: 0

[其他] 天空中的露西 Lucy.in.the.Sky.2019.2160p.WEB-DL.DDP5.1.DV.MKV.x265-RVKD 14.59GB

[复制链接]

0

精华

0

好友

2

听众

新手上路

Rank: 2

蓝光币
5
发表于 2022-5-10 08:02:50 | 显示全部楼层 |阅读模式
[img][/img]

◎标  题 天空中的露西
◎译  名 露西上太空(台) / 淡蓝色圆点 / Pale Blue Dot
◎片  名 Lucy in the Sky
◎年  代 2019
◎产  地 美国
◎类  别 剧情 / 科幻
◎语  言 英语
◎上映日期 2019-09-11(多伦多电影节) / 2019-10-04(美国)
◎IMDb评分 4.9/10 (7108人评价)
◎IMDb链接 https://www.imdb.com/title/tt4682804/
◎豆瓣评分 5.7/10 (1014人评价)
◎豆瓣链接 https://movie.douban.com/subject/25826020/
◎片  长 124分钟
◎导  演 诺亚·霍利 Noah Hawley
◎编  剧 Brian C. Brown Brian C. Brown
       Elliott DiGuiseppi Elliott DiGuiseppi
       诺亚·霍利 Noah Hawley
◎演  员 娜塔莉·波特曼 Natalie Portman
       乔恩·哈姆 Jon Hamm
       丹·史蒂文斯 Dan Stevens
       莎姬·贝兹 Zazie Beetz
       艾伦·伯斯汀 Ellen Burstyn
       科尔曼·多明戈 Colman Domingo
       尼克·奥弗曼 Nick Offerman
       泰格·诺塔洛 Tig Notaro
       克里斯托弗·达尔加 Christopher Darga
       乔·威廉森 Joe Williamson
       阿尔洛·默茨 Arlo Mertz
       肯特·绍克内克 Kent Shocknek
       尼克·科尼特 Nic Cornett
       爱德华多·莱斯卡诺 Eduardo Lezcano
       波莉·摩根 Polly Morgan
◎标  签 科幻 / 美国 / 2019 / 女性 / 剧情 / 太空 / 心理 / 真实事件改编
◎简  介

  影片讲述娜塔莉·波特曼饰演的女宇航员从太空中完成任务返回地球后,逐渐偏离原生活轨迹,现实感逐渐消失的故事。
  1. Video
  2. ID                                       : 1
  3. Format                                   : HEVC
  4. Format/Info                              : High Efficiency Video Coding
  5. Format profile                           : Main [email protected]@High
  6. HDR format                               : Dolby Vision, Version 1.0, dvhe.05.06, BL+RPU
  7. Codec ID                                 : V_MPEGH/ISO/HEVC
  8. Duration                                 : 2 h 4 min
  9. Bit rate                                 : 16.5 Mb/s
  10. Width                                    : 3 840 pixels
  11. Height                                   : 2 160 pixels
  12. Display aspect ratio                     : 16:9
  13. Frame rate mode                          : Constant
  14. Frame rate                               : 23.976 (24000/1001/189150) FPS
  15. Color space                              : YUV
  16. Chroma subsampling                       : 4:2:0
  17. Bit depth                                : 10 bits
  18. Bits/(Pixel*Frame)                       : 0.083
  19. Stream size                              : 14.4 GiB (98%)
  20. Language                                 : English
  21. Default                                  : Yes
  22. Forced                                   : No
  23. Color range                              : Full
  24. Audio
  25. ID                                       : 2
  26. Format                                   : E-AC-3
  27. Format/Info                              : Enhanced AC-3
  28. Commercial name                          : Dolby Digital Plus
  29. Codec ID                                 : A_EAC3
  30. Duration                                 : 2 h 4 min
  31. Bit rate mode                            : Constant
  32. Bit rate                                 : 256 kb/s
  33. Channel(s)                               : 6 channels
  34. Channel layout                           : L R C LFE Ls Rs
  35. Sampling rate                            : 48.0 kHz
  36. Frame rate                               : 31.250 FPS (1536 SPF)
  37. Compression mode                         : Lossy
  38. Stream size                              : 229 MiB (2%)
  39. Language                                 : English
  40. Service kind                             : Complete Main
  41. Default                                  : Yes
  42. Forced                                   : No
  43. Text #1
  44. ID                                       : 3
  45. Format                                   : UTF-8
  46. Codec ID                                 : S_TEXT/UTF8
  47. Codec ID/Info                            : UTF-8 Plain Text
  48. Duration                                 : 2 h 4 min
  49. Bit rate                                 : 35 b/s
  50. Count of elements                        : 1420
  51. Stream size                              : 32.9 KiB (0%)
  52. Title                                    : Chinese (Hong Kong)
  53. Language                                 : Chinese
  54. Default                                  : No
  55. Forced                                   : No
  56. Text #2
  57. ID                                       : 4
  58. Format                                   : UTF-8
  59. Codec ID                                 : S_TEXT/UTF8
  60. Codec ID/Info                            : UTF-8 Plain Text
  61. Duration                                 : 2 h 4 min
  62. Bit rate                                 : 41 b/s
  63. Count of elements                        : 1448
  64. Stream size                              : 38.1 KiB (0%)
  65. Title                                    : Chinese (Simplified)
  66. Language                                 : Chinese
  67. Default                                  : No
  68. Forced                                   : No
  69. Text #3
  70. ID                                       : 5
  71. Format                                   : UTF-8
  72. Codec ID                                 : S_TEXT/UTF8
  73. Codec ID/Info                            : UTF-8 Plain Text
  74. Duration                                 : 1 h 59 min
  75. Bit rate                                 : 1 b/s
  76. Count of elements                        : 47
  77. Stream size                              : 1.57 KiB (0%)
  78. Title                                    : Czech forced
  79. Language                                 : Czech
  80. Default                                  : No
  81. Forced                                   : No
  82. Text #4
  83. ID                                       : 6
  84. Format                                   : UTF-8
  85. Codec ID                                 : S_TEXT/UTF8
  86. Codec ID/Info                            : UTF-8 Plain Text
  87. Duration                                 : 2 h 4 min
  88. Bit rate                                 : 42 b/s
  89. Count of elements                        : 1427
  90. Stream size                              : 39.1 KiB (0%)
  91. Title                                    : Danish
  92. Language                                 : Danish
  93. Default                                  : No
  94. Forced                                   : No
  95. Text #5
  96. ID                                       : 7
  97. Format                                   : UTF-8
  98. Codec ID                                 : S_TEXT/UTF8
  99. Codec ID/Info                            : UTF-8 Plain Text
  100. Duration                                 : 2 h 4 min
  101. Bit rate                                 : 1 b/s
  102. Count of elements                        : 49
  103. Stream size                              : 1.61 KiB (0%)
  104. Title                                    : German forced
  105. Language                                 : German
  106. Default                                  : No
  107. Forced                                   : No
  108. Text #6
  109. ID                                       : 8
  110. Format                                   : UTF-8
  111. Codec ID                                 : S_TEXT/UTF8
  112. Codec ID/Info                            : UTF-8 Plain Text
  113. Duration                                 : 2 h 4 min
  114. Bit rate                                 : 42 b/s
  115. Count of elements                        : 1349
  116. Stream size                              : 38.6 KiB (0%)
  117. Title                                    : German
  118. Language                                 : German
  119. Default                                  : No
  120. Forced                                   : No
  121. Text #7
  122. ID                                       : 9
  123. Format                                   : UTF-8
  124. Codec ID                                 : S_TEXT/UTF8
  125. Codec ID/Info                            : UTF-8 Plain Text
  126. Duration                                 : 1 h 7 min
  127. Bit rate                                 : 0 b/s
  128. Count of elements                        : 4
  129. Stream size                              : 101 Bytes (0%)
  130. Title                                    : English forced
  131. Language                                 : English
  132. Default                                  : Yes
  133. Forced                                   : Yes
  134. Text #8
  135. ID                                       : 10
  136. Format                                   : UTF-8
  137. Codec ID                                 : S_TEXT/UTF8
  138. Codec ID/Info                            : UTF-8 Plain Text
  139. Duration                                 : 2 h 4 min
  140. Bit rate                                 : 57 b/s
  141. Count of elements                        : 1537
  142. Stream size                              : 52.4 KiB (0%)
  143. Title                                    : English
  144. Language                                 : English
  145. Default                                  : No
  146. Forced                                   : No
  147. Text #9
  148. ID                                       : 11
  149. Format                                   : UTF-8
  150. Codec ID                                 : S_TEXT/UTF8
  151. Codec ID/Info                            : UTF-8 Plain Text
  152. Duration                                 : 1 h 59 min
  153. Bit rate                                 : 1 b/s
  154. Count of elements                        : 47
  155. Stream size                              : 1.61 KiB (0%)
  156. Title                                    : Spanish forced
  157. Language                                 : Spanish
  158. Default                                  : No
  159. Forced                                   : No
  160. Text #10
  161. ID                                       : 12
  162. Format                                   : UTF-8
  163. Codec ID                                 : S_TEXT/UTF8
  164. Codec ID/Info                            : UTF-8 Plain Text
  165. Duration                                 : 1 h 59 min
  166. Bit rate                                 : 2 b/s
  167. Count of elements                        : 48
  168. Stream size                              : 1.84 KiB (0%)
  169. Title                                    : Spanish forced
  170. Language                                 : Spanish
  171. Default                                  : No
  172. Forced                                   : No
  173. Text #11
  174. ID                                       : 13
  175. Format                                   : UTF-8
  176. Codec ID                                 : S_TEXT/UTF8
  177. Codec ID/Info                            : UTF-8 Plain Text
  178. Duration                                 : 2 h 4 min
  179. Bit rate                                 : 46 b/s
  180. Count of elements                        : 1418
  181. Stream size                              : 42.4 KiB (0%)
  182. Title                                    : Spanish
  183. Language                                 : Spanish
  184. Default                                  : No
  185. Forced                                   : No
  186. Text #12
  187. ID                                       : 14
  188. Format                                   : UTF-8
  189. Codec ID                                 : S_TEXT/UTF8
  190. Codec ID/Info                            : UTF-8 Plain Text
  191. Duration                                 : 2 h 4 min
  192. Bit rate                                 : 43 b/s
  193. Count of elements                        : 1336
  194. Stream size                              : 40.0 KiB (0%)
  195. Title                                    : Spanish (Latinoamericano)
  196. Language                                 : Spanish
  197. Default                                  : No
  198. Forced                                   : No
  199. Text #13
  200. ID                                       : 15
  201. Format                                   : UTF-8
  202. Codec ID                                 : S_TEXT/UTF8
  203. Codec ID/Info                            : UTF-8 Plain Text
  204. Duration                                 : 1 h 59 min
  205. Bit rate                                 : 1 b/s
  206. Count of elements                        : 50
  207. Stream size                              : 1.59 KiB (0%)
  208. Title                                    : French forced
  209. Language                                 : French
  210. Default                                  : No
  211. Forced                                   : No
  212. Text #14
  213. ID                                       : 16
  214. Format                                   : UTF-8
  215. Codec ID                                 : S_TEXT/UTF8
  216. Codec ID/Info                            : UTF-8 Plain Text
  217. Duration                                 : 2 h 4 min
  218. Bit rate                                 : 41 b/s
  219. Count of elements                        : 1403
  220. Stream size                              : 38.1 KiB (0%)
  221. Title                                    : French
  222. Language                                 : French
  223. Default                                  : No
  224. Forced                                   : No
  225. Text #15
  226. ID                                       : 17
  227. Format                                   : UTF-8
  228. Codec ID                                 : S_TEXT/UTF8
  229. Codec ID/Info                            : UTF-8 Plain Text
  230. Duration                                 : 2 h 4 min
  231. Bit rate                                 : 48 b/s
  232. Count of elements                        : 1434
  233. Stream size                              : 44.2 KiB (0%)
  234. Title                                    : French (Canadien)
  235. Language                                 : French
  236. Default                                  : No
  237. Forced                                   : No
  238. Text #16
  239. ID                                       : 18
  240. Format                                   : UTF-8
  241. Codec ID                                 : S_TEXT/UTF8
  242. Codec ID/Info                            : UTF-8 Plain Text
  243. Duration                                 : 1 h 59 min
  244. Bit rate                                 : 1 b/s
  245. Count of elements                        : 46
  246. Stream size                              : 1.75 KiB (0%)
  247. Title                                    : Italian forced
  248. Language                                 : Italian
  249. Default                                  : No
  250. Forced                                   : No
  251. Text #17
  252. ID                                       : 19
  253. Format                                   : UTF-8
  254. Codec ID                                 : S_TEXT/UTF8
  255. Codec ID/Info                            : UTF-8 Plain Text
  256. Duration                                 : 2 h 4 min
  257. Bit rate                                 : 43 b/s
  258. Count of elements                        : 1415
  259. Stream size                              : 39.3 KiB (0%)
  260. Title                                    : Italian
  261. Language                                 : Italian
  262. Default                                  : No
  263. Forced                                   : No
  264. Text #18
  265. ID                                       : 20
  266. Format                                   : UTF-8
  267. Codec ID                                 : S_TEXT/UTF8
  268. Codec ID/Info                            : UTF-8 Plain Text
  269. Duration                                 : 1 h 49 min
  270. Bit rate                                 : 3 b/s
  271. Count of elements                        : 42
  272. Stream size                              : 2.86 KiB (0%)
  273. Title                                    : Japanese forced
  274. Language                                 : Japanese
  275. Default                                  : No
  276. Forced                                   : No
  277. Text #19
  278. ID                                       : 21
  279. Format                                   : UTF-8
  280. Codec ID                                 : S_TEXT/UTF8
  281. Codec ID/Info                            : UTF-8 Plain Text
  282. Duration                                 : 2 h 4 min
  283. Bit rate                                 : 49 b/s
  284. Count of elements                        : 1342
  285. Stream size                              : 45.6 KiB (0%)
  286. Title                                    : Japanese
  287. Language                                 : Japanese
  288. Default                                  : No
  289. Forced                                   : No
  290. Text #20
  291. ID                                       : 22
  292. Format                                   : UTF-8
  293. Codec ID                                 : S_TEXT/UTF8
  294. Codec ID/Info                            : UTF-8 Plain Text
  295. Duration                                 : 2 h 4 min
  296. Bit rate                                 : 41 b/s
  297. Count of elements                        : 1424
  298. Stream size                              : 37.8 KiB (0%)
  299. Title                                    : Korean
  300. Language                                 : Korean
  301. Default                                  : No
  302. Forced                                   : No
  303. Text #21
  304. ID                                       : 23
  305. Format                                   : UTF-8
  306. Codec ID                                 : S_TEXT/UTF8
  307. Codec ID/Info                            : UTF-8 Plain Text
  308. Duration                                 : 2 h 4 min
  309. Bit rate                                 : 41 b/s
  310. Count of elements                        : 1422
  311. Stream size                              : 37.7 KiB (0%)
  312. Title                                    : Hungarian
  313. Language                                 : Hungarian
  314. Default                                  : No
  315. Forced                                   : No
  316. Text #22
  317. ID                                       : 24
  318. Format                                   : UTF-8
  319. Codec ID                                 : S_TEXT/UTF8
  320. Codec ID/Info                            : UTF-8 Plain Text
  321. Duration                                 : 2 h 4 min
  322. Bit rate                                 : 35 b/s
  323. Count of elements                        : 1341
  324. Stream size                              : 32.0 KiB (0%)
  325. Title                                    : Dutch
  326. Language                                 : Dutch
  327. Default                                  : No
  328. Forced                                   : No
  329. Text #23
  330. ID                                       : 25
  331. Format                                   : UTF-8
  332. Codec ID                                 : S_TEXT/UTF8
  333. Codec ID/Info                            : UTF-8 Plain Text
  334. Duration                                 : 2 h 4 min
  335. Bit rate                                 : 40 b/s
  336. Count of elements                        : 1418
  337. Stream size                              : 36.6 KiB (0%)
  338. Title                                    : Norwegian
  339. Language                                 : Norwegian
  340. Default                                  : No
  341. Forced                                   : No
  342. Text #24
  343. ID                                       : 26
  344. Format                                   : UTF-8
  345. Codec ID                                 : S_TEXT/UTF8
  346. Codec ID/Info                            : UTF-8 Plain Text
  347. Duration                                 : 1 h 40 min
  348. Bit rate                                 : 0 b/s
  349. Count of elements                        : 8
  350. Stream size                              : 212 Bytes (0%)
  351. Title                                    : Polish forced
  352. Language                                 : Polish
  353. Default                                  : No
  354. Forced                                   : No
  355. Text #25
  356. ID                                       : 27
  357. Format                                   : UTF-8
  358. Codec ID                                 : S_TEXT/UTF8
  359. Codec ID/Info                            : UTF-8 Plain Text
  360. Duration                                 : 2 h 4 min
  361. Bit rate                                 : 40 b/s
  362. Count of elements                        : 1413
  363. Stream size                              : 36.7 KiB (0%)
  364. Title                                    : Polish
  365. Language                                 : Polish
  366. Default                                  : No
  367. Forced                                   : No
  368. Text #26
  369. ID                                       : 28
  370. Format                                   : UTF-8
  371. Codec ID                                 : S_TEXT/UTF8
  372. Codec ID/Info                            : UTF-8 Plain Text
  373. Duration                                 : 2 h 4 min
  374. Bit rate                                 : 45 b/s
  375. Count of elements                        : 1428
  376. Stream size                              : 41.6 KiB (0%)
  377. Title                                    : Portuguese
  378. Language                                 : Portuguese
  379. Default                                  : No
  380. Forced                                   : No
  381. Text #27
  382. ID                                       : 29
  383. Format                                   : UTF-8
  384. Codec ID                                 : S_TEXT/UTF8
  385. Codec ID/Info                            : UTF-8 Plain Text
  386. Duration                                 : 2 h 4 min
  387. Bit rate                                 : 44 b/s
  388. Count of elements                        : 1433
  389. Stream size                              : 40.7 KiB (0%)
  390. Title                                    : Portuguese (Brasil)
  391. Language                                 : Portuguese
  392. Default                                  : No
  393. Forced                                   : No
  394. Text #28
  395. ID                                       : 30
  396. Format                                   : UTF-8
  397. Codec ID                                 : S_TEXT/UTF8
  398. Codec ID/Info                            : UTF-8 Plain Text
  399. Duration                                 : 1 h 44 min
  400. Bit rate                                 : 3 b/s
  401. Count of elements                        : 59
  402. Stream size                              : 2.34 KiB (0%)
  403. Title                                    : Portuguese forced
  404. Language                                 : Portuguese
  405. Default                                  : No
  406. Forced                                   : No
  407. Text #29
  408. ID                                       : 31
  409. Format                                   : UTF-8
  410. Codec ID                                 : S_TEXT/UTF8
  411. Codec ID/Info                            : UTF-8 Plain Text
  412. Duration                                 : 2 h 4 min
  413. Bit rate                                 : 44 b/s
  414. Count of elements                        : 1430
  415. Stream size                              : 40.3 KiB (0%)
  416. Title                                    : Romanian
  417. Language                                 : Romanian
  418. Default                                  : No
  419. Forced                                   : No
  420. Text #30
  421. ID                                       : 32
  422. Format                                   : UTF-8
  423. Codec ID                                 : S_TEXT/UTF8
  424. Codec ID/Info                            : UTF-8 Plain Text
  425. Duration                                 : 2 h 4 min
  426. Bit rate                                 : 43 b/s
  427. Count of elements                        : 1417
  428. Stream size                              : 39.3 KiB (0%)
  429. Title                                    : Slovak
  430. Language                                 : Slovak
  431. Default                                  : No
  432. Forced                                   : No
  433. Text #31
  434. ID                                       : 33
  435. Format                                   : UTF-8
  436. Codec ID                                 : S_TEXT/UTF8
  437. Codec ID/Info                            : UTF-8 Plain Text
  438. Duration                                 : 2 h 4 min
  439. Bit rate                                 : 40 b/s
  440. Count of elements                        : 1403
  441. Stream size                              : 36.6 KiB (0%)
  442. Title                                    : Finnish
  443. Language                                 : Finnish
  444. Default                                  : No
  445. Forced                                   : No
  446. Text #32
  447. ID                                       : 34
  448. Format                                   : UTF-8
  449. Codec ID                                 : S_TEXT/UTF8
  450. Codec ID/Info                            : UTF-8 Plain Text
  451. Duration                                 : 2 h 4 min
  452. Bit rate                                 : 42 b/s
  453. Count of elements                        : 1420
  454. Stream size                              : 38.7 KiB (0%)
  455. Title                                    : Swedish
  456. Language                                 : Swedish
  457. Default                                  : No
  458. Forced                                   : No
  459. Text #33
  460. ID                                       : 35
  461. Format                                   : UTF-8
  462. Codec ID                                 : S_TEXT/UTF8
  463. Codec ID/Info                            : UTF-8 Plain Text
  464. Duration                                 : 1 h 40 min
  465. Bit rate                                 : 2 b/s
  466. Count of elements                        : 46
  467. Stream size                              : 1.73 KiB (0%)
  468. Title                                    : Turkish forced
  469. Language                                 : Turkish
  470. Default                                  : No
  471. Forced                                   : No
  472. Text #34
  473. ID                                       : 36
  474. Format                                   : UTF-8
  475. Codec ID                                 : S_TEXT/UTF8
  476. Codec ID/Info                            : UTF-8 Plain Text
  477. Duration                                 : 2 h 4 min
  478. Bit rate                                 : 44 b/s
  479. Count of elements                        : 1416
  480. Stream size                              : 41.0 KiB (0%)
  481. Title                                    : Turkish
  482. Language                                 : Turkish
  483. Default                                  : No
  484. Forced                                   : No
  485. Text #35
  486. ID                                       : 37
  487. Format                                   : UTF-8
  488. Codec ID                                 : S_TEXT/UTF8
  489. Codec ID/Info                            : UTF-8 Plain Text
  490. Duration                                 : 2 h 4 min
  491. Bit rate                                 : 49 b/s
  492. Count of elements                        : 1419
  493. Stream size                              : 45.6 KiB (0%)
  494. Title                                    : Icelandic
  495. Language                                 : Icelandic
  496. Default                                  : No
  497. Forced                                   : No
  498. Text #36
  499. ID                                       : 38
  500. Format                                   : UTF-8
  501. Codec ID                                 : S_TEXT/UTF8
  502. Codec ID/Info                            : UTF-8 Plain Text
  503. Duration                                 : 2 h 4 min
  504. Bit rate                                 : 41 b/s
  505. Count of elements                        : 1419
  506. Stream size                              : 37.7 KiB (0%)
  507. Title                                    : Czech
  508. Language                                 : Czech
  509. Default                                  : No
  510. Forced                                   : No
复制代码




                                       
                                       

                                       
                                       
                                       




Lucy.in.the.Sky.2019.2160p.WEB-DL.DDP5.1.DV.MKV.x265-RVKD.torrent (18.88 KB, 下载次数: 0)
回复

使用道具 举报

您需要登录后才可以回帖 登录 | 立即注册

本版积分规则

QQ|Archiver|手机版|小黑屋|蓝光电影网

GMT+8, 2022-5-20 00:23 , Processed in 0.053394 second(s), 26 queries .

Powered by Discuz! X3.4

Copyright © 2001-2020, Tencent Cloud.

快速回复 返回顶部 返回列表