找回密码
 立即注册

QQ登录

只需一步,快速开始

查看: 30|回复: 0

[其他] 准备好了没 Ready.or.Not.2019.2160p.WEB-DL.DDP5.1.DV.MP4.x265-DVSUX 11.16GB

[复制链接]

0

精华

0

好友

2

听众

新手上路

Rank: 2

蓝光币
5
发表于 2022-5-10 08:02:48 | 显示全部楼层 |阅读模式
[img][/img]

◎标  题 准备好了没
◎译  名 爆血新婚夜(港) / 弑婚游戏(台)
◎片  名 Ready or Not
◎年  代 2019
◎产  地 加拿大 / 美国
◎类  别 悬疑 / 惊悚 / 恐怖
◎语  言 英语
◎上映日期 2019-08-21(美国)
◎IMDb评分 6.9/10 (131981人评价)
◎IMDb链接 https://www.imdb.com/title/tt7798634/
◎豆瓣评分 6.7/10 (69470人评价)
◎豆瓣链接 https://movie.douban.com/subject/27594938/
◎片  长 95分钟
◎导  演 马特·贝蒂内利-奥尔平 Matt Bettinelli-Olpin
       泰勒·吉勒特 Tyler Gillett
◎编  剧 盖伊·比尤西克 Guy Busick
        R. Christopher Murphy
◎演  员 萨玛拉·维文 Samara Weaving
       安迪·麦克道威尔 Andie MacDowell
       马克·奥布莱恩 Mark O'Brien
       亚当·布罗迪 Adam Brody
       亨利·科泽尼 Henry Czerny
       妮基·瓜达尼 Nicky Guadagni
       梅兰妮·斯科洛凡诺 Melanie Scrofano
       克里斯蒂安·布鲁恩 Kristian Bruun
       伊利斯·莱韦斯克 Elyse Levesque
       约翰·拉尔斯顿 John Ralston
       达妮埃拉·巴博萨 Daniela Barbosa
       伊拉娜·盖尔 Elana Gale
       安德鲁·安东尼 Andrew Anthony
       约翰·浩克斯 John Hawkes
       利亚姆·麦克唐纳 Liam MacDonald
       汉娜克·塔波特 Hanneke Talbot
◎标  签 惊悚 / 血腥 / 黑色幽默 / 恐怖 / 美国 / 悬疑 / 2019 / 婚礼
◎简  介

    格雷斯(萨玛拉·维文 Samara Weaving 饰)自幼失去双亲,成长在寄养家庭之中,这样的她再也没有想到自己竟然邂逅了豪门之子亚里克斯(马克·奥布莱恩 Mark O'Brien 饰),两人的恋爱顺利,通往婚姻的道路一路亮起绿灯。                                                                      终于,格雷斯满心期待的那一天到来了,然而,在新婚之夜,亚里克斯却告诉了格雷斯一个非常古怪的消息。原来,在亚里克斯的家族中流传着这样一个传统,每一位嫁进来的新娘都必须在结婚当晚完成一个游戏,而游戏的具体内容则由抽牌来决定。虽然对这样的规矩万分不理解,但格雷斯还是决定忍一时风平浪静。万万没想到,格雷斯抽到了最糟糕的那张牌——捉迷藏,格雷斯必须在天亮之前找到一个可以躲藏的地方,不能够被任何的人发现,否则就只有死路一条。
  1. Video
  2. ID                                       : 1
  3. Format                                   : HEVC
  4. Format/Info                              : High Efficiency Video Coding
  5. Format profile                           : Main [email protected]@High
  6. HDR format                               : Dolby Vision, Version 1.0, dvhe.05.06, BL+RPU
  7. Codec ID                                 : dvhe
  8. Codec ID/Info                            : High Efficiency Video Coding with Dolby Vision
  9. Duration                                 : 1 h 35 min
  10. Bit rate                                 : 16.5 Mb/s
  11. Width                                    : 3 840 pixels
  12. Height                                   : 2 160 pixels
  13. Display aspect ratio                     : 16:9
  14. Frame rate mode                          : Constant
  15. Frame rate                               : 23.976 (24000/1001/189150) FPS
  16. Color space                              : YUV
  17. Chroma subsampling                       : 4:2:0
  18. Bit depth                                : 10 bits
  19. Bits/(Pixel*Frame)                       : 0.083
  20. Stream size                              : 11.0 GiB (98%)
  21. Default                                  : Yes
  22. Alternate group                          : 1
  23. Encoded date                             : UTC 2022-05-09 09:00:20
  24. Tagged date                              : UTC 2022-05-09 09:02:54
  25. Color range                              : Full
  26. Codec configuration box                  : hvcC+dvcC
  27. Audio
  28. ID                                       : 2
  29. Format                                   : E-AC-3
  30. Format/Info                              : Enhanced AC-3
  31. Commercial name                          : Dolby Digital Plus
  32. Codec ID                                 : ec-3
  33. Duration                                 : 1 h 35 min
  34. Bit rate mode                            : Constant
  35. Bit rate                                 : 256 kb/s
  36. Maximum bit rate                         : 270 kb/s
  37. Channel(s)                               : 6 channels
  38. Channel layout                           : L R C LFE Ls Rs
  39. Sampling rate                            : 48.0 kHz
  40. Frame rate                               : 31.250 FPS (1536 SPF)
  41. Compression mode                         : Lossy
  42. Stream size                              : 175 MiB (2%)
  43. Title                                    : English
  44. Language                                 : English
  45. Service kind                             : Complete Main
  46. Default                                  : Yes
  47. Alternate group                          : 1
  48. Tagged date                              : UTC 2022-05-09 09:02:54
  49. Text #1
  50. ID                                       : 3
  51. Format                                   : Timed Text
  52. Codec ID                                 : tx3g
  53. Duration                                 : 1 h 40 min
  54. Bit rate mode                            : Variable
  55. Bit rate                                 : 65 b/s
  56. Stream size                              : 48.1 KiB (0%)
  57. Title                                    : English
  58. Language                                 : English
  59. Forced                                   : No
  60. Encoded date                             : UTC 2022-05-09 09:02:52
  61. Tagged date                              : UTC 2022-05-09 09:02:54
  62. Text #2
  63. ID                                       : 4
  64. Format                                   : Timed Text
  65. Codec ID                                 : tx3g
  66. Duration                                 : 1 h 40 min
  67. Bit rate mode                            : Variable
  68. Bit rate                                 : 39 b/s
  69. Stream size                              : 28.9 KiB (0%)
  70. Title                                    : Chinese-Cantonese
  71. Language                                 : Chinese
  72. Forced                                   : No
  73. Encoded date                             : UTC 2022-05-09 09:02:52
  74. Tagged date                              : UTC 2022-05-09 09:02:54
  75. Text #3
  76. ID                                       : 5
  77. Format                                   : Timed Text
  78. Codec ID                                 : tx3g
  79. Duration                                 : 1 h 40 min
  80. Bit rate mode                            : Variable
  81. Bit rate                                 : 45 b/s
  82. Stream size                              : 33.1 KiB (0%)
  83. Title                                    : Chinese-Simplified
  84. Language                                 : Chinese
  85. Forced                                   : No
  86. Encoded date                             : UTC 2022-05-09 09:02:52
  87. Tagged date                              : UTC 2022-05-09 09:02:54
  88. Text #4
  89. ID                                       : 6
  90. Format                                   : Timed Text
  91. Codec ID                                 : tx3g
  92. Duration                                 : 1 h 40 min
  93. Bit rate mode                            : Variable
  94. Bit rate                                 : 45 b/s
  95. Stream size                              : 32.9 KiB (0%)
  96. Title                                    : Chinese-Traditional
  97. Language                                 : Chinese
  98. Forced                                   : No
  99. Encoded date                             : UTC 2022-05-09 09:02:52
  100. Tagged date                              : UTC 2022-05-09 09:02:54
  101. Text #5
  102. ID                                       : 7
  103. Format                                   : Timed Text
  104. Codec ID                                 : tx3g
  105. Duration                                 : 1 h 36 min
  106. Bit rate mode                            : Variable
  107. Bit rate                                 : 6 b/s
  108. Stream size                              : 3.99 KiB (0%)
  109. Title                                    : Czech
  110. Language                                 : Czech
  111. Forced                                   : No
  112. Encoded date                             : UTC 2022-05-09 09:02:52
  113. Tagged date                              : UTC 2022-05-09 09:02:54
  114. Text #6
  115. ID                                       : 8
  116. Format                                   : Timed Text
  117. Codec ID                                 : tx3g
  118. Duration                                 : 1 h 40 min
  119. Bit rate mode                            : Variable
  120. Bit rate                                 : 51 b/s
  121. Stream size                              : 37.2 KiB (0%)
  122. Title                                    : Czech
  123. Language                                 : Czech
  124. Forced                                   : No
  125. Encoded date                             : UTC 2022-05-09 09:02:52
  126. Tagged date                              : UTC 2022-05-09 09:02:54
  127. Text #7
  128. ID                                       : 9
  129. Format                                   : Timed Text
  130. Codec ID                                 : tx3g
  131. Duration                                 : 1 h 40 min
  132. Bit rate mode                            : Variable
  133. Bit rate                                 : 46 b/s
  134. Stream size                              : 33.9 KiB (0%)
  135. Title                                    : Danish
  136. Language                                 : Danish
  137. Forced                                   : No
  138. Encoded date                             : UTC 2022-05-09 09:02:52
  139. Tagged date                              : UTC 2022-05-09 09:02:54
  140. Text #8
  141. ID                                       : 10
  142. Format                                   : Timed Text
  143. Codec ID                                 : tx3g
  144. Duration                                 : 1 h 40 min
  145. Bit rate mode                            : Variable
  146. Bit rate                                 : 42 b/s
  147. Stream size                              : 31.1 KiB (0%)
  148. Title                                    : Dutch
  149. Language                                 : Dutch
  150. Forced                                   : No
  151. Encoded date                             : UTC 2022-05-09 09:02:52
  152. Tagged date                              : UTC 2022-05-09 09:02:54
  153. Text #9
  154. ID                                       : 11
  155. Format                                   : Timed Text
  156. Codec ID                                 : tx3g
  157. Duration                                 : 1 h 40 min
  158. Bit rate mode                            : Variable
  159. Bit rate                                 : 49 b/s
  160. Stream size                              : 35.9 KiB (0%)
  161. Title                                    : Finnish
  162. Language                                 : Finnish
  163. Forced                                   : No
  164. Encoded date                             : UTC 2022-05-09 09:02:52
  165. Tagged date                              : UTC 2022-05-09 09:02:54
  166. Text #10
  167. ID                                       : 12
  168. Format                                   : Timed Text
  169. Codec ID                                 : tx3g
  170. Duration                                 : 1 h 38 min
  171. Bit rate mode                            : Variable
  172. Bit rate                                 : 4 b/s
  173. Stream size                              : 2.85 KiB (0%)
  174. Title                                    : French
  175. Language                                 : French
  176. Forced                                   : No
  177. Encoded date                             : UTC 2022-05-09 09:02:52
  178. Tagged date                              : UTC 2022-05-09 09:02:54
  179. Text #11
  180. ID                                       : 13
  181. Format                                   : Timed Text
  182. Codec ID                                 : tx3g
  183. Duration                                 : 1 h 40 min
  184. Bit rate mode                            : Variable
  185. Bit rate                                 : 44 b/s
  186. Stream size                              : 32.6 KiB (0%)
  187. Title                                    : French
  188. Language                                 : French
  189. Forced                                   : No
  190. Encoded date                             : UTC 2022-05-09 09:02:52
  191. Tagged date                              : UTC 2022-05-09 09:02:54
  192. Text #12
  193. ID                                       : 14
  194. Format                                   : Timed Text
  195. Codec ID                                 : tx3g
  196. Duration                                 : 1 h 38 min
  197. Bit rate mode                            : Variable
  198. Bit rate                                 : 7 b/s
  199. Stream size                              : 5.02 KiB (0%)
  200. Title                                    : French-CA
  201. Language                                 : French
  202. Forced                                   : No
  203. Encoded date                             : UTC 2022-05-09 09:02:52
  204. Tagged date                              : UTC 2022-05-09 09:02:54
  205. Text #13
  206. ID                                       : 15
  207. Format                                   : Timed Text
  208. Codec ID                                 : tx3g
  209. Duration                                 : 1 h 40 min
  210. Bit rate mode                            : Variable
  211. Bit rate                                 : 59 b/s
  212. Stream size                              : 43.1 KiB (0%)
  213. Title                                    : French-CA
  214. Language                                 : French
  215. Forced                                   : No
  216. Encoded date                             : UTC 2022-05-09 09:02:52
  217. Tagged date                              : UTC 2022-05-09 09:02:54
  218. Text #14
  219. ID                                       : 16
  220. Format                                   : Timed Text
  221. Codec ID                                 : tx3g
  222. Duration                                 : 1 h 40 min
  223. Bit rate mode                            : Variable
  224. Bit rate                                 : 47 b/s
  225. Stream size                              : 34.8 KiB (0%)
  226. Title                                    : German
  227. Language                                 : German
  228. Forced                                   : No
  229. Encoded date                             : UTC 2022-05-09 09:02:53
  230. Tagged date                              : UTC 2022-05-09 09:02:54
  231. Text #15
  232. ID                                       : 17
  233. Format                                   : Timed Text
  234. Codec ID                                 : tx3g
  235. Duration                                 : 2 h 22 min
  236. Bit rate mode                            : Variable
  237. Bit rate                                 : 0 b/s
  238. Stream size                              : 212 Bytes (0%)
  239. Title                                    : German
  240. Language                                 : German
  241. Forced                                   : No
  242. Encoded date                             : UTC 2022-05-09 09:02:53
  243. Tagged date                              : UTC 2022-05-09 09:02:54
  244. Text #16
  245. ID                                       : 18
  246. Format                                   : Timed Text
  247. Codec ID                                 : tx3g
  248. Duration                                 : 2 h 0 min
  249. Bit rate mode                            : Variable
  250. Bit rate                                 : 4 b/s
  251. Stream size                              : 3.63 KiB (0%)
  252. Title                                    : Hungarian
  253. Language                                 : Hungarian
  254. Forced                                   : No
  255. Encoded date                             : UTC 2022-05-09 09:02:53
  256. Tagged date                              : UTC 2022-05-09 09:02:54
  257. Text #17
  258. ID                                       : 19
  259. Format                                   : Timed Text
  260. Codec ID                                 : tx3g
  261. Duration                                 : 1 h 40 min
  262. Bit rate mode                            : Variable
  263. Bit rate                                 : 50 b/s
  264. Stream size                              : 36.9 KiB (0%)
  265. Title                                    : Hungarian
  266. Language                                 : Hungarian
  267. Forced                                   : No
  268. Encoded date                             : UTC 2022-05-09 09:02:53
  269. Tagged date                              : UTC 2022-05-09 09:02:54
  270. Text #18
  271. ID                                       : 20
  272. Format                                   : Timed Text
  273. Codec ID                                 : tx3g
  274. Duration                                 : 1 h 40 min
  275. Bit rate mode                            : Variable
  276. Bit rate                                 : 61 b/s
  277. Stream size                              : 44.8 KiB (0%)
  278. Title                                    : Icelandic
  279. Language                                 : Icelandic
  280. Forced                                   : No
  281. Encoded date                             : UTC 2022-05-09 09:02:53
  282. Tagged date                              : UTC 2022-05-09 09:02:54
  283. Text #19
  284. ID                                       : 21
  285. Format                                   : Timed Text
  286. Codec ID                                 : tx3g
  287. Duration                                 : 1 h 38 min
  288. Bit rate mode                            : Variable
  289. Bit rate                                 : 6 b/s
  290. Stream size                              : 4.28 KiB (0%)
  291. Title                                    : Italian
  292. Language                                 : Italian
  293. Forced                                   : No
  294. Encoded date                             : UTC 2022-05-09 09:02:53
  295. Tagged date                              : UTC 2022-05-09 09:02:54
  296. Text #20
  297. ID                                       : 22
  298. Format                                   : Timed Text
  299. Codec ID                                 : tx3g
  300. Duration                                 : 1 h 40 min
  301. Bit rate mode                            : Variable
  302. Bit rate                                 : 50 b/s
  303. Stream size                              : 36.7 KiB (0%)
  304. Title                                    : Italian
  305. Language                                 : Italian
  306. Forced                                   : No
  307. Encoded date                             : UTC 2022-05-09 09:02:53
  308. Tagged date                              : UTC 2022-05-09 09:02:54
  309. Text #21
  310. ID                                       : 23
  311. Format                                   : Timed Text
  312. Codec ID                                 : tx3g
  313. Duration                                 : 1 h 32 min
  314. Bit rate mode                            : Variable
  315. Bit rate                                 : 4 b/s
  316. Stream size                              : 2.72 KiB (0%)
  317. Title                                    : Japanese
  318. Language                                 : Japanese
  319. Forced                                   : No
  320. Encoded date                             : UTC 2022-05-09 09:02:53
  321. Tagged date                              : UTC 2022-05-09 09:02:54
  322. Text #22
  323. ID                                       : 24
  324. Format                                   : Timed Text
  325. Codec ID                                 : tx3g
  326. Duration                                 : 1 h 40 min
  327. Bit rate mode                            : Variable
  328. Bit rate                                 : 43 b/s
  329. Stream size                              : 31.7 KiB (0%)
  330. Title                                    : Japanese
  331. Language                                 : Japanese
  332. Forced                                   : No
  333. Encoded date                             : UTC 2022-05-09 09:02:53
  334. Tagged date                              : UTC 2022-05-09 09:02:54
  335. Text #23
  336. ID                                       : 25
  337. Format                                   : Timed Text
  338. Codec ID                                 : tx3g
  339. Duration                                 : 1 h 40 min
  340. Bit rate mode                            : Variable
  341. Bit rate                                 : 51 b/s
  342. Stream size                              : 37.3 KiB (0%)
  343. Title                                    : Korean
  344. Language                                 : Korean
  345. Forced                                   : No
  346. Encoded date                             : UTC 2022-05-09 09:02:53
  347. Tagged date                              : UTC 2022-05-09 09:02:54
  348. Text #24
  349. ID                                       : 26
  350. Format                                   : Timed Text
  351. Codec ID                                 : tx3g
  352. Duration                                 : 1 h 40 min
  353. Bit rate mode                            : Variable
  354. Bit rate                                 : 50 b/s
  355. Stream size                              : 36.9 KiB (0%)
  356. Title                                    : Norwegian
  357. Language                                 : Norwegian
  358. Forced                                   : No
  359. Encoded date                             : UTC 2022-05-09 09:02:53
  360. Tagged date                              : UTC 2022-05-09 09:02:54
  361. Text #25
  362. ID                                       : 27
  363. Format                                   : Timed Text
  364. Codec ID                                 : tx3g
  365. Duration                                 : 1 h 36 min
  366. Bit rate mode                            : Variable
  367. Bit rate                                 : 4 b/s
  368. Stream size                              : 3.01 KiB (0%)
  369. Title                                    : Polish
  370. Language                                 : Polish
  371. Forced                                   : No
  372. Encoded date                             : UTC 2022-05-09 09:02:53
  373. Tagged date                              : UTC 2022-05-09 09:02:54
  374. Text #26
  375. ID                                       : 28
  376. Format                                   : Timed Text
  377. Codec ID                                 : tx3g
  378. Duration                                 : 1 h 40 min
  379. Bit rate mode                            : Variable
  380. Bit rate                                 : 46 b/s
  381. Stream size                              : 34.0 KiB (0%)
  382. Title                                    : Polish
  383. Language                                 : Polish
  384. Forced                                   : No
  385. Encoded date                             : UTC 2022-05-09 09:02:53
  386. Tagged date                              : UTC 2022-05-09 09:02:54
  387. Text #27
  388. ID                                       : 29
  389. Format                                   : Timed Text
  390. Codec ID                                 : tx3g
  391. Duration                                 : 1 h 40 min
  392. Bit rate mode                            : Variable
  393. Bit rate                                 : 51 b/s
  394. Stream size                              : 37.5 KiB (0%)
  395. Title                                    : Portuguese
  396. Language                                 : Portuguese
  397. Forced                                   : No
  398. Encoded date                             : UTC 2022-05-09 09:02:53
  399. Tagged date                              : UTC 2022-05-09 09:02:54
  400. Text #28
  401. ID                                       : 30
  402. Format                                   : Timed Text
  403. Codec ID                                 : tx3g
  404. Duration                                 : 1 h 36 min
  405. Bit rate mode                            : Variable
  406. Bit rate                                 : 5 b/s
  407. Stream size                              : 3.90 KiB (0%)
  408. Title                                    : Portuguese-BR
  409. Language                                 : Portuguese
  410. Forced                                   : No
  411. Encoded date                             : UTC 2022-05-09 09:02:53
  412. Tagged date                              : UTC 2022-05-09 09:02:54
  413. Text #29
  414. ID                                       : 31
  415. Format                                   : Timed Text
  416. Codec ID                                 : tx3g
  417. Duration                                 : 1 h 40 min
  418. Bit rate mode                            : Variable
  419. Bit rate                                 : 47 b/s
  420. Stream size                              : 34.8 KiB (0%)
  421. Title                                    : Portuguese-BR
  422. Language                                 : Portuguese
  423. Forced                                   : No
  424. Encoded date                             : UTC 2022-05-09 09:02:53
  425. Tagged date                              : UTC 2022-05-09 09:02:54
  426. Text #30
  427. ID                                       : 32
  428. Format                                   : Timed Text
  429. Codec ID                                 : tx3g
  430. Duration                                 : 1 h 40 min
  431. Bit rate mode                            : Variable
  432. Bit rate                                 : 52 b/s
  433. Stream size                              : 38.2 KiB (0%)
  434. Title                                    : Romanian
  435. Language                                 : Romanian
  436. Forced                                   : No
  437. Encoded date                             : UTC 2022-05-09 09:02:54
  438. Tagged date                              : UTC 2022-05-09 09:02:54
  439. Text #31
  440. ID                                       : 33
  441. Format                                   : Timed Text
  442. Codec ID                                 : tx3g
  443. Duration                                 : 1 h 40 min
  444. Bit rate mode                            : Variable
  445. Bit rate                                 : 49 b/s
  446. Stream size                              : 35.8 KiB (0%)
  447. Title                                    : Slovak
  448. Language                                 : Slovak
  449. Forced                                   : No
  450. Encoded date                             : UTC 2022-05-09 09:02:54
  451. Tagged date                              : UTC 2022-05-09 09:02:54
  452. Text #32
  453. ID                                       : 34
  454. Format                                   : Timed Text
  455. Codec ID                                 : tx3g
  456. Duration                                 : 1 h 40 min
  457. Bit rate mode                            : Variable
  458. Bit rate                                 : 50 b/s
  459. Stream size                              : 36.7 KiB (0%)
  460. Title                                    : Spanish
  461. Language                                 : Spanish
  462. Forced                                   : No
  463. Encoded date                             : UTC 2022-05-09 09:02:54
  464. Tagged date                              : UTC 2022-05-09 09:02:54
  465. Text #33
  466. ID                                       : 35
  467. Format                                   : Timed Text
  468. Codec ID                                 : tx3g
  469. Duration                                 : 1 h 38 min
  470. Bit rate mode                            : Variable
  471. Bit rate                                 : 5 b/s
  472. Stream size                              : 3.29 KiB (0%)
  473. Title                                    : Spanish
  474. Language                                 : Spanish
  475. Forced                                   : No
  476. Encoded date                             : UTC 2022-05-09 09:02:54
  477. Tagged date                              : UTC 2022-05-09 09:02:54
  478. Text #34
  479. ID                                       : 36
  480. Format                                   : Timed Text
  481. Codec ID                                 : tx3g
  482. Duration                                 : 1 h 40 min
  483. Bit rate mode                            : Variable
  484. Bit rate                                 : 50 b/s
  485. Stream size                              : 36.7 KiB (0%)
  486. Title                                    : Spanish-EU
  487. Language                                 : Spanish
  488. Forced                                   : No
  489. Encoded date                             : UTC 2022-05-09 09:02:54
  490. Tagged date                              : UTC 2022-05-09 09:02:54
  491. Text #35
  492. ID                                       : 37
  493. Format                                   : Timed Text
  494. Codec ID                                 : tx3g
  495. Duration                                 : 1 h 38 min
  496. Bit rate mode                            : Variable
  497. Bit rate                                 : 4 b/s
  498. Stream size                              : 3.19 KiB (0%)
  499. Title                                    : Spanish-EU
  500. Language                                 : Spanish
  501. Forced                                   : No
  502. Encoded date                             : UTC 2022-05-09 09:02:54
  503. Tagged date                              : UTC 2022-05-09 09:02:54
  504. Text #36
  505. ID                                       : 38
  506. Format                                   : Timed Text
  507. Codec ID                                 : tx3g
  508. Duration                                 : 1 h 40 min
  509. Bit rate mode                            : Variable
  510. Bit rate                                 : 49 b/s
  511. Stream size                              : 35.8 KiB (0%)
  512. Title                                    : Swedish
  513. Language                                 : Swedish
  514. Forced                                   : No
  515. Encoded date                             : UTC 2022-05-09 09:02:54
  516. Tagged date                              : UTC 2022-05-09 09:02:54
  517. Text #37
  518. ID                                       : 39
  519. Format                                   : Timed Text
  520. Codec ID                                 : tx3g
  521. Duration                                 : 1 h 40 min
  522. Bit rate mode                            : Variable
  523. Bit rate                                 : 54 b/s
  524. Stream size                              : 40.0 KiB (0%)
  525. Title                                    : Turkish
  526. Language                                 : Turkish
  527. Forced                                   : No
  528. Encoded date                             : UTC 2022-05-09 09:02:54
  529. Tagged date                              : UTC 2022-05-09 09:02:54
  530. Text #38
  531. ID                                       : 40
  532. Format                                   : Timed Text
  533. Codec ID                                 : tx3g
  534. Duration                                 : 1 h 38 min
  535. Bit rate mode                            : Variable
  536. Bit rate                                 : 6 b/s
  537. Stream size                              : 4.27 KiB (0%)
  538. Title                                    : Turkish
  539. Language                                 : Turkish
  540. Forced                                   : No
  541. Encoded date                             : UTC 2022-05-09 09:02:54
  542. Tagged date                              : UTC 2022-05-09 09:02:54
复制代码




                                       
                                       

                                       
                                       
                                       




Ready.or.Not.2019.2160p.WEB-DL.DDP5.1.DV.MP4.x265-DVSUX.torrent (14.57 KB, 下载次数: 0)
回复

使用道具 举报

您需要登录后才可以回帖 登录 | 立即注册

本版积分规则

QQ|Archiver|手机版|小黑屋|蓝光电影网

GMT+8, 2022-5-19 23:19 , Processed in 0.062989 second(s), 28 queries .

Powered by Discuz! X3.4

Copyright © 2001-2020, Tencent Cloud.

快速回复 返回顶部 返回列表