找回密码
 立即注册

QQ登录

只需一步,快速开始

查看: 33|回复: 0

[其他] 准备好了没 Ready.or.Not.2019.2160p.WEB-DL.DTS-HD.MA.5.1.DV.MKV.x265-DVSUX 13.65GB

[复制链接]

0

精华

0

好友

2

听众

新手上路

Rank: 2

蓝光币
5
发表于 2022-5-10 08:02:30 | 显示全部楼层 |阅读模式
[img][/img]

◎标  题 准备好了没
◎译  名 爆血新婚夜(港) / 弑婚游戏(台)
◎片  名 Ready or Not
◎年  代 2019
◎产  地 加拿大 / 美国
◎类  别 悬疑 / 惊悚 / 恐怖
◎语  言 英语
◎上映日期 2019-08-21(美国)
◎IMDb评分 6.9/10 (131981人评价)
◎IMDb链接 https://www.imdb.com/title/tt7798634/
◎豆瓣评分 6.7/10 (69470人评价)
◎豆瓣链接 https://movie.douban.com/subject/27594938/
◎片  长 95分钟
◎导  演 马特·贝蒂内利-奥尔平 Matt Bettinelli-Olpin
       泰勒·吉勒特 Tyler Gillett
◎编  剧 盖伊·比尤西克 Guy Busick
        R. Christopher Murphy
◎演  员 萨玛拉·维文 Samara Weaving
       安迪·麦克道威尔 Andie MacDowell
       马克·奥布莱恩 Mark O'Brien
       亚当·布罗迪 Adam Brody
       亨利·科泽尼 Henry Czerny
       妮基·瓜达尼 Nicky Guadagni
       梅兰妮·斯科洛凡诺 Melanie Scrofano
       克里斯蒂安·布鲁恩 Kristian Bruun
       伊利斯·莱韦斯克 Elyse Levesque
       约翰·拉尔斯顿 John Ralston
       达妮埃拉·巴博萨 Daniela Barbosa
       伊拉娜·盖尔 Elana Gale
       安德鲁·安东尼 Andrew Anthony
       约翰·浩克斯 John Hawkes
       利亚姆·麦克唐纳 Liam MacDonald
       汉娜克·塔波特 Hanneke Talbot
◎标  签 惊悚 / 血腥 / 黑色幽默 / 恐怖 / 美国 / 悬疑 / 2019 / 婚礼
◎简  介

    格雷斯(萨玛拉·维文 Samara Weaving 饰)自幼失去双亲,成长在寄养家庭之中,这样的她再也没有想到自己竟然邂逅了豪门之子亚里克斯(马克·奥布莱恩 Mark O'Brien 饰),两人的恋爱顺利,通往婚姻的道路一路亮起绿灯。                                                                      终于,格雷斯满心期待的那一天到来了,然而,在新婚之夜,亚里克斯却告诉了格雷斯一个非常古怪的消息。原来,在亚里克斯的家族中流传着这样一个传统,每一位嫁进来的新娘都必须在结婚当晚完成一个游戏,而游戏的具体内容则由抽牌来决定。虽然对这样的规矩万分不理解,但格雷斯还是决定忍一时风平浪静。万万没想到,格雷斯抽到了最糟糕的那张牌——捉迷藏,格雷斯必须在天亮之前找到一个可以躲藏的地方,不能够被任何的人发现,否则就只有死路一条。
  1. Video
  2. ID                                       : 1
  3. Format                                   : HEVC
  4. Format/Info                              : High Efficiency Video Coding
  5. Format profile                           : Main [email protected]@High
  6. HDR format                               : Dolby Vision, Version 1.0, dvhe.05.06, BL+RPU
  7. Codec ID                                 : V_MPEGH/ISO/HEVC
  8. Duration                                 : 1 h 35 min
  9. Bit rate                                 : 16.5 Mb/s
  10. Width                                    : 3 840 pixels
  11. Height                                   : 2 160 pixels
  12. Display aspect ratio                     : 16:9
  13. Frame rate mode                          : Constant
  14. Frame rate                               : 23.976 (24000/1001/189150) FPS
  15. Color space                              : YUV
  16. Chroma subsampling                       : 4:2:0
  17. Bit depth                                : 10 bits
  18. Bits/(Pixel*Frame)                       : 0.083
  19. Stream size                              : 11.0 GiB (80%)
  20. Language                                 : English
  21. Default                                  : Yes
  22. Forced                                   : No
  23. Color range                              : Full
  24. Audio #1
  25. ID                                       : 2
  26. Format                                   : DTS XLL
  27. Format/Info                              : Digital Theater Systems
  28. Commercial name                          : DTS-HD Master Audio
  29. Codec ID                                 : A_DTS
  30. Duration                                 : 1 h 35 min
  31. Bit rate mode                            : Variable
  32. Bit rate                                 : 3 698 kb/s
  33. Channel(s)                               : 6 channels
  34. Channel layout                           : C L R Ls Rs LFE
  35. Sampling rate                            : 48.0 kHz
  36. Frame rate                               : 93.750 FPS (512 SPF)
  37. Bit depth                                : 24 bits
  38. Compression mode                         : Lossless
  39. Stream size                              : 2.46 GiB (18%)
  40. Title                                    : DTS-HD MA 5.1
  41. Language                                 : English
  42. Default                                  : Yes
  43. Forced                                   : No
  44. Audio #2
  45. ID                                       : 3
  46. Format                                   : E-AC-3
  47. Format/Info                              : Enhanced AC-3
  48. Commercial name                          : Dolby Digital Plus
  49. Codec ID                                 : A_EAC3
  50. Duration                                 : 1 h 35 min
  51. Bit rate mode                            : Constant
  52. Bit rate                                 : 256 kb/s
  53. Channel(s)                               : 6 channels
  54. Channel layout                           : L R C LFE Ls Rs
  55. Sampling rate                            : 48.0 kHz
  56. Frame rate                               : 31.250 FPS (1536 SPF)
  57. Compression mode                         : Lossy
  58. Stream size                              : 175 MiB (1%)
  59. Language                                 : English
  60. Service kind                             : Complete Main
  61. Default                                  : No
  62. Forced                                   : No
  63. Text #1
  64. ID                                       : 4
  65. Format                                   : UTF-8
  66. Codec ID                                 : S_TEXT/UTF8
  67. Codec ID/Info                            : UTF-8 Plain Text
  68. Duration                                 : 1 h 35 min
  69. Bit rate                                 : 58 b/s
  70. Count of elements                        : 1363
  71. Stream size                              : 40.9 KiB (0%)
  72. Title                                    : English
  73. Language                                 : English
  74. Default                                  : Yes
  75. Forced                                   : No
  76. Text #2
  77. ID                                       : 5
  78. Format                                   : UTF-8
  79. Codec ID                                 : S_TEXT/UTF8
  80. Codec ID/Info                            : UTF-8 Plain Text
  81. Duration                                 : 1 h 34 min
  82. Bit rate                                 : 35 b/s
  83. Count of elements                        : 1137
  84. Stream size                              : 24.6 KiB (0%)
  85. Title                                    : Chinese (Hong Kong)
  86. Language                                 : Chinese
  87. Default                                  : No
  88. Forced                                   : No
  89. Text #3
  90. ID                                       : 6
  91. Format                                   : UTF-8
  92. Codec ID                                 : S_TEXT/UTF8
  93. Codec ID/Info                            : UTF-8 Plain Text
  94. Duration                                 : 1 h 34 min
  95. Bit rate                                 : 41 b/s
  96. Count of elements                        : 1136
  97. Stream size                              : 28.8 KiB (0%)
  98. Title                                    : Chinese (Simplified)
  99. Language                                 : Chinese
  100. Default                                  : No
  101. Forced                                   : No
  102. Text #4
  103. ID                                       : 7
  104. Format                                   : UTF-8
  105. Codec ID                                 : S_TEXT/UTF8
  106. Codec ID/Info                            : UTF-8 Plain Text
  107. Duration                                 : 1 h 34 min
  108. Bit rate                                 : 39 b/s
  109. Count of elements                        : 1133
  110. Stream size                              : 27.3 KiB (0%)
  111. Title                                    : Chinese (Traditional)
  112. Language                                 : Chinese
  113. Default                                  : No
  114. Forced                                   : No
  115. Text #5
  116. ID                                       : 8
  117. Format                                   : UTF-8
  118. Codec ID                                 : S_TEXT/UTF8
  119. Codec ID/Info                            : UTF-8 Plain Text
  120. Duration                                 : 1 h 34 min
  121. Bit rate                                 : 43 b/s
  122. Count of elements                        : 793
  123. Stream size                              : 30.1 KiB (0%)
  124. Title                                    : Danish
  125. Language                                 : Danish
  126. Default                                  : No
  127. Forced                                   : No
  128. Text #6
  129. ID                                       : 9
  130. Format                                   : UTF-8
  131. Codec ID                                 : S_TEXT/UTF8
  132. Codec ID/Info                            : UTF-8 Plain Text
  133. Duration                                 : 1 h 33 min
  134. Bit rate                                 : 44 b/s
  135. Count of elements                        : 1003
  136. Stream size                              : 30.6 KiB (0%)
  137. Title                                    : German
  138. Language                                 : German
  139. Default                                  : No
  140. Forced                                   : No
  141. Text #7
  142. ID                                       : 10
  143. Format                                   : UTF-8
  144. Codec ID                                 : S_TEXT/UTF8
  145. Codec ID/Info                            : UTF-8 Plain Text
  146. Duration                                 : 1 h 34 min
  147. Bit rate                                 : 44 b/s
  148. Count of elements                        : 1159
  149. Stream size                              : 30.9 KiB (0%)
  150. Title                                    : Spanish
  151. Language                                 : Spanish
  152. Default                                  : No
  153. Forced                                   : No
  154. Text #8
  155. ID                                       : 11
  156. Format                                   : UTF-8
  157. Codec ID                                 : S_TEXT/UTF8
  158. Codec ID/Info                            : UTF-8 Plain Text
  159. Duration                                 : 1 h 34 min
  160. Bit rate                                 : 44 b/s
  161. Count of elements                        : 1119
  162. Stream size                              : 30.9 KiB (0%)
  163. Title                                    : Spanish (Latinoamericano)
  164. Language                                 : Spanish
  165. Default                                  : No
  166. Forced                                   : No
  167. Text #9
  168. ID                                       : 12
  169. Format                                   : UTF-8
  170. Codec ID                                 : S_TEXT/UTF8
  171. Codec ID/Info                            : UTF-8 Plain Text
  172. Duration                                 : 1 h 34 min
  173. Bit rate                                 : 40 b/s
  174. Count of elements                        : 990
  175. Stream size                              : 27.7 KiB (0%)
  176. Title                                    : French
  177. Language                                 : French
  178. Default                                  : No
  179. Forced                                   : No
  180. Text #10
  181. ID                                       : 13
  182. Format                                   : UTF-8
  183. Codec ID                                 : S_TEXT/UTF8
  184. Codec ID/Info                            : UTF-8 Plain Text
  185. Duration                                 : 1 h 34 min
  186. Bit rate                                 : 53 b/s
  187. Count of elements                        : 1124
  188. Stream size                              : 37.2 KiB (0%)
  189. Title                                    : French (Canadien)
  190. Language                                 : French
  191. Default                                  : No
  192. Forced                                   : No
  193. Text #11
  194. ID                                       : 14
  195. Format                                   : UTF-8
  196. Codec ID                                 : S_TEXT/UTF8
  197. Codec ID/Info                            : UTF-8 Plain Text
  198. Duration                                 : 1 h 33 min
  199. Bit rate                                 : 44 b/s
  200. Count of elements                        : 1111
  201. Stream size                              : 30.7 KiB (0%)
  202. Title                                    : Italian
  203. Language                                 : Italian
  204. Default                                  : No
  205. Forced                                   : No
  206. Text #12
  207. ID                                       : 15
  208. Format                                   : UTF-8
  209. Codec ID                                 : S_TEXT/UTF8
  210. Codec ID/Info                            : UTF-8 Plain Text
  211. Duration                                 : 1 h 34 min
  212. Bit rate                                 : 42 b/s
  213. Count of elements                        : 983
  214. Stream size                              : 29.1 KiB (0%)
  215. Title                                    : Japanese
  216. Language                                 : Japanese
  217. Default                                  : No
  218. Forced                                   : No
  219. Text #13
  220. ID                                       : 16
  221. Format                                   : UTF-8
  222. Codec ID                                 : S_TEXT/UTF8
  223. Codec ID/Info                            : UTF-8 Plain Text
  224. Duration                                 : 1 h 34 min
  225. Bit rate                                 : 47 b/s
  226. Count of elements                        : 1139
  227. Stream size                              : 33.2 KiB (0%)
  228. Title                                    : Korean
  229. Language                                 : Korean
  230. Default                                  : No
  231. Forced                                   : No
  232. Text #14
  233. ID                                       : 17
  234. Format                                   : UTF-8
  235. Codec ID                                 : S_TEXT/UTF8
  236. Codec ID/Info                            : UTF-8 Plain Text
  237. Duration                                 : 1 h 33 min
  238. Bit rate                                 : 45 b/s
  239. Count of elements                        : 1115
  240. Stream size                              : 31.0 KiB (0%)
  241. Title                                    : Hungarian
  242. Language                                 : Hungarian
  243. Default                                  : No
  244. Forced                                   : No
  245. Text #15
  246. ID                                       : 18
  247. Format                                   : UTF-8
  248. Codec ID                                 : S_TEXT/UTF8
  249. Codec ID/Info                            : UTF-8 Plain Text
  250. Duration                                 : 1 h 33 min
  251. Bit rate                                 : 38 b/s
  252. Count of elements                        : 993
  253. Stream size                              : 26.8 KiB (0%)
  254. Title                                    : Dutch
  255. Language                                 : Dutch
  256. Default                                  : No
  257. Forced                                   : No
  258. Text #16
  259. ID                                       : 19
  260. Format                                   : UTF-8
  261. Codec ID                                 : S_TEXT/UTF8
  262. Codec ID/Info                            : UTF-8 Plain Text
  263. Duration                                 : 1 h 33 min
  264. Bit rate                                 : 45 b/s
  265. Count of elements                        : 1116
  266. Stream size                              : 31.0 KiB (0%)
  267. Title                                    : Norwegian
  268. Language                                 : Norwegian
  269. Default                                  : No
  270. Forced                                   : No
  271. Text #17
  272. ID                                       : 20
  273. Format                                   : UTF-8
  274. Codec ID                                 : S_TEXT/UTF8
  275. Codec ID/Info                            : UTF-8 Plain Text
  276. Duration                                 : 1 h 34 min
  277. Bit rate                                 : 40 b/s
  278. Count of elements                        : 1113
  279. Stream size                              : 28.0 KiB (0%)
  280. Title                                    : Polish
  281. Language                                 : Polish
  282. Default                                  : No
  283. Forced                                   : No
  284. Text #18
  285. ID                                       : 21
  286. Format                                   : UTF-8
  287. Codec ID                                 : S_TEXT/UTF8
  288. Codec ID/Info                            : UTF-8 Plain Text
  289. Duration                                 : 1 h 34 min
  290. Bit rate                                 : 46 b/s
  291. Count of elements                        : 1107
  292. Stream size                              : 32.0 KiB (0%)
  293. Title                                    : Portuguese
  294. Language                                 : Portuguese
  295. Default                                  : No
  296. Forced                                   : No
  297. Text #19
  298. ID                                       : 22
  299. Format                                   : UTF-8
  300. Codec ID                                 : S_TEXT/UTF8
  301. Codec ID/Info                            : UTF-8 Plain Text
  302. Duration                                 : 1 h 34 min
  303. Bit rate                                 : 41 b/s
  304. Count of elements                        : 1127
  305. Stream size                              : 28.8 KiB (0%)
  306. Title                                    : Portuguese (Brasil)
  307. Language                                 : Portuguese
  308. Default                                  : No
  309. Forced                                   : No
  310. Text #20
  311. ID                                       : 23
  312. Format                                   : UTF-8
  313. Codec ID                                 : S_TEXT/UTF8
  314. Codec ID/Info                            : UTF-8 Plain Text
  315. Duration                                 : 1 h 34 min
  316. Bit rate                                 : 46 b/s
  317. Count of elements                        : 1129
  318. Stream size                              : 32.2 KiB (0%)
  319. Title                                    : Romanian
  320. Language                                 : Romanian
  321. Default                                  : No
  322. Forced                                   : No
  323. Text #21
  324. ID                                       : 24
  325. Format                                   : UTF-8
  326. Codec ID                                 : S_TEXT/UTF8
  327. Codec ID/Info                            : UTF-8 Plain Text
  328. Duration                                 : 1 h 34 min
  329. Bit rate                                 : 42 b/s
  330. Count of elements                        : 1132
  331. Stream size                              : 29.7 KiB (0%)
  332. Title                                    : Slovak
  333. Language                                 : Slovak
  334. Default                                  : No
  335. Forced                                   : No
  336. Text #22
  337. ID                                       : 25
  338. Format                                   : UTF-8
  339. Codec ID                                 : S_TEXT/UTF8
  340. Codec ID/Info                            : UTF-8 Plain Text
  341. Duration                                 : 1 h 34 min
  342. Bit rate                                 : 43 b/s
  343. Count of elements                        : 1117
  344. Stream size                              : 30.2 KiB (0%)
  345. Title                                    : Finnish
  346. Language                                 : Finnish
  347. Default                                  : No
  348. Forced                                   : No
  349. Text #23
  350. ID                                       : 26
  351. Format                                   : UTF-8
  352. Codec ID                                 : S_TEXT/UTF8
  353. Codec ID/Info                            : UTF-8 Plain Text
  354. Duration                                 : 1 h 33 min
  355. Bit rate                                 : 43 b/s
  356. Count of elements                        : 1108
  357. Stream size                              : 30.1 KiB (0%)
  358. Title                                    : Swedish
  359. Language                                 : Swedish
  360. Default                                  : No
  361. Forced                                   : No
  362. Text #24
  363. ID                                       : 27
  364. Format                                   : UTF-8
  365. Codec ID                                 : S_TEXT/UTF8
  366. Codec ID/Info                            : UTF-8 Plain Text
  367. Duration                                 : 1 h 34 min
  368. Bit rate                                 : 49 b/s
  369. Count of elements                        : 1130
  370. Stream size                              : 34.0 KiB (0%)
  371. Title                                    : Turkish
  372. Language                                 : Turkish
  373. Default                                  : No
  374. Forced                                   : No
  375. Text #25
  376. ID                                       : 28
  377. Format                                   : UTF-8
  378. Codec ID                                 : S_TEXT/UTF8
  379. Codec ID/Info                            : UTF-8 Plain Text
  380. Duration                                 : 1 h 34 min
  381. Bit rate                                 : 56 b/s
  382. Count of elements                        : 1132
  383. Stream size                              : 38.9 KiB (0%)
  384. Title                                    : Icelandic
  385. Language                                 : Icelandic
  386. Default                                  : No
  387. Forced                                   : No
  388. Text #26
  389. ID                                       : 29
  390. Format                                   : UTF-8
  391. Codec ID                                 : S_TEXT/UTF8
  392. Codec ID/Info                            : UTF-8 Plain Text
  393. Duration                                 : 1 h 34 min
  394. Bit rate                                 : 44 b/s
  395. Count of elements                        : 1132
  396. Stream size                              : 31.2 KiB (0%)
  397. Title                                    : Czech
  398. Language                                 : Czech
  399. Default                                  : No
  400. Forced                                   : No
  401. Text #27
  402. ID                                       : 30
  403. Format                                   : PGS
  404. Muxing mode                              : zlib
  405. Codec ID                                 : S_HDMV/PGS
  406. Codec ID/Info                            : Picture based subtitle format used on BDs/HD-DVDs
  407. Duration                                 : 1 h 35 min
  408. Bit rate                                 : 35.2 kb/s
  409. Count of elements                        : 2726
  410. Stream size                              : 24.0 MiB (0%)
  411. Title                                    : English (SDH)
  412. Language                                 : English
  413. Default                                  : No
  414. Forced                                   : No
  415. Text #28
  416. ID                                       : 31
  417. Format                                   : PGS
  418. Muxing mode                              : zlib
  419. Codec ID                                 : S_HDMV/PGS
  420. Codec ID/Info                            : Picture based subtitle format used on BDs/HD-DVDs
  421. Duration                                 : 1 h 34 min
  422. Bit rate                                 : 30.7 kb/s
  423. Count of elements                        : 2260
  424. Stream size                              : 20.8 MiB (0%)
  425. Title                                    : French
  426. Language                                 : French
  427. Default                                  : No
  428. Forced                                   : No
  429. Text #29
  430. ID                                       : 32
  431. Format                                   : PGS
  432. Muxing mode                              : zlib
  433. Codec ID                                 : S_HDMV/PGS
  434. Codec ID/Info                            : Picture based subtitle format used on BDs/HD-DVDs
  435. Duration                                 : 1 h 34 min
  436. Bit rate                                 : 26.8 kb/s
  437. Count of elements                        : 2249
  438. Stream size                              : 18.1 MiB (0%)
  439. Title                                    : Spanish (Latin American)
  440. Language                                 : Spanish
  441. Default                                  : No
  442. Forced                                   : No
  443. Menu
  444. 00:00:00.000                             : en:Chapter 01
  445. 00:03:11.817                             : en:Chapter 02
  446. 00:06:49.534                             : en:Chapter 03
  447. 00:09:27.776                             : en:Chapter 04
  448. 00:12:27.038                             : en:Chapter 05
  449. 00:16:24.150                             : en:Chapter 06
  450. 00:21:57.942                             : en:Chapter 07
  451. 00:25:21.061                             : en:Chapter 08
  452. 00:28:00.262                             : en:Chapter 09
  453. 00:31:21.922                             : en:Chapter 10
  454. 00:34:46.459                             : en:Chapter 11
  455. 00:36:08.625                             : en:Chapter 12
  456. 00:38:23.760                             : en:Chapter 13
  457. 00:41:55.930                             : en:Chapter 14
  458. 00:45:40.363                             : en:Chapter 15
  459. 00:48:03.047                             : en:Chapter 16
  460. 00:51:50.441                             : en:Chapter 17
  461. 00:54:05.075                             : en:Chapter 18
  462. 00:57:05.088                             : en:Chapter 19
  463. 00:59:52.714                             : en:Chapter 20
  464. 01:01:37.903                             : en:Chapter 21
  465. 01:04:01.671                             : en:Chapter 22
  466. 01:07:31.422                             : en:Chapter 23
  467. 01:09:25.828                             : en:Chapter 24
  468. 01:11:48.304                             : en:Chapter 25
  469. 01:15:59.722                             : en:Chapter 26
  470. 01:18:34.585                             : en:Chapter 27
  471. 01:21:39.645                             : en:Chapter 28
  472. 01:24:07.292                             : en:Chapter 29
  473. 01:27:48.013                             : en:Chapter 30
  474. 01:29:22.315                             : en:Chapter 31
  475. 01:30:49.152                             : en:Chapter 32
复制代码




                                       
                                       

                                       
                                       
                                       




Ready.or.Not.2019.2160p.WEB-DL.DTS-HD.MA.5.1.DV.MKV.x265-DVSUX.torrent (17.71 KB, 下载次数: 1)
回复

使用道具 举报

您需要登录后才可以回帖 登录 | 立即注册

本版积分规则

QQ|Archiver|手机版|小黑屋|蓝光电影网

GMT+8, 2022-5-20 00:25 , Processed in 0.071980 second(s), 28 queries .

Powered by Discuz! X3.4

Copyright © 2001-2020, Tencent Cloud.

快速回复 返回顶部 返回列表