找回密码
 立即注册

QQ登录

只需一步,快速开始

查看: 22|回复: 0

[其他] 普通人 Ordinary.People.1980.2160p.WEB-DL.TrueHD.2.0.DV.MKV.x265-DVSUX 22.67GB

[复制链接]

0

精华

0

好友

2

听众

新手上路

Rank: 2

蓝光币
5
发表于 2022-5-10 08:02:10 | 显示全部楼层 |阅读模式


◎译  名 普通人 / 凡夫俗子 / 慈父严母
◎片  名 Ordinary People
◎年  代 1980
◎产  地 美国
◎类  别 剧情
◎语  言 英语
◎上映日期 1980-09-19
◎IMDb链接 https://www.imdb.com/title/tt0081283/
◎豆瓣评分 8.0/10 (4985人评价)
◎豆瓣链接 https://movie.douban.com/subject/1294925/
◎片  长 124 分钟
◎导  演 罗伯特·雷德福 Robert Redford (id:1053617)
◎编  剧 朱迪斯·格斯特 Judith Guest (id:1001592)
       阿尔文·萨金特 Alvin Sargent (id:1000667)
       南希·多德 Nancy Dowd (id:1282660)
◎演  员 唐纳德·萨瑟兰 Donald Sutherland (id:1010556)
       玛丽·泰勒·摩尔 Mary Tyler Moore (id:1013963)
       贾德·赫希 Judd Hirsch (id:1055274)
       蒂莫西·赫顿 Timothy Hutton (id:1025207)
       M·埃梅特·沃尔什 M. Emmet Walsh (id:1054687)
       伊丽莎白·麦戈文 Elizabeth McGovern (id:1010588)
       黛娜·马诺夫 Dinah Manoff (id:1007056)
       弗瑞德里克·林恩 Fredric Lehne (id:1004785)
       詹姆斯·希金 James Sikking (id:1142215)
       Basil Hoffman Basil Hoffman (id:1092279)
       奎因·K·雷德克 Quinn K. Redeker (id:1048354)
       Mariclare Costello Mariclare Costello (id:1070216)
       Elizabeth Hubbard Elizabeth Hubbard (id:1091725)
       亚当·鲍德温 Adam Baldwin (id:1031806)
       理查德·怀廷 Richard Whiting (id:1162720)
       Cynthia Baker Cynthia Baker (id:1057033)
       Rudy Hornish Rudy Hornish (id:1098630)
       简·奥德曼 Jane Alderman (id:1276949)
       Marilyn Rockafellow Marilyn Rockafellow (id:1141136)
       唐·比利特 Don Billett (id:1061199)
       Randy De Troit Randy De Troit (id:1205442)
       迈克·T·维斯 Michael T. Weiss (id:1004628)
       罗纳德·施瓦里 Ronald L. Schwary (id:1297049)
       Penny Perry Penny Perry (id:1294339)
       Gary Liddiard Gary Liddiard (id:1290022)
       Steve Perry Steve Perry (id:1294334)
       迈克尔·布里顿 Michael Britton (id:1279335)
◎简  介

  和大部分家庭一样,杰瑞特一家人过着稳定而又平静的生活,卡尔文(唐纳德·萨瑟兰 Donald Sutherland)不仅是一个工作上矜矜业业的正直律师,同时也将父亲和丈夫的角色扮演得十分出色,和妻子贝丝(玛丽·泰勒·摩尔 Mary Tyler Moore 饰)结婚二十余载,两人的感情分外稳定。                                    
                                身为杰瑞特家的大儿子,伯克(Scott Doebler 饰)享受着更多的关心与爱,身为小儿子的康纳德(蒂莫西·赫顿 Timothy Hutton 饰)对此却并不在意。一次意外中,伯克溺水身亡,悲痛欲绝的贝丝迁怒于当时和伯克在一起的康纳德,这让后者十分痛苦与自责,好在有卡尔文的陪伴和关心,他内心的创伤才渐渐治愈。然而,当他再次鼓起勇气向母亲索取温暖的时候,贝丝的举动却让他的心再一次坠入了冰窖。
◎获奖情况 (共6项)
  第53届奥斯卡金像奖 (1981)
  最佳影片
   └──罗纳德·施瓦里 (id:1297049)
  最佳导演
   └──罗伯特·雷德福 (id:1053617)
  最佳女主角(提名)
   └──玛丽·泰勒·摩尔 (id:1013963)
  最佳男配角
   └──蒂莫西·赫顿 (id:1025207)
  最佳男配角(提名)
   └──贾德·赫希 (id:1055274)
  最佳改编剧本
   └──阿尔文·萨金特 (id:1000667)
  1. Video
  2. ID                                       : 1
  3. Format                                   : HEVC
  4. Format/Info                              : High Efficiency Video Coding
  5. Format profile                           : Main [email protected]@High
  6. HDR format                               : Dolby Vision, Version 1.0, dvhe.05.06, BL+RPU
  7. Codec ID                                 : V_MPEGH/ISO/HEVC
  8. Duration                                 : 2 h 4 min
  9. Bit rate                                 : 25.0 Mb/s
  10. Width                                    : 3 838 pixels
  11. Height                                   : 2 160 pixels
  12. Display aspect ratio                     : 16:9
  13. Frame rate mode                          : Constant
  14. Frame rate                               : 23.976 (24000/1001/189150) FPS
  15. Color space                              : YUV
  16. Chroma subsampling                       : 4:2:0
  17. Bit depth                                : 10 bits
  18. Bits/(Pixel*Frame)                       : 0.126
  19. Stream size                              : 21.7 GiB (96%)
  20. Default                                  : Yes
  21. Forced                                   : No
  22. Audio #1
  23. ID                                       : 2
  24. ID in the original source medium         : 4352 (0x1100)
  25. Format                                   : MLP FBA
  26. Format/Info                              : Meridian Lossless Packing FBA
  27. Commercial name                          : Dolby TrueHD
  28. Codec ID                                 : A_TRUEHD
  29. Duration                                 : 2 h 4 min
  30. Bit rate mode                            : Variable
  31. Bit rate                                 : 633 kb/s
  32. Maximum bit rate                         : 1 209 kb/s
  33. Channel(s)                               : 2 channels
  34. Channel layout                           : L R
  35. Sampling rate                            : 48.0 kHz
  36. Frame rate                               : 1 200.000 FPS (40 SPF)
  37. Compression mode                         : Lossless
  38. Stream size                              : 563 MiB (2%)
  39. Language                                 : English
  40. Default                                  : Yes
  41. Forced                                   : No
  42. Original source medium                   : Blu-ray
  43. Audio #2
  44. ID                                       : 3
  45. ID in the original source medium         : 4352 (0x1100)
  46. Format                                   : AC-3
  47. Format/Info                              : Audio Coding 3
  48. Commercial name                          : Dolby Digital
  49. Codec ID                                 : A_AC3
  50. Duration                                 : 2 h 4 min
  51. Bit rate mode                            : Constant
  52. Bit rate                                 : 224 kb/s
  53. Channel(s)                               : 2 channels
  54. Channel layout                           : L R
  55. Sampling rate                            : 48.0 kHz
  56. Frame rate                               : 31.250 FPS (1536 SPF)
  57. Compression mode                         : Lossy
  58. Stream size                              : 199 MiB (1%)
  59. Language                                 : English
  60. Service kind                             : Complete Main
  61. Default                                  : Yes
  62. Forced                                   : No
  63. Original source medium                   : Blu-ray
  64. Audio #3
  65. ID                                       : 4
  66. Format                                   : AAC LC
  67. Format/Info                              : Advanced Audio Codec Low Complexity
  68. Codec ID                                 : A_AAC-2
  69. Duration                                 : 2 h 4 min
  70. Bit rate                                 : 109 kb/s
  71. Channel(s)                               : 2 channels
  72. Channel layout                           : L R
  73. Sampling rate                            : 48.0 kHz
  74. Frame rate                               : 46.875 FPS (1024 SPF)
  75. Compression mode                         : Lossy
  76. Stream size                              : 96.5 MiB (0%)
  77. Language                                 : English
  78. Default                                  : Yes
  79. Forced                                   : No
  80. Text #1
  81. ID                                       : 5
  82. Format                                   : UTF-8
  83. Codec ID                                 : S_TEXT/UTF8
  84. Codec ID/Info                            : UTF-8 Plain Text
  85. Duration                                 : 1 h 59 min
  86. Bit rate                                 : 64 b/s
  87. Count of elements                        : 2010
  88. Stream size                              : 56.3 KiB (0%)
  89. Title                                    : English CC
  90. Language                                 : English
  91. Default                                  : Yes
  92. Forced                                   : No
  93. Text #2
  94. ID                                       : 6
  95. Format                                   : UTF-8
  96. Codec ID                                 : S_TEXT/UTF8
  97. Codec ID/Info                            : UTF-8 Plain Text
  98. Duration                                 : 2 h 3 min
  99. Bit rate                                 : 62 b/s
  100. Count of elements                        : 1455
  101. Stream size                              : 56.1 KiB (0%)
  102. Title                                    : German
  103. Language                                 : German
  104. Default                                  : No
  105. Forced                                   : No
  106. Text #3
  107. ID                                       : 7
  108. Format                                   : UTF-8
  109. Codec ID                                 : S_TEXT/UTF8
  110. Codec ID/Info                            : UTF-8 Plain Text
  111. Duration                                 : 1 h 57 min
  112. Bit rate                                 : 69 b/s
  113. Count of elements                        : 1753
  114. Stream size                              : 60.1 KiB (0%)
  115. Title                                    : Spanish Latin American
  116. Language                                 : Spanish
  117. Default                                  : No
  118. Forced                                   : No
  119. Text #4
  120. ID                                       : 8
  121. Format                                   : UTF-8
  122. Codec ID                                 : S_TEXT/UTF8
  123. Codec ID/Info                            : UTF-8 Plain Text
  124. Duration                                 : 2 h 0 min
  125. Bit rate                                 : 58 b/s
  126. Count of elements                        : 1379
  127. Stream size                              : 51.7 KiB (0%)
  128. Title                                    : Spanish European
  129. Language                                 : Spanish
  130. Default                                  : No
  131. Forced                                   : No
  132. Text #5
  133. ID                                       : 9
  134. Format                                   : UTF-8
  135. Codec ID                                 : S_TEXT/UTF8
  136. Codec ID/Info                            : UTF-8 Plain Text
  137. Duration                                 : 2 h 0 min
  138. Bit rate                                 : 44 b/s
  139. Count of elements                        : 1172
  140. Stream size                              : 39.6 KiB (0%)
  141. Title                                    : French European
  142. Language                                 : French
  143. Default                                  : No
  144. Forced                                   : No
  145. Text #6
  146. ID                                       : 10
  147. Format                                   : UTF-8
  148. Codec ID                                 : S_TEXT/UTF8
  149. Codec ID/Info                            : UTF-8 Plain Text
  150. Duration                                 : 1 h 57 min
  151. Bit rate                                 : 63 b/s
  152. Count of elements                        : 1382
  153. Stream size                              : 54.1 KiB (0%)
  154. Title                                    : Italian
  155. Language                                 : Italian
  156. Default                                  : No
  157. Forced                                   : No
  158. Text #7
  159. ID                                       : 11
  160. Format                                   : UTF-8
  161. Codec ID                                 : S_TEXT/UTF8
  162. Codec ID/Info                            : UTF-8 Plain Text
  163. Duration                                 : 1 h 57 min
  164. Bit rate                                 : 47 b/s
  165. Count of elements                        : 1118
  166. Stream size                              : 40.5 KiB (0%)
  167. Title                                    : Dutch
  168. Language                                 : Dutch
  169. Default                                  : No
  170. Forced                                   : No
  171. Text #8
  172. ID                                       : 12
  173. Format                                   : UTF-8
  174. Codec ID                                 : S_TEXT/UTF8
  175. Codec ID/Info                            : UTF-8 Plain Text
  176. Duration                                 : 1 h 57 min
  177. Bit rate                                 : 61 b/s
  178. Count of elements                        : 1366
  179. Stream size                              : 52.9 KiB (0%)
  180. Title                                    : Portuguese Brazilian
  181. Language                                 : Portuguese
  182. Default                                  : No
  183. Forced                                   : No
  184. Text #9
  185. ID                                       : 13
  186. ID in the original source medium         : 4608 (0x1200)
  187. Format                                   : PGS
  188. Muxing mode                              : zlib
  189. Codec ID                                 : S_HDMV/PGS
  190. Codec ID/Info                            : Picture based subtitle format used on BDs/HD-DVDs
  191. Duration                                 : 1 h 57 min
  192. Bit rate                                 : 44.0 kb/s
  193. Count of elements                        : 3714
  194. Stream size                              : 36.9 MiB (0%)
  195. Language                                 : English
  196. Default                                  : No
  197. Forced                                   : No
  198. Original source medium                   : Blu-ray
  199. Text #10
  200. ID                                       : 14
  201. ID in the original source medium         : 4609 (0x1201)
  202. Format                                   : PGS
  203. Muxing mode                              : zlib
  204. Codec ID                                 : S_HDMV/PGS
  205. Codec ID/Info                            : Picture based subtitle format used on BDs/HD-DVDs
  206. Duration                                 : 1 h 59 min
  207. Bit rate                                 : 49.4 kb/s
  208. Count of elements                        : 3950
  209. Stream size                              : 42.3 MiB (0%)
  210. Language                                 : English
  211. Default                                  : No
  212. Forced                                   : No
  213. Original source medium                   : Blu-ray
  214. Text #11
  215. ID                                       : 15
  216. ID in the original source medium         : 4610 (0x1202)
  217. Format                                   : PGS
  218. Muxing mode                              : zlib
  219. Codec ID                                 : S_HDMV/PGS
  220. Codec ID/Info                            : Picture based subtitle format used on BDs/HD-DVDs
  221. Duration                                 : 2 h 0 min
  222. Bit rate                                 : 43.2 kb/s
  223. Count of elements                        : 2908
  224. Stream size                              : 37.2 MiB (0%)
  225. Language                                 : German
  226. Default                                  : No
  227. Forced                                   : No
  228. Original source medium                   : Blu-ray
  229. Text #12
  230. ID                                       : 16
  231. ID in the original source medium         : 4611 (0x1203)
  232. Format                                   : PGS
  233. Muxing mode                              : zlib
  234. Codec ID                                 : S_HDMV/PGS
  235. Codec ID/Info                            : Picture based subtitle format used on BDs/HD-DVDs
  236. Duration                                 : 2 h 0 min
  237. Bit rate                                 : 38.7 kb/s
  238. Count of elements                        : 2758
  239. Stream size                              : 33.3 MiB (0%)
  240. Language                                 : Spanish
  241. Default                                  : No
  242. Forced                                   : No
  243. Original source medium                   : Blu-ray
  244. Text #13
  245. ID                                       : 17
  246. ID in the original source medium         : 4612 (0x1204)
  247. Format                                   : PGS
  248. Muxing mode                              : zlib
  249. Codec ID                                 : S_HDMV/PGS
  250. Codec ID/Info                            : Picture based subtitle format used on BDs/HD-DVDs
  251. Duration                                 : 2 h 0 min
  252. Bit rate                                 : 28.7 kb/s
  253. Count of elements                        : 2344
  254. Stream size                              : 24.7 MiB (0%)
  255. Language                                 : French
  256. Default                                  : No
  257. Forced                                   : No
  258. Original source medium                   : Blu-ray
  259. Text #14
  260. ID                                       : 18
  261. ID in the original source medium         : 4613 (0x1205)
  262. Format                                   : PGS
  263. Muxing mode                              : zlib
  264. Codec ID                                 : S_HDMV/PGS
  265. Codec ID/Info                            : Picture based subtitle format used on BDs/HD-DVDs
  266. Duration                                 : 1 h 57 min
  267. Bit rate                                 : 23.6 kb/s
  268. Count of elements                        : 2870
  269. Stream size                              : 19.8 MiB (0%)
  270. Language                                 : Japanese
  271. Default                                  : No
  272. Forced                                   : No
  273. Original source medium                   : Blu-ray
  274. Text #15
  275. ID                                       : 19
  276. ID in the original source medium         : 4614 (0x1206)
  277. Format                                   : PGS
  278. Muxing mode                              : zlib
  279. Codec ID                                 : S_HDMV/PGS
  280. Codec ID/Info                            : Picture based subtitle format used on BDs/HD-DVDs
  281. Duration                                 : 2 h 3 min
  282. Bit rate                                 : 92 b/s
  283. Count of elements                        : 8
  284. Stream size                              : 83.4 KiB (0%)
  285. Language                                 : German
  286. Default                                  : No
  287. Forced                                   : No
  288. Original source medium                   : Blu-ray
  289. Text #16
  290. ID                                       : 20
  291. ID in the original source medium         : 4615 (0x1207)
  292. Format                                   : PGS
  293. Muxing mode                              : zlib
  294. Codec ID                                 : S_HDMV/PGS
  295. Codec ID/Info                            : Picture based subtitle format used on BDs/HD-DVDs
  296. Duration                                 : 2 h 3 min
  297. Bit rate                                 : 30 b/s
  298. Count of elements                        : 4
  299. Stream size                              : 27.8 KiB (0%)
  300. Language                                 : Spanish
  301. Default                                  : No
  302. Forced                                   : No
  303. Original source medium                   : Blu-ray
  304. Text #17
  305. ID                                       : 21
  306. ID in the original source medium         : 4616 (0x1208)
  307. Format                                   : PGS
  308. Muxing mode                              : zlib
  309. Codec ID                                 : S_HDMV/PGS
  310. Codec ID/Info                            : Picture based subtitle format used on BDs/HD-DVDs
  311. Duration                                 : 4 s 546 ms
  312. Bit rate                                 : 40.7 kb/s
  313. Count of elements                        : 2
  314. Stream size                              : 22.6 KiB (0%)
  315. Language                                 : French
  316. Default                                  : No
  317. Forced                                   : No
  318. Original source medium                   : Blu-ray
  319. Text #18
  320. ID                                       : 22
  321. ID in the original source medium         : 4617 (0x1209)
  322. Format                                   : PGS
  323. Muxing mode                              : zlib
  324. Codec ID                                 : S_HDMV/PGS
  325. Codec ID/Info                            : Picture based subtitle format used on BDs/HD-DVDs
  326. Duration                                 : 2 s 252 ms
  327. Bit rate                                 : 24.2 kb/s
  328. Count of elements                        : 2
  329. Stream size                              : 6.65 KiB (0%)
  330. Language                                 : Japanese
  331. Default                                  : No
  332. Forced                                   : No
  333. Original source medium                   : Blu-ray
  334. Menu
  335. 00:00:00.000                             : en:Chapter 01
  336. 00:03:42.305                             : en:Chapter 02
  337. 00:15:13.371                             : en:Chapter 03
  338. 00:35:31.840                             : en:Chapter 04
  339. 00:40:50.075                             : en:Chapter 05
  340. 00:55:09.976                             : en:Chapter 06
  341. 01:13:05.385                             : en:Chapter 07
  342. 01:30:24.257                             : en:Chapter 08
  343. 01:50:58.158                             : en:Chapter 09
  344. 02:01:03.805                             : en:Chapter 10
复制代码






                                       
                                       

                                       
                                       
                                       




Ordinary.People.1980.2160p.WEB-DL.TrueHD.2.0.DV.MKV.x265-DVSUX.torrent (29 KB, 下载次数: 0)
回复

使用道具 举报

您需要登录后才可以回帖 登录 | 立即注册

本版积分规则

QQ|Archiver|手机版|小黑屋|蓝光电影网

GMT+8, 2022-5-20 00:27 , Processed in 0.052810 second(s), 28 queries .

Powered by Discuz! X3.4

Copyright © 2001-2020, Tencent Cloud.

快速回复 返回顶部 返回列表