找回密码
 立即注册

QQ登录

只需一步,快速开始

查看: 29|回复: 0

[其他] 被抹去的男孩 Boy.Erased.2018.2160p.WEB-DL.x265.10bit.HDR.DTS-HD.MA.5.1-NOGRP 22.56GB

[复制链接]

0

精华

0

好友

2

听众

新手上路

Rank: 2

蓝光币
5
发表于 2022-5-10 08:01:22 | 显示全部楼层 |阅读模式


◎译  名 被抹去的男孩 / 抹去的男孩 / 被抹掉的男孩
◎片  名 Boy Erased
◎年  代 2018
◎产  地 澳大利亚 / 美国
◎类  别 剧情 / 同性 / 传记
◎语  言 英语
◎上映日期 2018-09-01(特柳赖德电影节) / 2018-11-02(美国)
◎IMDb链接 https://www.imdb.com/title/tt7008872/
◎豆瓣评分 7.4/10 (21271人评价)
◎豆瓣链接 https://movie.douban.com/subject/27066184/
◎片  长 115分钟
◎导  演 乔尔·埃哲顿 Joel Edgerton (id:1010631)
◎编  剧 加拉德·康利 Garrard Conley (id:1397582)
       乔尔·埃哲顿 Joel Edgerton (id:1010631)
◎演  员 卢卡斯·赫奇斯 Lucas Hedges (id:1340596)
       妮可·基德曼 Nicole Kidman (id:1054442)
       罗素·克劳 Russell Crowe (id:1016674)
       玛德琳·克莱因 Madelyn Cline (id:1361248)
       维克托·麦凯 Victor McCay (id:1217124)
       大卫·约瑟夫·克雷格 David Joseph Craig (id:1351161)
       特洛耶·希文 Troye Sivan (id:1018332)
       艾米丽·辛克勒 Emily Hinkler (id:1387041)
       德文·迈克尔 Devin Michael (id:1409261)
       马特·伯克 Matt Burke (id:1397595)
       林赛·莫泽 Lindsey Moser (id:1397594)
       杰西·拉图雷特 Jesse LaTourette (id:1397598)
       布里顿·瑟尔 Britton Sear (id:1397597)
       大卫·迪特莫尔 David Ditmore (id:1397596)
       威廉·吴 William Ngo (id:1336375)
       乔尔·埃哲顿 Joel Edgerton (id:1010631)
       泽维尔·多兰 Xavier Dolan (id:1032111)
       蒂姆·韦尔 Tim Ware (id:1313203)
       弗利 Flea (id:1027333)
       兰德尔·P·海文斯 Randall P. Havens (id:1360135)
       乔·阿尔文 Joe Alwyn (id:1348117)
       约什·舍雷尔 Josh Scherer (id:1397593)
       西奥多·佩尔兰 Théodore Pellerin (id:1367557)
       弗兰克·霍伊·泰勒 Frank Hoyt Taylor (id:1397592)
       罗恩·克林顿·史密斯 Ron Clinton Smith (id:1158719)
       杰森·戴维斯 Jason Davis (id:1365392)
       布鲁克·托德 Brook Todd (id:1397591)
       林恩·阿什 Lynne Ashe (id:1397590)
       迈克尔·金 Michael King (id:1397589)
       沙耶·迈克唐纳德 Shaye McDonald (id:1397588)
       辛迪·霍根 Cindy Hogan (id:1397587)
       布莱克·伯吉斯 Blake Burgess (id:1397586)
       凯文·莱恩汉 Kevin Linehan (id:1397585)
       佩吉·亨利 Paige Henry (id:1397584)
       马莱丽·格雷迪 Malerie Grady (id:1397583)
       切莉·琼斯 Cherry Jones (id:1040616)
       乔伊·雅各布森 Joy Jacobson (id:1393702)
       威尔·金德拉克 Will Kindrachuk (id:1396660)
       摩根·乔恩·福克斯 Morgan Jon Fox (id:1020042)
       马洛里·基德韦尔 Mallory Kidwell (id:1392768)
       佩拉·米德尔顿 Perla Middleton (id:1392763)
       乔尔·埃哲顿 Joel Edgerton (id:1010631)
       强尼·格林伍德 Jonny Greenwood (id:1041462)
       丹尼·本斯 Danny Bensi (id:1445092)
       桑德·朱里亚 Saunder Jurriaans (id:1445115)
       杰伊·拉比诺维茨 Jay Rabinowitz (id:1295114)
       崔茜·萨默维尔 Trish Summerville (id:1338093)
◎简  介

  乔尔·埃哲顿将自编自导新片[被清除的男孩](Boy Erased,暂译),主演卢卡斯·赫奇斯,妮可·基德曼、罗素·克劳有望加盟。影片改编自杰拉德·康利同名自传,故事讲述阿肯色一个保守小镇的牧师之子(赫奇斯饰)因同性恋性取向而遭到家庭的排斥,基德曼、克劳饰其父母。影片将于今秋开拍。                                    
                                故事简介:在阿肯色州一座封建保守的小城,浸信会牧师19岁的儿子向父母出柜。男孩却被迫参加教会支持的同性恋矫正项目来“治愈”同性恋,否则将会付出失去亲人、朋友和宗教信仰的代价。他起初参与了含有12个步骤的残酷治疗,但最终鼓起勇气逃跑,选择拥抱真正自我。
◎获奖情况 (共10项)
  第76届金球奖 (2019)
  电影类 剧情片最佳男主角(提名)
   └──卢卡斯·赫奇斯 (id:1340596)
  电影类 最佳原创歌曲(提名)
  第6届美国化妆及发型设计工会奖 (2019)
  电影类最佳现代戏化妆(提名)
  第24届美国评论家选择电影奖 (2019)
  最佳女配角(提名)
   └──妮可·基德曼 (id:1054442)
  第23届金卫星奖 (2019)
  电影部门 剧情片最佳男主角(提名)
   └──卢卡斯·赫奇斯 (id:1340596)
  电影部门 最佳男配角(提名)
   └──罗素·克劳 (id:1016674)
  电影部门 最佳女配角(提名)
   └──妮可·基德曼 (id:1054442)
  电影部门 最佳原创歌曲(提名)
  第17届华盛顿影评人协会奖 (2018)
  最佳女配角(提名)
   └──妮可·基德曼 (id:1054442)
  第6届豆瓣电影年度榜单 (2019)
  年度LGBT电影(提名)
  1. Video
  2. ID                                       : 1
  3. Format                                   : HEVC
  4. Format/Info                              : High Efficiency Video Coding
  5. Format profile                           : Main [email protected]@High
  6. HDR format                               : SMPTE ST 2086, HDR10 compatible
  7. Codec ID                                 : V_MPEGH/ISO/HEVC
  8. Duration                                 : 1 h 55 min
  9. Bit rate                                 : 24.3 Mb/s
  10. Width                                    : 3 840 pixels
  11. Height                                   : 2 076 pixels
  12. Display aspect ratio                     : 1.85:1
  13. Frame rate mode                          : Constant
  14. Frame rate                               : 23.976 FPS
  15. Color space                              : YUV
  16. Chroma subsampling                       : 4:2:0 (Type 2)
  17. Bit depth                                : 10 bits
  18. Bits/(Pixel*Frame)                       : 0.127
  19. Stream size                              : 19.6 GiB (87%)
  20. Default                                  : Yes
  21. Forced                                   : No
  22. Color range                              : Limited
  23. Color primaries                          : BT.2020
  24. Transfer characteristics                 : PQ
  25. Matrix coefficients                      : BT.2020 non-constant
  26. Mastering display color primaries        : Display P3
  27. Mastering display luminance              : min: 0.0050 cd/m2, max: 1000 cd/m2
  28. Maximum Content Light Level              : 793 cd/m2
  29. Maximum Frame-Average Light Level        : 80 cd/m2
  30. Audio #1
  31. ID                                       : 2
  32. Format                                   : DTS XLL
  33. Format/Info                              : Digital Theater Systems
  34. Commercial name                          : DTS-HD Master Audio
  35. Codec ID                                 : A_DTS
  36. Duration                                 : 1 h 54 min
  37. Bit rate mode                            : Variable
  38. Bit rate                                 : 3 338 kb/s
  39. Channel(s)                               : 6 channels
  40. Channel layout                           : C L R Ls Rs LFE
  41. Sampling rate                            : 48.0 kHz
  42. Frame rate                               : 93.750 FPS (512 SPF)
  43. Bit depth                                : 24 bits
  44. Compression mode                         : Lossless
  45. Delay relative to video                  : 25 s 0 ms
  46. Stream size                              : 2.68 GiB (12%)
  47. Title                                    : DTS-HD MA 5.1
  48. Language                                 : English
  49. Default                                  : Yes
  50. Forced                                   : No
  51. Audio #2
  52. ID                                       : 3
  53. Format                                   : AC-3
  54. Format/Info                              : Audio Coding 3
  55. Commercial name                          : Dolby Digital
  56. Codec ID                                 : A_AC3
  57. Duration                                 : 1 h 55 min
  58. Bit rate mode                            : Constant
  59. Bit rate                                 : 384 kb/s
  60. Channel(s)                               : 6 channels
  61. Channel layout                           : L R C LFE Ls Rs
  62. Sampling rate                            : 48.0 kHz
  63. Frame rate                               : 31.250 FPS (1536 SPF)
  64. Compression mode                         : Lossy
  65. Stream size                              : 316 MiB (1%)
  66. Language                                 : English
  67. Service kind                             : Complete Main
  68. Default                                  : No
  69. Forced                                   : No
  70. Text #1
  71. ID                                       : 4
  72. Format                                   : UTF-8
  73. Codec ID                                 : S_TEXT/UTF8
  74. Codec ID/Info                            : UTF-8 Plain Text
  75. Duration                                 : 1 h 54 min
  76. Bit rate                                 : 60 b/s
  77. Count of elements                        : 1721
  78. Stream size                              : 51.1 KiB (0%)
  79. Title                                    : English CC
  80. Language                                 : English
  81. Default                                  : Yes
  82. Forced                                   : No
  83. Text #2
  84. ID                                       : 5
  85. Format                                   : UTF-8
  86. Codec ID                                 : S_TEXT/UTF8
  87. Codec ID/Info                            : UTF-8 Plain Text
  88. Duration                                 : 1 h 45 min
  89. Bit rate                                 : 58 b/s
  90. Count of elements                        : 1363
  91. Stream size                              : 45.5 KiB (0%)
  92. Title                                    : English SDH
  93. Language                                 : English
  94. Default                                  : No
  95. Forced                                   : No
  96. Text #3
  97. ID                                       : 6
  98. Format                                   : UTF-8
  99. Codec ID                                 : S_TEXT/UTF8
  100. Codec ID/Info                            : UTF-8 Plain Text
  101. Duration                                 : 1 h 48 min
  102. Bit rate                                 : 82 b/s
  103. Count of elements                        : 1249
  104. Stream size                              : 65.3 KiB (0%)
  105. Title                                    : Arabic
  106. Language                                 : Arabic
  107. Default                                  : No
  108. Forced                                   : No
  109. Text #4
  110. ID                                       : 7
  111. Format                                   : UTF-8
  112. Codec ID                                 : S_TEXT/UTF8
  113. Codec ID/Info                            : UTF-8 Plain Text
  114. Duration                                 : 1 h 48 min
  115. Bit rate                                 : 81 b/s
  116. Count of elements                        : 1249
  117. Stream size                              : 64.4 KiB (0%)
  118. Title                                    : Bulgarian
  119. Language                                 : Bulgarian
  120. Default                                  : No
  121. Forced                                   : No
  122. Text #5
  123. ID                                       : 8
  124. Format                                   : UTF-8
  125. Codec ID                                 : S_TEXT/UTF8
  126. Codec ID/Info                            : UTF-8 Plain Text
  127. Duration                                 : 1 h 48 min
  128. Bit rate                                 : 47 b/s
  129. Count of elements                        : 1244
  130. Stream size                              : 37.4 KiB (0%)
  131. Title                                    : Czech
  132. Language                                 : Czech
  133. Default                                  : No
  134. Forced                                   : No
  135. Text #6
  136. ID                                       : 9
  137. Format                                   : UTF-8
  138. Codec ID                                 : S_TEXT/UTF8
  139. Codec ID/Info                            : UTF-8 Plain Text
  140. Duration                                 : 1 h 54 min
  141. Bit rate                                 : 47 b/s
  142. Count of elements                        : 1110
  143. Stream size                              : 39.4 KiB (0%)
  144. Title                                    : Danish
  145. Language                                 : Danish
  146. Default                                  : No
  147. Forced                                   : No
  148. Text #7
  149. ID                                       : 10
  150. Format                                   : UTF-8
  151. Codec ID                                 : S_TEXT/UTF8
  152. Codec ID/Info                            : UTF-8 Plain Text
  153. Duration                                 : 1 h 54 min
  154. Bit rate                                 : 46 b/s
  155. Count of elements                        : 1181
  156. Stream size                              : 38.8 KiB (0%)
  157. Title                                    : German
  158. Language                                 : German
  159. Default                                  : No
  160. Forced                                   : No
  161. Text #8
  162. ID                                       : 11
  163. Format                                   : UTF-8
  164. Codec ID                                 : S_TEXT/UTF8
  165. Codec ID/Info                            : UTF-8 Plain Text
  166. Duration                                 : 1 h 48 min
  167. Bit rate                                 : 90 b/s
  168. Count of elements                        : 1245
  169. Stream size                              : 71.9 KiB (0%)
  170. Title                                    : Greek
  171. Language                                 : Greek
  172. Default                                  : No
  173. Forced                                   : No
  174. Text #9
  175. ID                                       : 12
  176. Format                                   : UTF-8
  177. Codec ID                                 : S_TEXT/UTF8
  178. Codec ID/Info                            : UTF-8 Plain Text
  179. Duration                                 : 1 h 54 min
  180. Bit rate                                 : 48 b/s
  181. Count of elements                        : 1225
  182. Stream size                              : 40.9 KiB (0%)
  183. Title                                    : Spanish European
  184. Language                                 : Spanish
  185. Default                                  : No
  186. Forced                                   : No
  187. Text #10
  188. ID                                       : 13
  189. Format                                   : UTF-8
  190. Codec ID                                 : S_TEXT/UTF8
  191. Codec ID/Info                            : UTF-8 Plain Text
  192. Duration                                 : 1 h 48 min
  193. Bit rate                                 : 44 b/s
  194. Count of elements                        : 1234
  195. Stream size                              : 35.6 KiB (0%)
  196. Title                                    : Finnish
  197. Language                                 : Finnish
  198. Default                                  : No
  199. Forced                                   : No
  200. Text #11
  201. ID                                       : 14
  202. Format                                   : UTF-8
  203. Codec ID                                 : S_TEXT/UTF8
  204. Codec ID/Info                            : UTF-8 Plain Text
  205. Duration                                 : 1 h 54 min
  206. Bit rate                                 : 42 b/s
  207. Count of elements                        : 1271
  208. Stream size                              : 35.3 KiB (0%)
  209. Title                                    : French European
  210. Language                                 : French
  211. Default                                  : No
  212. Forced                                   : No
  213. Text #12
  214. ID                                       : 15
  215. Format                                   : UTF-8
  216. Codec ID                                 : S_TEXT/UTF8
  217. Codec ID/Info                            : UTF-8 Plain Text
  218. Duration                                 : 1 h 48 min
  219. Bit rate                                 : 128 b/s
  220. Count of elements                        : 1249
  221. Stream size                              : 102 KiB (0%)
  222. Title                                    : Hindi
  223. Language                                 : Hindi
  224. Default                                  : No
  225. Forced                                   : No
  226. Text #13
  227. ID                                       : 16
  228. Format                                   : UTF-8
  229. Codec ID                                 : S_TEXT/UTF8
  230. Codec ID/Info                            : UTF-8 Plain Text
  231. Duration                                 : 1 h 48 min
  232. Bit rate                                 : 50 b/s
  233. Count of elements                        : 1246
  234. Stream size                              : 40.0 KiB (0%)
  235. Title                                    : Hungarian
  236. Language                                 : Hungarian
  237. Default                                  : No
  238. Forced                                   : No
  239. Text #14
  240. ID                                       : 17
  241. Format                                   : UTF-8
  242. Codec ID                                 : S_TEXT/UTF8
  243. Codec ID/Info                            : UTF-8 Plain Text
  244. Duration                                 : 1 h 54 min
  245. Bit rate                                 : 49 b/s
  246. Count of elements                        : 1185
  247. Stream size                              : 41.1 KiB (0%)
  248. Title                                    : Italian
  249. Language                                 : Italian
  250. Default                                  : No
  251. Forced                                   : No
  252. Text #15
  253. ID                                       : 18
  254. Format                                   : UTF-8
  255. Codec ID                                 : S_TEXT/UTF8
  256. Codec ID/Info                            : UTF-8 Plain Text
  257. Duration                                 : 1 h 48 min
  258. Bit rate                                 : 49 b/s
  259. Count of elements                        : 1240
  260. Stream size                              : 38.8 KiB (0%)
  261. Title                                    : Dutch
  262. Language                                 : Dutch
  263. Default                                  : No
  264. Forced                                   : No
  265. Text #16
  266. ID                                       : 19
  267. Format                                   : UTF-8
  268. Codec ID                                 : S_TEXT/UTF8
  269. Codec ID/Info                            : UTF-8 Plain Text
  270. Duration                                 : 1 h 48 min
  271. Bit rate                                 : 49 b/s
  272. Count of elements                        : 1244
  273. Stream size                              : 39.4 KiB (0%)
  274. Title                                    : Norwegian
  275. Language                                 : Norwegian
  276. Default                                  : No
  277. Forced                                   : No
  278. Text #17
  279. ID                                       : 20
  280. Format                                   : UTF-8
  281. Codec ID                                 : S_TEXT/UTF8
  282. Codec ID/Info                            : UTF-8 Plain Text
  283. Duration                                 : 1 h 48 min
  284. Bit rate                                 : 44 b/s
  285. Count of elements                        : 1239
  286. Stream size                              : 35.0 KiB (0%)
  287. Title                                    : Polish
  288. Language                                 : Polish
  289. Default                                  : No
  290. Forced                                   : No
  291. Text #18
  292. ID                                       : 21
  293. Format                                   : UTF-8
  294. Codec ID                                 : S_TEXT/UTF8
  295. Codec ID/Info                            : UTF-8 Plain Text
  296. Duration                                 : 1 h 48 min
  297. Bit rate                                 : 52 b/s
  298. Count of elements                        : 1242
  299. Stream size                              : 41.7 KiB (0%)
  300. Title                                    : Portuguese European
  301. Language                                 : Portuguese
  302. Default                                  : No
  303. Forced                                   : No
  304. Text #19
  305. ID                                       : 22
  306. Format                                   : UTF-8
  307. Codec ID                                 : S_TEXT/UTF8
  308. Codec ID/Info                            : UTF-8 Plain Text
  309. Duration                                 : 1 h 48 min
  310. Bit rate                                 : 52 b/s
  311. Count of elements                        : 1237
  312. Stream size                              : 41.9 KiB (0%)
  313. Title                                    : Romanian
  314. Language                                 : Romanian
  315. Default                                  : No
  316. Forced                                   : No
  317. Text #20
  318. ID                                       : 23
  319. Format                                   : UTF-8
  320. Codec ID                                 : S_TEXT/UTF8
  321. Codec ID/Info                            : UTF-8 Plain Text
  322. Duration                                 : 1 h 48 min
  323. Bit rate                                 : 88 b/s
  324. Count of elements                        : 1250
  325. Stream size                              : 70.1 KiB (0%)
  326. Title                                    : Russian
  327. Language                                 : Russian
  328. Default                                  : No
  329. Forced                                   : No
  330. Text #21
  331. ID                                       : 24
  332. Format                                   : UTF-8
  333. Codec ID                                 : S_TEXT/UTF8
  334. Codec ID/Info                            : UTF-8 Plain Text
  335. Duration                                 : 1 h 54 min
  336. Bit rate                                 : 50 b/s
  337. Count of elements                        : 1161
  338. Stream size                              : 41.8 KiB (0%)
  339. Title                                    : Swedish
  340. Language                                 : Swedish
  341. Default                                  : No
  342. Forced                                   : No
  343. Text #22
  344. ID                                       : 25
  345. Format                                   : UTF-8
  346. Codec ID                                 : S_TEXT/UTF8
  347. Codec ID/Info                            : UTF-8 Plain Text
  348. Duration                                 : 1 h 48 min
  349. Bit rate                                 : 52 b/s
  350. Count of elements                        : 1244
  351. Stream size                              : 41.8 KiB (0%)
  352. Title                                    : Turkish
  353. Language                                 : Turkish
  354. Default                                  : No
  355. Forced                                   : No
  356. Text #23
  357. ID                                       : 26
  358. Format                                   : PGS
  359. Muxing mode                              : zlib
  360. Codec ID                                 : S_HDMV/PGS
  361. Codec ID/Info                            : Picture based subtitle format used on BDs/HD-DVDs
  362. Duration                                 : 1 h 45 min
  363. Bit rate                                 : 39.1 kb/s
  364. Count of elements                        : 2708
  365. Stream size                              : 29.6 MiB (0%)
  366. Title                                    : SDH
  367. Language                                 : English
  368. Default                                  : No
  369. Forced                                   : No
  370. Text #24
  371. ID                                       : 27
  372. Format                                   : PGS
  373. Muxing mode                              : zlib
  374. Codec ID                                 : S_HDMV/PGS
  375. Codec ID/Info                            : Picture based subtitle format used on BDs/HD-DVDs
  376. Duration                                 : 1 h 54 min
  377. Bit rate                                 : 29.9 kb/s
  378. Count of elements                        : 2488
  379. Stream size                              : 24.4 MiB (0%)
  380. Title                                    : Canadian
  381. Language                                 : French
  382. Default                                  : No
  383. Forced                                   : No
  384. Text #25
  385. ID                                       : 28
  386. Format                                   : PGS
  387. Muxing mode                              : zlib
  388. Codec ID                                 : S_HDMV/PGS
  389. Codec ID/Info                            : Picture based subtitle format used on BDs/HD-DVDs
  390. Duration                                 : 1 h 54 min
  391. Bit rate                                 : 29.7 kb/s
  392. Count of elements                        : 2490
  393. Stream size                              : 24.3 MiB (0%)
  394. Title                                    : Latin American
  395. Language                                 : Spanish
  396. Default                                  : No
  397. Forced                                   : No
  398. Menu
  399. 00:00:00.000                             : en:Chapter 01
  400. 00:05:05.430                             : en:Chapter 02
  401. 00:11:05.040                             : en:Chapter 03
  402. 00:18:40.912                             : en:Chapter 04
  403. 00:23:12.767                             : en:Chapter 05
  404. 00:31:08.827                             : en:Chapter 06
  405. 00:42:33.386                             : en:Chapter 07
  406. 00:46:52.729                             : en:Chapter 08
  407. 00:54:15.547                             : en:Chapter 09
  408. 00:58:15.829                             : en:Chapter 10
  409. 01:02:40.593                             : en:Chapter 11
  410. 01:07:00.103                             : en:Chapter 12
  411. 01:12:14.876                             : en:Chapter 13
  412. 01:16:09.027                             : en:Chapter 14
  413. 01:21:24.551                             : en:Chapter 15
  414. 01:25:54.154                             : en:Chapter 16
  415. 01:30:24.883                             : en:Chapter 17
  416. 01:34:55.070                             : en:Chapter 18
  417. 01:41:49.359                             : en:Chapter 19
  418. 01:49:06.254                             : en:Chapter 20
复制代码




                                       
                                       

                                       
                                       
                                       




Boy.Erased.2018.2160p.WEB-DL.x265.10bit.HDR.DTS-HD.MA.5.1-NOGRP.torrent (28.86 KB, 下载次数: 1)
回复

使用道具 举报

您需要登录后才可以回帖 登录 | 立即注册

本版积分规则

QQ|Archiver|手机版|小黑屋|蓝光电影网

GMT+8, 2022-5-20 00:15 , Processed in 0.054950 second(s), 28 queries .

Powered by Discuz! X3.4

Copyright © 2001-2020, Tencent Cloud.

快速回复 返回顶部 返回列表